osu file format v11

[General]
AudioFilename: 2-26 Endless Summer Story.mp3
AudioLeadIn: 500
PreviewTime: 60735
Countdown: 0
SampleSet: Soft
StackLeniency: 0.4
Mode: 0
LetterboxInBreaks: 1

[Editor]
Bookmarks: 26525
DistanceSpacing: 1.7
BeatDivisor: 6
GridSize: 4

[Metadata]
Title:Endless Summer Story
TitleUnicode:Endless Summer Story
Artist:DJ YOSHITAKA feat. Kanako Hoshino
ArtistUnicode:DJ YOSHITAKA feat. Kanako Hoshino
Creator:fanzhen0019
Version:Another
Source:beatmania IIDX
Tags:iidx12 bemani happy sky
BeatmapID:160980
BeatmapSetID:52709

[Difficulty]
HPDrainRate:7
CircleSize:4
OverallDifficulty:7
ApproachRate:8
SliderMultiplier:2.19999990463257
SliderTickRate:1

[Events]
//Background and Video events
0,0,"1d7fa30f61802e94206106cf0b26f1cc.jpg"
//Break Periods
2,87791,91578
//Storyboard Layer 0 (Background)
//Storyboard Layer 1 (Fail)
//Storyboard Layer 2 (Pass)
//Storyboard Layer 3 (Foreground)
//Storyboard Sound Samples
//Background Colour Transformations
3,100,163,162,255

[TimingPoints]
1697,631.578947368421,4,2,1,80,1,0
3275,-100,4,2,0,80,0,0
3907,-100,4,2,1,80,0,0
22539,-100,4,2,1,70,0,0
25275,-100,4,2,1,45,0,0
25696,-100,4,2,1,80,0,0
25907,-100,4,2,1,70,0,0
26328,-100,4,2,1,60,0,0
26644,-100,4,2,1,50,0,0
26960,-133.333333333333,4,2,1,45,0,0
27591,-100,4,2,1,65,0,0
42118,-100,4,2,1,100,0,1
42328,-66.6666666666667,4,2,1,100,0,1
42433,-66.6666666666667,4,2,1,75,0,1
46749,-66.6666666666667,4,2,1,45,0,1
47170,-66.6666666666667,4,2,1,75,0,1
51907,-66.6666666666667,4,2,1,45,0,1
52118,-66.6666666666667,4,2,1,75,0,1
57591,-66.6666666666667,4,2,1,20,0,1
57907,-66.6666666666667,4,2,1,100,0,1
58223,-66.6666666666667,4,2,1,20,0,1
58539,-66.6666666666667,4,2,1,100,0,1
58854,-66.6666666666667,4,2,1,20,0,1
59170,-66.6666666666667,4,2,1,100,0,1
59486,-66.6666666666667,4,2,1,20,0,1
59802,-100,4,2,1,100,0,0
60749,-100,4,2,1,30,0,0
61591,-100,4,2,1,80,0,0
62328,-66.6666666666667,4,2,1,85,0,1
71802,-66.6666666666667,4,2,1,45,0,1
72433,-66.6666666666667,4,2,1,85,0,1
80012,-66.6666666666667,4,2,1,75,0,0
80118,-66.6666666666667,4,2,1,45,0,0
80433,-66.6666666666667,4,2,1,55,0,0
80960,-66.6666666666667,4,2,1,65,0,0
81433,-66.6666666666667,4,2,1,75,0,0
86539,-66.6666666666667,4,2,1,45,0,0
86644,-66.6666666666667,4,2,1,75,0,0
86960,-66.6666666666667,4,2,1,45,0,0
87065,-66.6666666666667,4,2,1,75,0,0
92012,-100,4,2,1,60,0,0
115065,-100,4,2,1,45,0,0
115696,-100,4,2,1,30,0,0
116644,-100,4,2,1,45,0,0
116960,-66.6666666666667,4,2,1,60,0,0
117591,-66.6666666666667,4,2,1,70,0,0
117907,-66.6666666666667,4,2,1,85,0,1
125486,-66.6666666666667,4,2,1,70,0,0
125644,-66.6666666666667,4,2,1,40,0,0
125960,-66.6666666666667,4,2,1,50,0,0
126433,-66.6666666666667,4,2,1,60,0,0
126907,-66.6666666666667,4,2,1,70,0,0
132012,-66.6666666666667,4,2,1,45,0,0
132118,-66.6666666666667,4,2,1,75,0,0
132433,-66.6666666666667,4,2,1,45,0,0
132539,-66.6666666666667,4,2,1,75,0,0

[Colours]
Combo1 : 255,185,81
Combo2 : 119,253,119
Combo3 : 101,101,252
Combo4 : 252,95,95

[HitObjects]
208,96,1697,2,0,B|256:128|320:128,1,109.999995231628,2|0,0:0|0:0,0:0:0
392,48,2328,2,0,B|368:76|368:76|400:112|380:172,1,109.999995231628,2|0,0:0|0:0,0:0:0
408,216,2854,1,0,0:0:0
408,216,2960,2,0,B|360:224|320:184,1,73.3333301544189,2|0,0:0|0:0,0:0:0
304,184,3275,2,2,B|304:248|248:272,1,109.999995231628,0|2,0:0|0:0,0:0:0
232,160,3907,6,0,B|248:112|296:108,1,73.3333301544189
320,108,4223,2,0,B|348:116|372:132|380:164|380:164|424:160,2,109.999995231628,2|0|2,0:0|0:0|0:0,0:0:0
212,80,5170,6,0,B|172:96|160:132,1,73.333330154419,2|0,0:0|0:0,0:0:0
152,156,5486,2,0,B|144:188|160:232,1,73.333330154419
144,256,5802,2,2,B|92:280|36:348,1,109.999995231628,0|2,0:0|0:0,0:0:0
36,232,6328,1,0,0:0:0
68,208,6433,2,0,B|76:156|68:116,1,73.333330154419,0|2,0:0|0:0,0:0:0
64,100,6749,5,2,0:0:0
168,136,7065,1,0,0:0:0
272,100,7381,1,2,0:0:0
376,140,7696,2,0,B|412:164|452:168,1,73.333330154419,0|2,0:0|0:0,0:0:0
480,172,8012,6,0,B|476:208|424:228,1,73.333330154419,0|2,0:0|0:0,0:0:0
396,232,8328,2,2,B|384:236|364:232|364:232|332:264|268:244,1,109.999995231628,0|2,0:0|0:0,0:0:0
240,152,8960,6,0,B|280:156|316:180,1,73.333330154419,0|2,0:0|0:0,0:0:0
308,175,9275,1,0,0:0:0
264,76,9591,1,0,0:0:0
168,124,9907,1,2,0:0:0
216,224,10223,6,0,B|217:268|184:296,1,73.333330154419,0|2,0:0|0:0,0:0:0
172,260,10539,2,0,B|144:288|104:284,1,73.333330154419,0|2,0:0|0:0,0:0:0
116,248,10854,2,0,B|68:256|32:224,1,73.333330154419,0|0,0:0|0:0,0:0:0
20,208,11170,1,2,0:0:0
88,180,11381,2,0,B|104:120,1,36.6666650772095,0|2,0:0|0:0,0:0:0
208,156,11802,5,4,0:0:0
292,228,12118,1,0,0:0:0
400,244,12433,1,2,0:0:0
496,192,12749,6,0,B|472:180|448:156|448:156|412:172,1,73.333330154419,2|2,0:0|0:0,0:0:0
396,172,13065,2,0,B|320:192,1,73.333330154419,0|2,0:0|0:0,0:0:0
288,200,13381,1,0,0:0:0
376,100,13696,2,2,B|421:86|421:86|423:57|449:32,1,109.999995231628,2|0,0:0|0:0,0:0:0
500,104,14223,1,2,0:0:0
500,104,14328,5,0,0:0:0
376,100,14644,1,0,0:0:0
256,96,14960,1,2,0:0:0
152,132,15275,6,0,B|192:144|216:204,1,73.333330154419,0|2,0:0|0:0,0:0:0
220,212,15591,2,0,B|232:248|220:284|220:284|264:272,1,109.999995231628,0|0,0:0|0:0,0:0:0
360,248,16223,2,0,B|340:328,1,73.333330154419,2|0,0:0|0:0,0:0:0
308,260,16539,2,0,B|288:344,1,73.333330154419,0|2,0:0|0:0,0:0:0
255,274,16854,5,2,0:0:0
180,196,17170,1,0,0:0:0
80,240,17486,1,2,0:0:0
0,164,17802,6,0,B|28:132|68:128,1,73.333330154419,2|2,0:0|0:0,0:0:0
100,124,18118,2,0,B|117:120|136:128|136:128|148:104|168:92,1,73.333330154419,0|2,0:0|0:0,0:0:0
180,72,18433,2,2,B|240:36|304:72,1,109.999995231628,0|2,0:0|0:0,0:0:0
384,112,19065,2,0,B|404:156|440:168,1,73.333330154419,0|2,0:0|0:0,0:0:0
468,180,19381,6,0,B|488:184|504:180|504:180|480:217|480:260|480:260,2,109.999995231628,0|0|2,0:0|0:0|0:0,0:0:0
468,320,20328,2,0,B|468:344|476:360|476:360|428:352,1,73.333330154419
408,344,20644,1,2,0:0:0
344,312,20854,1,2,0:0:0
344,312,20960,1,0,0:0:0
268,316,21170,2,0,B|228:324,1,36.6666650772095,0|2,0:0|0:0,0:0:0
132,280,21486,2,0,B|172:272,1,36.6666650772095,2|2,0:0|0:0,0:0:0
280,180,21907,5,4,0:0:0
96,56,22539,6,0,B|108:120|176:124|176:124,1,109.999995231628,2|0,0:0|0:0,0:0:0
64,140,23065,1,0,0:0:0
64,140,23170,2,0,B|116:168|172:140,1,109.999995231628
100,228,23802,2,0,B|160:200|184:140,1,109.999995231628,2|0,0:0|0:0,0:0:0
256,76,24433,5,0,0:0:0
340,180,24749,1,0,0:0:0
196,196,25065,1,2,0:0:0
48,216,25381,6,0,B|48:256|80:284,1,73.333330154419
76,280,25696,1,2,0:0:0
168,276,25907,1,0,0:0:0
168,276,26012,1,0,0:0:0
248,308,26223,1,0,0:0:0
248,309,26328,5,2,0:0:0
264,316,26644,1,2,0:0:0
280,324,26960,2,0,B|312:340|312:340|364:320|420:344,1,137.499989941717
436,304,27591,6,0,B|372:280|312:300,1,109.999995231628,2|0,0:0|0:0,0:0:0
408,256,28065,2,0,B|379:243|312:244|240:276,1,164.999992847443,2|0,0:0|0:0,0:0:0
196,208,28749,1,0,0:0:0
196,208,28854,1,2,0:0:0
64,224,29170,1,2,0:0:0
180,164,29486,6,0,B|128:160|72:176|72:176,1,109.999995231628
112,52,30118,1,2,0:0:0
112,52,30433,5,0,0:0:0
240,28,30749,1,2,0:0:0
364,68,31065,1,0,0:0:0
408,192,31381,2,0,B|416:232|404:288,1,73.333330154419,4|0,0:0|0:0,0:0:0
376,236,31696,2,0,B|364:296|388:356,1,109.999995231628,0|4,0:0|0:0,0:0:0
256,308,32328,6,0,B|208:280|140:280,1,109.999995231628,0|10,0:0|0:0,0:0:0
20,288,32960,2,0,B|48:284|72:284|72:284|80:260|84:244,1,73.333330154419,0|2,0:0|0:0,0:0:0
88,224,33275,2,0,B|96:184|124:156,1,73.333330154419,0|2,0:0|0:0,0:0:0
160,140,33591,1,0,0:0:0
292,148,33907,5,10,0:0:0
236,28,34223,1,0,0:0:0
160,140,34539,2,0,B|96:156|52:120|52:120,2,109.999995231628,2|0|10,0:0|0:0|0:0,0:0:0
268,84,35486,6,0,B|308:68|344:84|380:76,1,109.999995231628
460,108,36012,1,2,0:0:0
460,108,36118,2,0,B|436:144|396:156|396:156|360:156|360:156,1,109.999995231628,0|10,0:0|0:0,0:0:0
280,160,36644,1,0,0:0:0
280,160,36749,2,0,B|224:164|200:128,1,73.333330154419,0|2,0:0|0:0,0:0:0
180,112,37065,6,0,B|124:132|104:192,2,109.999995231628,0|0|10,0:0|0:0|0:0,0:0:0
176,244,38012,2,0,B|180:280|228:312,1,73.333330154419,0|2,0:0|0:0,0:0:0
236,264,38328,2,0,B|276:288|324:288,1,73.333330154419,0|2,0:0|0:0,0:0:0
288,244,38644,2,0,B|344:248|400:232,1,109.999995231628,0|10,0:0|0:0,0:0:0
304,328,39275,1,0,0:0:0
244,212,39591,5,2,0:0:0
80,232,39907,1,0,0:0:0
212,144,40223,1,10,0:0:0
72,236,40539,1,0,0:0:0
180,200,40749,1,8,0:0:0
180,200,40854,1,0,0:0:0
64,240,41065,1,10,0:0:0
56,244,41170,2,0,B|-12:276,1,73.333330154419
32,272,41486,6,0,B|76:264|124:280,1,73.333330154419,10|10,0:0|0:0,0:0:0
148,284,41802,2,0,B|188:292|220:320|220:320|252:320,1,109.999995231628,0|4,0:0|0:0,0:0:0
340,292,42328,5,2,0:0:0
388,324,42433,2,0,B|400:244|324:228,1,109.999991953373
284,204,42749,2,0,B|340:236|412:188,1,109.999991953373,10|0,0:0|0:0,0:0:0
440,244,43065,2,0,B|468:184|412:136,1,109.999991953373
368,100,43381,5,2,0:0:0
248,148,43591,1,0,0:0:0
248,148,43697,1,0,0:0:0
108,112,43907,1,0,0:0:0
108,112,44012,1,10,0:0:0
28,216,44223,1,0,0:0:0
28,216,44328,2,0,B|80:244|84:304,1,109.999991953373,2|0,0:0|0:0,0:0:0
44,356,44644,6,0,B|88:312|156:336,1,109.999991953373,2|0,0:0|0:0,0:0:0
192,380,44960,2,0,B|160:332|184:268,1,109.999991953373
240,240,45275,2,0,B|180:264|124:212,1,109.999991953373,10|0,0:0|0:0,0:0:0
96,172,45591,2,0,B|156:184|208:152,1,109.999991953373
264,128,45907,5,2,0:0:0
392,168,46118,1,0,0:0:0
392,168,46223,1,0,0:0:0
448,288,46433,1,0,0:0:0
448,288,46539,2,0,B|388:260|332:296,1,109.999991953373,10|8,0:0|0:0,0:0:0
396,328,46854,2,0,B|344:292|256:324,1,109.999991953373,2|8,0:0|0:0,0:0:0
228,332,47170,5,4,0:0:0
112,272,47381,1,0,0:0:0
112,272,47486,2,0,B|156:240|156:172,1,109.999991953373,2|0,0:0|0:0,0:0:0
105,174,47802,2,0,B|225:174,1,109.999991953373,10|0,0:0|0:0,0:0:0
156,174,48118,2,0,B|156:109|112:77,1,109.999991953373,2|0,0:0|0:0,0:0:0
48,76,48433,5,2,0:0:0
24,204,48644,2,0,B|12:180|24:148,1,54.9999997138977
56,312,48960,2,0,B|68:336|56:368,1,54.9999997138977,0|8,0:0|0:0,0:0:0
168,284,49275,1,0,0:0:0
168,284,49381,2,0,B|228:260|272:300,1,109.999991953373,0|2,0:0|0:0,0:0:0
212,328,49697,6,0,B|232:272|216:212,1,109.999991953373,2|0,0:0|0:0,0:0:0
168,180,50012,2,0,B|220:216|284:176,1,109.999991953373
332,212,50328,2,0,B|336:144|296:128|296:128|316:80,1,109.999991953373,10|0,0:0|0:0,0:0:0
332,56,50644,2,0,B|348:28|348:28|396:60|440:56,1,109.999991953373
484,64,50960,5,2,0:0:0
360,108,51170,1,0,0:0:0
360,108,51275,1,0,0:0:0
260,24,51486,1,0,0:0:0
260,24,51591,2,0,B|220:120|220:120|208:168|264:212,1,164.99998793006,10|10,0:0|0:0,0:0:0
164,64,52118,1,8,0:0:0
164,64,52223,6,0,B|140:124|140:124|120:152|92:148,1,109.999991953373,2|2,0:0|0:0,0:0:0
96,84,52539,2,0,B|79:80|59:108|59:108|35:168,1,109.999991953373,0|0,0:0|0:0,0:0:0
16,232,52854,1,10,0:0:0
140,188,53065,1,0,0:0:0
140,188,53170,2,0,B|168:236|236:240,1,109.999991953373
232,172,53486,6,0,B|296:180|300:248,1,109.999991953373,2|0,0:0|0:0,0:0:0
232,240,53802,2,0,B|268:292|216:344,1,109.999991953373,2|2,0:0|0:0,0:0:0
184,284,54118,2,0,B|168:344|104:356,1,109.999991953373,10|0,0:0|0:0,0:0:0
116,288,54433,1,2,0:0:0
56,172,54644,1,0,0:0:0
56,172,54749,6,0,B|96:120|88:64,1,109.999991953373,2|0,0:0|0:0,0:0:0
104,136,55065,2,0,B|124:192|192:184,1,109.999991953373
264,168,55381,1,10,0:0:0
184,76,55591,1,0,0:0:0
184,76,55697,2,0,B|156:120|156:120|168:136|220:124,1,109.999991953373
272,100,56012,6,0,B|292:92|308:76|308:76|360:152,1,109.999991953373,2|0,0:0|0:0,0:0:0
384,184,56328,2,0,B|452:276,1,109.999991953373
492,324,56644,1,10,0:0:0
372,272,56854,2,0,B|320:248,1,54.9999959766866,0|2,0:0|0:0,0:0:0
194,344,57275,6,0,B|243:264|205:275|256:192,1,164.99998793006,2|0,0:0|0:0,0:0:0
104,131,57907,2,0,B|184:180|173:142|257:193,1,164.99998793006,2|0,0:0|0:0,0:0:0
316,40,58539,2,0,B|267:120|305:109|255:193,1,164.99998793006,2|0,0:0|0:0,0:0:0
408,253,59170,2,0,B|328:204|339:242|256:192,1,164.99998793006,2|0,0:0|0:0,0:0:0
256,192,59802,1,2,0:0:0
476,72,60749,5,0,0:0:0
400,52,61065,1,0,0:0:0
320,64,61381,1,0,0:0:0
252,96,61697,6,2,B|216:112|164:92,1,73.333330154419,6|2,0:0|0:0,0:0:0
120,64,62012,1,0,0:0:0
32,236,62328,6,0,B|120:204|188:268,1,164.99998793006,4|2,0:0|0:0,0:0:0
352,232,62854,1,0,0:0:0
352,232,62960,2,0,B|328:288|256:272,1,109.999991953373,0|2,0:0|0:0,0:0:0
224,232,63275,2,0,B|276:204|280:132,1,109.999991953373
240,104,63591,2,0,B|188:88|140:136,1,109.999991953373,2|2,0:0|0:0,0:0:0
112,184,63907,2,0,B|128:360,2,164.99998793006,0|2|0,0:0|0:0|0:0,0:0:0
240,104,64749,5,2,0:0:0
240,104,64854,2,0,B|292:132|352:112,1,109.999991953373,0|2,0:0|0:0,0:0:0
380,72,65170,2,0,B|308:24|212:60,2,164.99998793006,0|2|0,0:0|0:0|0:0,0:0:0
436,168,66012,1,2,0:0:0
436,168,66118,2,0,B|452:228|428:288,1,109.999991953373,0|2,0:0|0:0,0:0:0
376,304,66433,2,0,B|360:244|384:184,1,109.999991953373
320,144,66749,2,0,B|336:204|312:264,1,109.999991953373,2|2,0:0|0:0,0:0:0
248,300,67065,1,0,0:0:0
108,220,67275,1,0,0:0:0
108,220,67381,6,0,B|204:224|244:128,2,164.99998793006,0|0|4,0:0|0:0|0:0,0:0:0
248,300,68328,1,0,0:0:0
192,204,68539,1,2,0:0:0
192,204,68644,6,0,B|132:200|112:132,1,109.999991953373,0|2,0:0|0:0,0:0:0
120,84,68960,2,0,B|116:144|48:164,1,109.999991953373
0,160,69275,2,0,B|60:164|80:232,1,109.999991953373,4|0,0:0|0:0,0:0:0
76,280,69591,2,0,B|80:220|148:200,1,109.999991953373,0|2,0:0|0:0,0:0:0
192,204,69907,6,0,B|132:272|192:368,2,164.99998793006,0|0|6,0:0|0:0|0:0,0:0:0
272,60,70854,2,0,B|313:147|409:119,1,164.99998793006,0|2,0:0|0:0,0:0:0
372,16,71381,1,2,0:0:0
372,16,71486,2,0,B|316:136,1,109.999991953373
324,172,71802,2,0,B|368:212|440:204,1,109.999991953373,6|2,0:0|0:0,0:0:0
480,192,72118,2,0,B|432:228|436:312,1,109.999991953373,4|0,0:0|0:0,0:0:0
448,340,72433,6,0,B|436:252|360:200,2,164.99998793006,4|0|2,0:0|0:0|0:0,0:0:0
260,312,73381,2,0,B|244:248|296:212,1,109.999991953373,0|2,0:0|0:0,0:0:0
300,268,73697,2,0,B|356:236|332:172,1,109.999991953373,0|2,0:0|0:0,0:0:0
280,160,74012,2,0,B|216:236|260:312,1,164.99998793006,0|2,0:0|0:0,0:0:0
332,174,74539,1,2,0:0:0
332,174,74644,2,0,B|280:160|280:160|288:92|224:68,1,164.999999141693,0|2,0:0|0:0,0:0:0
48,140,75275,6,0,B|128:196|216:136,1,164.99998793006,0|2,0:0|0:0,0:0:0
320,28,75907,1,0,0:0:0
208,36,76118,1,2,0:0:0
208,36,76223,2,0,B|184:96|104:96,1,109.999991953373,0|0,0:0|0:0,0:0:0
106,51,76539,2,0,B|50:83|46:163,1,109.999991953373,2|0,0:0|0:0,0:0:0
56,196,76854,6,0,B|120:204|144:144,1,109.999991953373,2|2,0:0|0:0,0:0:0
152,200,77170,2,0,B|214:184|215:119,1,109.999991953373
252,160,77486,2,0,B|292:112|264:32|208:36,2,164.99998793006,0|0|6,0:0|0:0|0:0,0:0:0
384,256,78433,6,0,B|352:316|276:308,1,109.999991953373
244,284,78749,2,0,B|288:240|344:236,1,109.999991953373,2|0,0:0|0:0,0:0:0
384,256,79065,2,0,B|436:252|480:208,1,109.999991953373,0|0,0:0|0:0,0:0:0
430,183,79381,2,0,B|372:175|332:252,1,109.999991953373,6|0,0:0|0:0,0:0:0
341,236,79697,2,0,B|296:132,1,109.999991953373
252,104,80012,6,0,B|204:108|176:56,2,82.4999939650299,4|0|0,0:0|0:0|0:0,0:0:0
200,152,80486,2,0,B|160:179|110:148,2,82.4999939650299,2|0|0,0:0|0:0|0:0,0:0:0
176,224,80960,2,0,B|155:267|96:265,2,82.4999939650299,2|0|0,0:0|0:0|0:0,0:0:0
200,292,81433,2,0,B|204:340|152:368,2,82.4999939650299,2|0|0,0:0|0:0|0:0,0:0:0
276,260,81907,6,0,B|280:210|316:190,1,82.4999939650299,2|0,0:0|0:0,0:0:0
402,189,82223,2,0,B|397:238|361:258,1,82.4999939650299,2|0,0:0|0:0,0:0:0
276,260,82539,2,0,B|253:217|203:212,1,82.4999939650299,0|2,0:0|0:0,0:0:0
162,147,82854,2,0,B|199:158|249:132,1,82.4999939650299,2|0,0:0|0:0,0:0:0
322,92,83170,2,0,B|364:69|375:31,1,82.4999939650299,2|2,0:0|0:0,0:0:0
412,110,83486,2,0,B|385:142|400:188,1,82.4999939650299,0|2,0:0|0:0,0:0:0
358,259,83802,2,0,B|404:347,2,82.4999939650299,2|0|0,0:0|0:0|0:0,0:0:0
319,189,84275,2,0,B|272:100,2,82.4999939650299,2|0|0,0:0|0:0|0:0,0:0:0
276,260,84749,2,0,B|256:300|200:312,1,82.4999939650299,2|0,0:0|0:0,0:0:0
132,296,85065,5,4,0:0:0
88,228,85223,1,2,0:0:0
92,144,85381,1,2,0:0:0
132,72,85539,1,0,0:0:0
200,24,85697,5,2,0:0:0
208,108,85854,1,2,0:0:0
180,184,86012,1,0,0:0:0
128,248,86170,1,2,0:0:0
48,260,86328,6,0,B|36:324,3,41.249996982515,2|0|0|8,0:0|0:0|0:0|0:0,0:0:0
68,332,86644,2,0,B|128:340|180:308,1,109.999991953373,2|2,0:0|0:0,0:0:0
168,368,86960,2,0,B|232:336|248:288,1,109.999991953373,8|0,0:0|0:0,0:0:0
268,344,87275,2,0,B|296:288|284:220,1,109.999991953373,2|0,0:0|0:0,0:0:0
268,152,87591,5,4,0:0:0
444,280,92328,6,0,B|476:232,2,36.6666650772095
424,312,92644,2,0,B|372:352|312:320,1,109.999995231628,2|0,0:0|0:0,0:0:0
380,192,93275,2,0,B|356:160|372:120,1,73.333330154419,2|0,0:0|0:0,0:0:0
444,124,93591,2,0,P|468:80|436:16,1,109.999995231628,0|2,0:0|0:0,0:0:0
328,60,94118,1,0,0:0:0
328,60,94223,1,0,0:0:0
200,36,94433,1,2,0:0:0
200,36,94539,1,0,0:0:0
116,128,94749,1,2,0:0:0
116,128,94854,2,0,B|160:120|196:152,1,73.333330154419,2|0,0:0|0:0,0:0:0
84,268,95170,6,0,B|76:224|108:188,1,73.333330154419,0|2,0:0|0:0,0:0:0
224,252,95486,2,0,B|184:264|148:244,1,73.333330154419,2|0,0:0|0:0,0:0:0
296,216,95802,1,2,0:0:0
296,216,96118,1,0,0:0:0
336,144,96328,1,2,0:0:0
336,144,96433,6,0,B|364:176|408:172,1,73.333330154419,2|0,0:0|0:0,0:0:0
468,132,96749,2,0,B|440:100|396:104,1,73.333330154419,2|0,0:0|0:0,0:0:0
280,56,97065,2,0,B|308:88|352:84,1,73.333330154419,6|0,0:0|0:0,0:0:0
276,124,97381,2,0,B|236:120|204:152,1,73.333330154419,2|2,0:0|0:0,0:0:0
196,188,97696,6,0,B|152:236|80:232,1,109.999995231628,4|2,0:0|0:0,0:0:0
76,100,98328,2,0,B|108:124|148:120,1,73.333330154419,0|2,0:0|0:0,0:0:0
184,96,98644,2,0,B|196:140|228:152,1,73.333330154419,2|0,0:0|0:0,0:0:0
272,148,98960,2,0,B|252:184|264:228,1,73.333330154419,2|2,0:0|0:0,0:0:0
320,264,99275,2,0,B|340:224|328:180,1,73.333330154419
262,220,99591,2,0,B|220:280|288:336,1,109.999995231628,2|0,0:0|0:0,0:0:0
408,168,100223,6,0,B|440:224|524:216,2,109.999995231628,2|0|2,0:0|0:0|0:0,0:0:0
336,104,101065,2,0,P|320:60,1,36.6666650772095,2|0,0:0|0:0,0:0:0
312,196,101381,1,0,0:0:0
312,196,101486,2,0,B|269:213|261:259,1,73.333330154419,2|2,0:0|0:0,0:0:0
272,304,101802,2,0,B|237:298|219:256,1,73.333330154419
164,256,102118,2,0,B|169:221|211:203,1,73.333330154419,2|2,0:0|0:0,0:0:0
212,148,102433,2,0,B|246:153|264:195,1,73.333330154419,0|2,0:0|0:0,0:0:0
336,268,102749,6,0,B|340:204|400:168,1,109.999995231628,2|0,0:0|0:0,0:0:0
492,96,103275,1,2,0:0:0
492,96,103381,2,0,B|456:124|412:108,1,73.333330154419,2|2,0:0|0:0,0:0:0
392,80,103696,2,0,B|312:96,1,73.333330154419,0|2,0:0|0:0,0:0:0
320,94,104012,5,2,0:0:0
232,112,104223,1,2,0:0:0
232,112,104328,1,0,0:0:0
144,100,104539,1,0,0:0:0
144,100,104644,1,2,0:0:0
56,112,104854,1,0,0:0:0
56,112,104960,2,2,B|40:192,1,73.333330154419,2|2,0:0|0:0,0:0:0
68,220,105275,2,0,B|108:176|172:184,2,109.999995231628,0|0|2,0:0|0:0|0:0,0:0:0
196,256,106223,5,2,0:0:0
240,132,106539,1,2,0:0:0
364,176,106854,1,2,0:0:0
316,300,107170,2,0,B|340:332|376:336,1,73.333330154419,6|0,0:0|0:0,0:0:0
392,296,107486,2,0,B|432:300|460:276,1,73.333330154419,2|0,0:0|0:0,0:0:0
444,236,107802,6,0,B|464:120,1,109.999995231628,6|0,0:0|0:0,0:0:0
256,172,108433,2,0,B|316:276,1,109.999995231628,2|0,0:0|0:0,0:0:0
328,140,109065,6,0,B|224:60,1,109.999995231628,2|0,0:0|0:0,0:0:0
160,212,109696,2,0,B|268:248,1,109.999995231628,2|0,0:0|0:0,0:0:0
180,140,110328,6,0,B|64:144,1,109.999995231628,2|0,0:0|0:0,0:0:0
136,312,110960,2,0,B|232:252,1,109.999995231628,2|0,0:0|0:0,0:0:0
80,252,111591,6,0,B|36:376,1,109.999995231628,2|0,0:0|0:0,0:0:0
224,364,112223,2,0,B|200:256,1,109.999995231628,2|0,0:0|0:0,0:0:0
244,140,112854,6,0,B|280:252,1,109.999995231628,2|0,0:0|0:0,0:0:0
424,176,113486,2,0,B|309:151,1,109.999995231628,2|0,0:0|0:0,0:0:0
300,316,114118,2,0,B|378:228,2,109.999995231628,0|0|2,0:0|0:0|0:0,0:0:0
172,288,115065,2,0,B|208:160|116:60,1,219.999990463257
100,196,116012,2,0,B|173:176,1,73.333330154419,2|0,0:0|0:0,0:0:0
228,162,116328,6,0,B|201:123|155:139,1,73.333330154419,2|0,0:0|0:0,0:0:0
184,215,116644,2,0,B|222:208|226:161,1,73.333330154419
289,145,116960,6,0,B|397:116,1,109.999991953373,2|0,0:0|0:0,0:0:0
420,56,117275,2,0,B|360:40|328:96,1,109.999991953373,6|0,0:0|0:0,0:0:0
348,168,117591,2,0,B|408:204|456:148,1,109.999991953373,2|2,0:0|0:0,0:0:0
472,96,117907,6,0,B|488:272,1,164.99998793006,4|0,0:0|0:0,0:0:0
396,324,118433,1,0,0:0:0
396,324,118539,2,0,B|372:256|312:240,1,109.999991953373,2|0,0:0|0:0,0:0:0
228,304,118854,2,0,B|298:317|342:273,1,109.999991953373
324,164,119170,2,0,B|277:218|293:278,1,109.999991953373,0|2,0:0|0:0,0:0:0
368,236,119486,6,0,B|200:184,2,164.99998793006,0|2|0,0:0|0:0|0:0,0:0:0
432,144,120328,1,0,0:0:0
432,144,120433,2,0,B|320:164,1,109.999991953373,0|2,0:0|0:0,0:0:0
280,112,120749,2,0,B|392:132,1,109.999991953373
432,80,121065,2,0,B|320:100,1,109.999991953373,2|2,0:0|0:0,0:0:0
288,56,121381,2,0,B|176:76,1,109.999991953373
144,32,121696,6,0,B|96:72|104:140,1,109.999991953373,2|0,0:0|0:0,0:0:0
136,216,122012,2,0,B|184:176|176:108,1,109.999991953373
52,184,122328,2,0,B|36:248|84:288,1,109.999991953373,2|2,0:0|0:0,0:0:0
164,316,122644,2,0,B|180:252|132:212,1,109.999991953373,0|2,0:0|0:0,0:0:0
124,140,122960,6,0,B|184:216|280:188,2,164.99998793006,2|0|4,0:0|0:0|0:0,0:0:0
244,44,123907,1,2,0:0:0
380,80,124118,1,0,0:0:0
380,80,124223,2,0,B|360:164|264:192,1,164.99998793006
124,232,124854,2,0,B|196:284|304:260,1,164.99998793006,4|0,0:0|0:0,0:0:0
390,286,125486,6,0,B|408:324|459:337,2,82.4999939650299,6|0|0,0:0|0:0|0:0,0:0:0
356,210,125960,2,0,B|450:227,2,82.4999939650299,2|0|0,0:0|0:0|0:0,0:0:0
412,154,126433,2,0,B|444:126|492:130,2,82.4999939650299,2|0|0,0:0|0:0|0:0,0:0:0
356,210,126907,1,2,0:0:0
284,248,127065,1,0,0:0:0
199,226,127223,1,0,0:0:0
155,156,127381,6,0,B|76:128,2,82.4999939650299,2|0|0,0:0|0:0|0:0,0:0:0
134,80,127854,2,0,B|120:39|79:22,2,82.4999939650299,2|0|0,0:0|0:0|0:0,0:0:0
88,205,128328,2,0,B|53:228|9:216,2,82.4999939650299,2|0|0,0:0|0:0|0:0,0:0:0
154,251,128802,5,2,0:0:0
221,310,128960,1,0,0:0:0
309,293,129118,1,0,0:0:0
332,208,129275,2,0,B|372:187|387:140,1,82.4999939650299,2|0,0:0|0:0,0:0:0
289,82,129591,2,0,B|265:170,1,82.4999939650299,0|2,0:0|0:0,0:0:0
177,166,129907,2,0,B|152:127|163:79,1,82.4999939650299
267,161,130223,2,0,B|240:258,1,82.4999939650299,2|0,0:0|0:0,0:0:0
161,89,130539,5,4,0:0:0
235,49,130697,1,2,0:0:0
316,50,130854,1,2,0:0:0
387,92,131012,1,0,0:0:0
433,162,131170,5,2,0:0:0
357,197,131328,1,2,0:0:0
276,197,131486,1,0,0:0:0
202,159,131644,1,2,0:0:0
161,89,131802,6,0,B|119:81,3,41.249996982515,2|0|0|0,0:0|0:0|0:0|0:0,0:0:0
78,75,132118,2,0,B|82:135|133:180,1,109.999991953373,2|0,0:0|0:0,0:0:0
59,203,132433,2,0,B|105:241|172:231,1,109.999991953373,2|0,0:0|0:0,0:0:0
142,300,132749,2,0,B|203:304|238:238,1,109.999991953373,0|2,0:0|0:0,0:0:0
296,128,133065,5,4,0:0:0
256,192,133170,12,2,135591,0:0:0
