osu file format v12

[General]
AudioFilename: DJ YOSHITAKA feat. Hoshino Kanako - MAX LOVE.mp3
AudioLeadIn: 2000
PreviewTime: 36423
Countdown: 0
SampleSet: Normal
StackLeniency: 0.5
Mode: 0
LetterboxInBreaks: 0
WidescreenStoryboard: 0

[Editor]
DistanceSpacing: 1
BeatDivisor: 4
GridSize: 4

[Metadata]
Title:MAX LOVE
TitleUnicode:MAX LOVE
Artist:DJ YOSHITAKA feat. Hoshino Kanako
ArtistUnicode:DJ YOSHITAKA feat. 星野奏子
Creator:Startrick
Version:Another
Source:beatmania IIDX
Tags:15 DJ TROOPERS TOMOSUKE DDR Dance Revolution DanceDanceRevolution X2 LOVELY BUCHIAGE POP
BeatmapID:281993
BeatmapSetID:107647

[Difficulty]
HPDrainRate:7
CircleSize:4
OverallDifficulty:8
ApproachRate:9
SliderMultiplier:2
SliderTickRate:1

[Events]
//Background and Video events
0,0,"BG.png",0,0
//Break Periods
//Storyboard Layer 0 (Background)
//Storyboard Layer 1 (Fail)
//Storyboard Layer 2 (Pass)
//Storyboard Layer 3 (Foreground)
//Storyboard Sound Samples
//Background Colour Transformations
3,100,0,0,0

[TimingPoints]
424,333.333333333333,4,1,1,75,1,0
36423,-133.333333333333,4,1,1,65,0,0
37257,-100,4,1,1,75,0,0
37757,-100,4,1,1,75,0,1
58757,-100,4,1,1,75,0,0
59090,-100,4,1,1,75,0,1
73590,-100,4,1,1,75,0,0
74923,-100,4,1,1,65,0,1
75090,-100,4,1,1,65,0,0
85590,-100,4,1,1,75,0,1
85757,-100,4,2,1,75,0,0
96340,-100,4,1,1,75,0,0
96423,-100,4,1,1,75,0,1
96507,-100,4,1,1,75,0,0
99090,-133.333333333333,4,2,1,60,0,0
103090,-100,4,1,1,30,0,0
103757,-100,4,1,1,35,0,0
104423,-100,4,1,1,40,0,0
105090,-100,4,1,1,45,0,0
105757,-100,4,1,1,50,0,0
106090,-100,4,1,1,55,0,0
106423,-100,4,1,1,60,0,0
106757,-100,4,1,1,65,0,0
106923,-100,4,1,1,75,0,1
117423,-100,4,1,1,75,0,0
117757,-100,4,1,1,75,0,1
133590,-100,4,1,1,75,0,0

[Colours]
Combo1 : 128,255,128
Combo2 : 128,255,255
Combo3 : 255,128,255
Combo4 : 255,255,128
Combo5 : 249,91,91

[HitObjects]
128,336,424,2,0,L|28:336,1,100,4|0,0:0|0:0,0:0:0:0:
180,208,757,2,0,L|280:208,1,100,8|0,0:0|0:0,0:0:0:0:
224,336,1090,1,0,0:0:0:0:
84,192,1257,2,0,L|84:92,2,100,0|8|0,0:0|0:0|0:0,0:0:0:0:
84,332,1757,5,0,0:0:0:0:
212,208,1923,2,0,P|260:196|308:208,1,100,0|8,0:0|0:0,0:0:0:0:
260,332,2257,1,0,0:0:0:0:
384,332,2423,1,0,0:0:0:0:
384,332,2507,1,0,0:0:0:0:
384,332,2590,1,0,0:0:0:0:
428,136,2757,1,8,0:0:0:0:
500,256,2923,1,0,0:0:0:0:
340,136,3090,6,0,L|240:136,1,100,4|0,0:0|0:0,0:0:0:0:
120,272,3423,2,0,L|220:272,1,100,8|0,0:0|0:0,0:0:0:0:
148,128,3757,1,0,0:0:0:0:
28,236,3923,1,0,0:0:0:0:
148,128,4090,1,8,0:0:0:0:
220,272,4257,1,0,0:0:0:0:
340,340,4423,6,0,P|388:352|436:340,1,100,4|0,0:0|0:0,0:0:0:0:
412,160,4757,2,0,P|387:203|387:252,1,100,8|0,0:0|0:0,0:0:0:0:
444,60,5090,2,0,L|344:60,1,100,4|0,0:0|0:0,0:0:0:0:
308,72,5340,1,0,0:0:0:0:
272,84,5423,2,0,L|172:84,1,100,8|0,0:0|0:0,0:0:0:0:
52,244,5757,6,0,L|152:244,1,100,4|0,0:0|0:0,0:0:0:0:
320,136,6090,1,8,0:0:0:0:
460,244,6257,6,0,L|360:244,1,100,0|0,0:0|0:0,0:0:0:0:
192,136,6590,1,8,0:0:0:0:
52,332,6757,6,0,L|152:332,1,100,0|0,0:0|0:0,0:0:0:0:
320,136,7090,1,8,0:0:0:0:
460,332,7257,6,0,L|360:332,1,100,0|0,0:0|0:0,0:0:0:0:
192,136,7590,1,8,0:0:0:0:
52,332,7757,5,0,0:0:0:0:
208,244,7923,1,0,0:0:0:0:
208,244,8007,1,0,0:0:0:0:
208,244,8090,1,8,0:0:0:0:
304,348,8257,1,0,0:0:0:0:
392,192,8423,5,4,0:0:0:0:
444,324,8590,1,0,0:0:0:0:
364,140,8757,5,8,0:0:0:0:
279,335,8924,1,0,0:0:0:0:
380,84,9090,5,0,0:0:0:0:
115,162,9257,1,0,0:0:0:0:
328,336,9423,1,8,0:0:0:0:
436,248,9590,6,0,P|344:204|252:224,1,200,4|0,0:0|0:0,0:0:0:0:
172,316,10090,2,0,L|72:316,1,100,8|0,0:0|0:0,0:0:0:0:
72,316,10340,1,0,0:0:0:0:
72,316,10423,1,0,0:0:0:0:
249,270,10590,2,0,P|264:320|248:364,1,100,0|8,0:0|0:0,0:0:0:0:
424,320,10923,6,0,P|488:244|480:148,1,200,4|0,0:0|0:0,0:0:0:0:
320,68,11423,1,8,0:0:0:0:
276,224,11590,1,0,0:0:0:0:
424,320,11757,1,0,0:0:0:0:
480,148,11923,1,0,0:0:0:0:
320,68,12090,2,0,L|220:68,1,100,8|0,0:0|0:0,0:0:0:0:
48,24,12423,5,4,0:0:0:0:
140,180,12590,1,0,0:0:0:0:
140,68,12757,1,8,0:0:0:0:
48,224,12924,1,0,0:0:0:0:
232,128,13090,2,0,L|332:128,1,100,0|0,0:0|0:0,0:0:0:0:
416,216,13423,1,8,0:0:0:0:
416,216,13590,6,0,P|456:124|416:40,1,200,4|0,0:0|0:0,0:0:0:0:
340,264,14090,2,0,P|376:296|428:304,1,100,8|0,0:0|0:0,0:0:0:0:
332,128,14423,2,0,L|232:128,1,100,0|0,0:0|0:0,0:0:0:0:
84,264,14757,2,0,L|184:264,1,100,8|0,0:0|0:0,0:0:0:0:
304,264,15090,5,0,0:0:0:0:
294,114,15423,1,0,0:0:0:0:
169,197,15757,1,0,0:0:0:0:
368,192,15923,1,0,0:0:0:0:
368,192,16007,1,0,0:0:0:0:
368,192,16090,1,0,0:0:0:0:
192,100,16257,6,0,P|92:96|32:168,1,200,4|0,0:0|0:0,0:0:0:0:
272,136,16757,2,0,P|276:84|256:40,1,100,8|0,0:0|0:0,0:0:0:0:
240,248,17090,2,0,P|236:300|256:344,2,100,0|0|8,0:0|0:0|0:0,0:0:0:0:
356,284,17590,6,0,L|456:272,1,100,0|0,0:0|0:0,0:0:0:0:
160,192,17923,2,0,L|60:180,1,100,0|8,0:0|0:0,0:0:0:0:
352,96,18257,2,0,L|452:84,1,100,0|0,0:0|0:0,0:0:0:0:
451,84,18507,1,0,0:0:0:0:
451,84,18590,1,0,0:0:0:0:
404,228,18757,1,8,0:0:0:0:
272,128,18923,6,0,P|176:96|84:128,1,200,4|0,0:0|0:0,0:0:0:0:
336,192,19423,2,0,P|356:144|352:96,1,100,8|0,0:0|0:0,0:0:0:0:
240,212,19757,2,0,P|259:260|296:291,1,100,0|0,0:0|0:0,0:0:0:0:
436,312,20090,1,8,0:0:0:0:
472,176,20257,5,0,0:0:0:0:
472,176,20340,1,0,0:0:0:0:
472,176,20423,2,0,L|372:176,1,100,0|0,0:0|0:0,0:0:0:0:
208,96,20757,2,0,L|308:96,1,100,8|0,0:0|0:0,0:0:0:0:
204,244,21090,2,0,L|104:244,1,100,0|0,0:0|0:0,0:0:0:0:
256,340,21423,1,8,0:0:0:0:
256,160,21590,1,0,0:0:0:0:
256,160,21673,1,0,0:0:0:0:
256,160,21757,5,4,0:0:0:0:
348,236,21923,1,0,0:0:0:0:
400,128,22090,1,8,0:0:0:0:
260,244,22257,1,0,0:0:0:0:
312,72,22423,5,0,0:0:0:0:
432,208,22590,1,0,0:0:0:0:
256,160,22757,1,8,0:0:0:0:
400,128,22923,6,0,P|452:124|496:140,1,100,0|4,0:0|0:0,0:0:0:0:
496,320,23257,2,0,P|444:324|400:308,1,100,0|8,0:0|0:0,0:0:0:0:
320,192,23590,1,0,0:0:0:0:
320,192,23673,1,0,0:0:0:0:
320,192,23757,2,0,L|220:192,1,100,0|0,0:0|0:0,0:0:0:0:
116,340,24090,2,0,L|216:340,1,100,8|0,0:0|0:0,0:0:0:0:
252,324,24340,1,0,0:0:0:0:
292,308,24423,5,4,0:0:0:0:
432,324,24590,1,0,0:0:0:0:
276,292,24757,1,8,0:0:0:0:
448,327,24924,1,0,0:0:0:0:
256,276,25090,1,4,0:0:0:0:
466,337,25257,1,0,0:0:0:0:
384,176,25423,5,8,0:0:0:0:
356,356,25590,1,0,0:0:0:0:
356,356,25673,1,0,0:0:0:0:
356,356,25757,2,0,L|256:356,1,100,4|0,0:0|0:0,0:0:0:0:
116,244,26090,1,8,0:0:0:0:
148,108,26257,1,0,0:0:0:0:
116,244,26423,5,0,0:0:0:0:
116,244,26507,1,0,0:0:0:0:
116,244,26590,1,8,0:0:0:0:
116,244,26673,1,0,0:0:0:0:
116,244,26757,2,0,L|216:244,1,100,0|8,0:0|0:0,0:0:0:0:
256,256,27007,1,0,0:0:0:0:
292,268,27090,6,0,L|392:268,1,100,4|0,0:0|0:0,0:0:0:0:
476,192,27423,1,8,0:0:0:0:
476,192,27757,2,0,P|476:140|456:96,2,100,0|8|0,0:0|0:0|0:0,0:0:0:0:
376,128,28257,6,0,P|284:84|188:96,1,200,4|0,0:0|0:0,0:0:0:0:
272,276,28757,2,0,P|288:228|272:184,1,100,8|0,0:0|0:0,0:0:0:0:
120,52,29090,2,0,P|104:100|120:144,1,100,0|0,0:0|0:0,0:0:0:0:
264,72,29423,2,0,L|364:72,1,100,8|0,0:0|0:0,0:0:0:0:
456,204,29757,2,0,L|356:204,2,100,4|0|8,0:0|0:0|0:0,0:0:0:0:
456,204,30757,5,0,0:0:0:0:
456,204,30840,1,0,0:0:0:0:
456,204,30923,2,0,P|476:104|412:40,1,200,4|0,0:0|0:0,0:0:0:0:
280,132,31423,2,0,L|380:132,1,100,8|0,0:0|0:0,0:0:0:0:
248,40,31757,2,0,P|204:68|184:112,1,100,0|0,0:0|0:0,0:0:0:0:
244,260,32090,2,0,L|144:260,1,100,8|0,0:0|0:0,0:0:0:0:
144,260,32340,1,0,0:0:0:0:
144,260,32423,5,4,0:0:0:0:
256,352,32590,1,0,0:0:0:0:
368,260,32757,1,8,0:0:0:0:
256,172,32923,1,0,0:0:0:0:
352,100,33090,2,0,L|452:100,1,100,0|0,0:0|0:0,0:0:0:0:
452,100,33423,1,8,0:0:0:0:
288,184,33590,6,0,P|240:96|288:20,1,200,4|0,0:0|0:0,0:0:0:0:
376,224,34090,2,0,P|348:260|296:272,1,100,8|0,0:0|0:0,0:0:0:0:
364,128,34423,2,0,P|400:100|453:102,1,100,0|0,0:0|0:0,0:0:0:0:
148,256,34757,2,0,P|111:283|58:281,1,100,8|0,0:0|0:0,0:0:0:0:
132,160,35090,5,4,0:0:0:0:
319,228,35257,1,8,0:0:0:0:
166,356,35423,1,8,0:0:0:0:
228,188,35590,5,0,0:0:0:0:
394,158,35757,1,8,0:0:0:0:
336,317,35923,1,8,0:0:0:0:
164,212,36090,5,0,0:0:0:0:
280,236,36257,1,8,0:0:0:0:
200,328,36423,2,0,P|128:344|52:328,2,150.000005722046,6|2|6,0:0|0:0|0:0,0:0:0:0:
244,128,37257,5,0,0:0:0:0:
244,128,37340,1,0,0:0:0:0:
244,128,37423,1,8,0:0:0:0:
104,192,37590,1,0,0:0:0:0:
292,260,37757,6,0,L|392:260,1,100,4|0,0:0|0:0,0:0:0:0:
480,176,38090,1,8,0:0:0:0:
432,348,38257,1,0,0:0:0:0:
368,160,38423,2,0,P|320:148|272:160,1,100,0|0,0:0|0:0,0:0:0:0:
192,344,38757,2,0,P|240:356|288:344,1,100,8|0,0:0|0:0,0:0:0:0:
144,236,39090,6,0,P|101:261|76:303,1,100,0|0,0:0|0:0,0:0:0:0:
248,252,39423,2,0,P|260:204|248:156,1,100,8|0,0:0|0:0,0:0:0:0:
352,304,39757,1,0,0:0:0:0:
352,304,39840,1,0,0:0:0:0:
352,304,39923,2,0,L|452:304,2,100,0|8|0,0:0|0:0|0:0,0:0:0:0:
288,136,40423,5,4,0:0:0:0:
452,208,40590,2,0,L|352:208,1,100,0|8,0:0|0:0,0:0:0:0:
240,264,40923,1,0,0:0:0:0:
84,184,41090,1,0,0:0:0:0:
84,184,41257,2,0,L|184:184,2,100,0|8|0,0:0|0:0|0:0,0:0:0:0:
136,76,41757,5,4,0:0:0:0:
256,148,41923,1,0,0:0:0:0:
376,76,42090,1,8,0:0:0:0:
256,8,42257,1,0,0:0:0:0:
256,236,42423,1,12,0:0:0:0:
136,76,42590,1,0,0:0:0:0:
136,76,42673,1,0,0:0:0:0:
136,76,42757,1,8,0:0:0:0:
56,192,42923,1,0,0:0:0:0:
88,328,43090,6,0,P|136:340|184:328,1,100,4|0,0:0|0:0,0:0:0:0:
280,200,43423,2,0,P|232:188|184:200,1,100,8|0,0:0|0:0,0:0:0:0:
344,288,43757,2,0,P|378:252|392:204,1,100,0|0,0:0|0:0,0:0:0:0:
136,76,44090,2,0,P|101:111|88:159,1,100,8|0,0:0|0:0,0:0:0:0:
168,248,44423,5,4,0:0:0:0:
272,100,44590,2,0,P|320:88|368:100,2,100,0|8|0,0:0|0:0|0:0,0:0:0:0:
320,276,45090,2,0,P|368:288|416:276,1,100,0|0,0:0|0:0,0:0:0:0:
288,184,45423,2,0,P|245:209|220:251,1,100,8|0,0:0|0:0,0:0:0:0:
220,352,45757,5,4,0:0:0:0:
461,287,45924,1,0,0:0:0:0:
283,109,46090,1,8,0:0:0:0:
160,212,46257,1,0,0:0:0:0:
396,188,46423,1,0,0:0:0:0:
152,96,46590,1,0,0:0:0:0:
276,252,46757,1,8,0:0:0:0:
472,208,46923,6,0,P|480:108|420:32,1,200,4|0,0:0|0:0,0:0:0:0:
272,132,47423,2,0,L|372:132,1,100,8|0,0:0|0:0,0:0:0:0:
324,264,47757,1,8,0:0:0:0:
276,272,47840,1,0,0:0:0:0:
228,260,47923,1,0,0:0:0:0:
380,192,48090,1,8,0:0:0:0:
132,192,48257,6,4,P|64:264|80:360,1,200,4|0,0:0|0:0,0:0:0:0:
240,192,48757,2,0,P|232:140|200:108,1,100,8|0,0:0|0:0,0:0:0:0:
184,268,49090,2,0,P|205:316|244:338,1,100,0|0,0:0|0:0,0:0:0:0:
344,340,49423,1,8,0:0:0:0:
456,144,49590,6,0,P|493:238|457:326,1,200,4|0,0:0|0:0,0:0:0:0:
324,176,50090,2,0,L|224:176,1,100,8|0,0:0|0:0,0:0:0:0:
88,144,50423,1,0,0:0:0:0:
36,276,50590,2,0,L|136:276,1,100,0|8,0:0|0:0,0:0:0:0:
344,308,50923,6,0,P|298:217|211:175,1,200,4|0,0:0|0:0,0:0:0:0:
216,296,51423,1,8,0:0:0:0:
356,152,51590,1,0,0:0:0:0:
272,68,51757,2,0,L|172:68,2,100,0|0|8,0:0|0:0|0:0,0:0:0:0:
356,152,52257,1,4,0:0:0:0:
356,152,52590,6,0,L|456:152,1,100,0|8,0:0|0:0,0:0:0:0:
456,152,52923,1,0,0:0:0:0:
324,276,53090,1,0,0:0:0:0:
324,276,53173,1,0,0:0:0:0:
324,276,53257,2,0,P|276:288|228:276,1,100,0|12,0:0|0:0,0:0:0:0:
396,336,53590,1,0,0:0:0:0:
256,192,53757,6,0,L|156:192,1,100,0|0,0:0|0:0,0:0:0:0:
272,48,54090,1,12,0:0:0:0:
380,192,54257,1,0,0:0:0:0:
256,320,54423,2,0,L|156:320,1,100,0|0,0:0|0:0,0:0:0:0:
56,192,54757,1,8,0:0:0:0:
212,224,54923,6,0,P|312:228|400:176,1,200,0|0,0:0|0:0,0:0:0:0:
436,64,55423,1,12,0:0:0:0:
496,236,55590,1,0,0:0:0:0:
352,348,55757,2,0,P|304:360|256:348,1,100,0|0,0:0|0:0,0:0:0:0:
208,176,56090,2,0,P|256:164|304:176,1,100,12|0,0:0|0:0,0:0:0:0:
212,284,56423,5,0,0:0:0:0:
120,324,56590,1,0,0:0:0:0:
40,264,56757,1,12,0:0:0:0:
168,80,56923,5,0,0:0:0:0:
256,36,57090,1,0,0:0:0:0:
344,80,57257,1,8,0:0:0:0:
472,264,57423,5,0,0:0:0:0:
392,324,57590,1,0,0:0:0:0:
300,284,57757,1,12,0:0:0:0:
40,120,57923,5,0,0:0:0:0:
120,60,58090,1,0,0:0:0:0:
212,100,58257,1,8,0:0:0:0:
224,200,58423,5,0,0:0:0:0:
228,252,58507,1,0,0:0:0:0:
260,292,58590,1,0,0:0:0:0:
304,312,58673,1,0,0:0:0:0:
356,316,58757,2,0,L|456:316,1,100,12|0,0:0|0:0,0:0:0:0:
496,180,59090,6,0,P|512:128|496:84,1,100,4|0,0:0|0:0,0:0:0:0:
324,40,59423,2,0,P|308:92|324:136,1,100,8|0,0:0|0:0,0:0:0:0:
416,296,59757,1,0,0:0:0:0:
236,296,59923,2,0,L|136:296,2,100,0|8|0,0:0|0:0|0:0,0:0:0:0:
356,192,60423,6,0,P|372:144|356:100,1,100,0|0,0:0|0:0,0:0:0:0:
268,148,60757,1,8,0:0:0:0:
468,148,60923,1,0,0:0:0:0:
300,40,61090,1,0,0:0:0:0:
300,40,61173,1,0,0:0:0:0:
300,40,61257,2,0,L|200:40,1,100,0|8,0:0|0:0,0:0:0:0:
92,128,61590,1,0,0:0:0:0:
156,228,61757,6,0,L|256:228,2,100,4|0|8,0:0|0:0|0:0,0:0:0:0:
240,340,62257,1,0,0:0:0:0:
340,272,62423,2,0,P|356:228|340:180,1,100,0|0,0:0|0:0,0:0:0:0:
72,180,62757,2,0,P|56:228|72:272,1,100,8|0,0:0|0:0,0:0:0:0:
172,124,63090,6,0,P|149:78|106:58,1,100,4|0,0:0|0:0,0:0:0:0:
172,228,63423,2,0,P|211:259|258:259,1,100,8|0,0:0|0:0,0:0:0:0:
356,184,63757,1,4,0:0:0:0:
460,244,63923,1,0,0:0:0:0:
460,244,64007,1,0,0:0:0:0:
460,244,64090,1,8,0:0:0:0:
500,108,64257,1,0,0:0:0:0:
372,56,64423,6,0,L|272:56,1,100,4|0,0:0|0:0,0:0:0:0:
468,8,64757,1,8,0:0:0:0:
320,144,64923,6,0,L|220:144,1,100,0|0,0:0|0:0,0:0:0:0:
468,8,65257,1,8,0:0:0:0:
168,236,65423,6,0,L|268:236,1,100,0|0,0:0|0:0,0:0:0:0:
72,188,65757,1,8,0:0:0:0:
220,328,65923,6,0,L|320:328,1,100,0|0,0:0|0:0,0:0:0:0:
72,188,66257,1,8,0:0:0:0:
224,236,66423,5,0,0:0:0:0:
348,172,66590,1,0,0:0:0:0:
396,176,66673,1,0,0:0:0:0:
440,200,66757,1,8,0:0:0:0:
512,320,66923,1,0,0:0:0:0:
480,104,67090,5,4,0:0:0:0:
408,268,67257,1,0,0:0:0:0:
416,56,67423,1,8,0:0:0:0:
326,261,67590,1,0,0:0:0:0:
348,16,67757,1,0,0:0:0:0:
244,252,67924,1,0,0:0:0:0:
100,188,68090,1,8,0:0:0:0:
204,72,68257,6,0,P|308:48|396:72,1,200,4|0,0:0|0:0,0:0:0:0:
180,156,68757,2,0,P|136:132|112:88,1,100,8|0,0:0|0:0,0:0:0:0:
268,132,69090,2,0,P|297:172|300:222,1,100,0|0,0:0|0:0,0:0:0:0:
272,336,69423,1,8,0:0:0:0:
300,220,69590,6,0,P|399:192|491:220,1,200,4|0,0:0|0:0,0:0:0:0:
480,80,70090,2,0,L|380:80,1,100,8|0,0:0|0:0,0:0:0:0:
264,56,70423,1,0,0:0:0:0:
264,176,70590,1,0,0:0:0:0:
156,120,70757,1,8,0:0:0:0:
156,240,70923,6,0,P|228:312|324:324,1,200,4|0,0:0|0:0,0:0:0:0:
460,208,71423,2,0,L|360:208,1,100,8|0,0:0|0:0,0:0:0:0:
412,100,71757,1,0,0:0:0:0:
412,300,71923,1,0,0:0:0:0:
272,156,72090,1,8,0:0:0:0:
152,156,72257,6,0,P|112:248|152:332,1,200,4|0,0:0|0:0,0:0:0:0:
240,136,72757,2,0,P|212:92|168:72,1,100,8|0,0:0|0:0,0:0:0:0:
220,224,73090,2,0,P|263:252|312:251,1,100,0|0,0:0|0:0,0:0:0:0:
152,156,73423,2,0,P|105:180|81:222,1,100,8|4,0:0|0:0,0:0:0:0:
81,219,74757,1,8,0:0:0:0:
81,219,74923,1,6,0:0:0:0:
144,72,75090,6,0,L|244:72,1,100,0|2,0:0|0:0,0:0:0:0:
368,152,75423,2,0,L|268:152,1,100,0|2,0:0|0:0,0:0:0:0:
144,232,75757,2,0,L|244:232,1,100,0|2,0:0|0:0,0:0:0:0:
368,312,76090,2,0,L|268:312,1,100,0|2,0:0|0:0,0:0:0:0:
144,232,76423,6,0,L|244:232,1,100,0|2,0:0|0:0,0:0:0:0:
368,152,76757,2,0,L|268:152,1,100,0|2,0:0|0:0,0:0:0:0:
144,72,77090,2,0,L|244:72,1,100,0|2,0:0|0:0,0:0:0:0:
368,312,77423,2,0,L|268:312,1,100,0|2,0:0|0:0,0:0:0:0:
408,232,77757,6,0,P|448:264|460:312,1,100,4|2,0:0|0:0,0:0:0:0:
312,208,78090,2,0,P|306:157|331:114,1,100,0|2,0:0|0:0,0:0:0:0:
340,296,78423,2,0,P|308:336|260:347,1,100,0|2,0:0|0:0,0:0:0:0:
408,232,78757,2,0,P|448:264|460:312,1,100,0|2,0:0|0:0,0:0:0:0:
104,152,79090,6,0,P|64:120|52:72,1,100,0|2,0:0|0:0,0:0:0:0:
200,176,79423,2,0,P|205:226|180:269,1,100,0|2,0:0|0:0,0:0:0:0:
172,88,79756,2,0,P|204:48|251:36,1,100,0|2,0:0|0:0,0:0:0:0:
104,152,80090,2,0,P|64:120|52:72,1,100,0|2,0:0|0:0,0:0:0:0:
460,74,80423,6,0,P|448:120|408:152,1,100,4|2,0:0|0:0,0:0:0:0:
468,232,80757,2,0,P|427:255|376:250,1,100,0|2,0:0|0:0,0:0:0:0:
364,348,81090,2,0,P|318:335|286:295,1,100,0|2,0:0|0:0,0:0:0:0:
204,356,81423,2,0,P|180:315|185:264,1,100,0|2,0:0|0:0,0:0:0:0:
308,28,81757,6,0,P|331:68|326:119,1,100,0|2,0:0|0:0,0:0:0:0:
420,244,82090,2,0,P|379:267|328:262,1,100,0|2,0:0|0:0,0:0:0:0:
204,356,82423,2,0,P|180:315|185:264,1,100,0|2,0:0|0:0,0:0:0:0:
92,140,82757,2,0,P|132:116|183:121,1,100,0|2,0:0|0:0,0:0:0:0:
256,192,83090,5,12,0:0:0:0:
268,240,83173,1,0,0:0:0:0:
304,276,83257,1,10,0:0:0:0:
348,296,83340,1,0,0:0:0:0:
396,300,83423,1,8,0:0:0:0:
444,292,83507,1,0,0:0:0:0:
484,260,83590,1,10,0:0:0:0:
504,216,83673,1,0,0:0:0:0:
504,164,83757,6,0,L|500:136,6,25,8|0|0|0|2|0|0,0:0|0:0|0:0|0:0|0:0|0:0|0:0,0:0:0:0:
380,116,84090,6,0,L|384:144,6,25,8|0|0|0|2|0|0,0:0|0:0|0:0|0:0|0:0|0:0|0:0,0:0:0:0:
304,52,84423,6,0,P|207:28|119:68,1,200,0|4,0:0|0:0,0:0:0:0:
56,260,85090,2,0,L|52:288,11,25,0|0|0|0|0|0|0|0|0|0|0|0,0:0|0:0|0:0|0:0|0:0|0:0|0:0|0:0|0:0|0:0|0:0|0:0,0:0:0:0:
52,308,85590,6,0,P|144:348|236:324,1,200,4|2,0:0|0:0,0:0:0:0:
276,292,86007,1,0,0:0:0:0:
316,264,86090,2,0,P|368:252|416:260,1,100,0|2,0:0|0:0,0:0:0:0:
500,308,86423,5,0,0:0:0:0:
456,152,86590,1,2,0:0:0:0:
316,264,86757,1,0,0:0:0:0:
316,264,86840,1,0,0:0:0:0:
316,264,86923,2,0,P|216:272|132:224,1,200,2|2,0:0|0:0,0:0:0:0:
108,180,87340,1,0,0:0:0:0:
100,132,87423,1,0,0:0:0:0:
108,84,87507,1,0,0:0:0:0:
140,48,87590,1,2,0:0:0:0:
184,28,87673,1,0,0:0:0:0:
236,24,87757,6,0,L|288:28,1,50,0|0,0:0|0:0,0:0:0:0:
412,88,87923,2,0,L|360:84,1,50,2|0,0:0|0:0,0:0:0:0:
232,136,88090,2,0,L|284:140,1,50,0|0,0:0|0:0,0:0:0:0:
408,200,88256,2,0,L|356:196,1,50,2|0,0:0|0:0,0:0:0:0:
272,252,88423,5,0,0:0:0:0:
240,292,88507,1,0,0:0:0:0:
196,316,88590,1,2,0:0:0:0:
148,324,88673,1,0,0:0:0:0:
100,312,88757,1,0,0:0:0:0:
60,280,88840,1,0,0:0:0:0:
32,240,88923,1,2,0:0:0:0:
28,188,89007,1,0,0:0:0:0:
40,140,89090,6,0,L|60:92,1,50,0|0,0:0|0:0,0:0:0:0:
176,168,89257,2,0,L|156:216,1,50,2|0,0:0|0:0,0:0:0:0:
144,80,89423,2,0,L|164:32,1,50,0|0,0:0|0:0,0:0:0:0:
280,108,89590,2,0,L|260:156,1,50,2|0,0:0|0:0,0:0:0:0:
272,252,89757,1,2,0:0:0:0:
300,292,89840,6,0,P|348:308|396:296,1,100,0|2,0:0|0:0,0:0:0:0:
448,208,90090,2,0,P|400:192|352:204,1,100,0|2,0:0|0:0,0:0:0:0:
108,276,90340,2,0,P|156:292|204:280,1,100,0|2,0:0|0:0,0:0:0:0:
256,192,90590,2,0,P|208:176|160:188,1,100,0|2,0:0|0:0,0:0:0:0:
112,204,90840,1,0,0:0:0:0:
64,192,90923,1,2,0:0:0:0:
36,148,91007,1,0,0:0:0:0:
40,100,91090,6,0,L|52:48,1,50,6|0,0:0|0:0,0:0:0:0:
148,80,91257,2,0,L|160:28,1,50,2|0,0:0|0:0,0:0:0:0:
244,144,91423,2,0,L|256:196,1,50,0|0,0:0|0:0,0:0:0:0:
352,164,91590,2,0,L|364:216,1,50,2|0,0:0|0:0,0:0:0:0:
472,284,91757,2,0,L|460:336,1,50,0|0,0:0|0:0,0:0:0:0:
364,304,91924,2,0,L|352:356,1,50,2|0,0:0|0:0,0:0:0:0:
268,240,92090,2,0,L|256:188,1,50,0|0,0:0|0:0,0:0:0:0:
160,220,92257,2,0,L|148:168,1,50,2|0,0:0|0:0,0:0:0:0:
144,120,92423,5,4,0:0:0:0:
176,80,92507,1,0,0:0:0:0:
224,68,92590,1,2,0:0:0:0:
272,80,92673,1,0,0:0:0:0:
312,112,92757,1,0,0:0:0:0:
328,160,92840,1,0,0:0:0:0:
364,192,92923,1,2,0:0:0:0:
412,204,93007,1,0,0:0:0:0:
460,192,93090,5,0,0:0:0:0:
496,156,93173,1,0,0:0:0:0:
508,108,93257,1,2,0:0:0:0:
496,60,93340,1,0,0:0:0:0:
464,24,93423,1,0,0:0:0:0:
416,12,93507,1,0,0:0:0:0:
368,28,93590,1,2,0:0:0:0:
332,60,93673,1,0,0:0:0:0:
312,112,93757,6,0,L|304:180,2,66.6666666666667,6|2|0,0:0|0:0|0:0,0:0:0:0:
200,128,94090,2,0,L|192:196,2,66.6666666666667,0|0|2,0:0|0:0|0:0,0:0:0:0:
256,256,94423,2,0,L|248:324,2,66.6666666666667,4|2|0,0:0|0:0|0:0,0:0:0:0:
136,276,94756,2,0,L|128:344,2,66.6666666666667,0|0|0,0:0|0:0|0:0,0:0:0:0:
16,224,95090,5,8,0:0:0:0:
248,12,95423,1,0,0:0:0:0:
496,160,95757,1,0,0:0:0:0:
416,276,95923,1,8,0:0:0:0:
416,276,96007,1,0,0:0:0:0:
416,276,96090,1,0,0:0:0:0:
296,204,96257,1,0,0:0:0:0:
376,88,96423,5,4,0:0:0:0:
256,192,96507,12,4,99090,0:0:0:0:
60,208,99757,6,0,P|48:284|96:332,1,150.000005722046,0|2,0:0|0:0,0:0:0:0:
256,268,100423,2,0,L|256:116,1,150.000005722046,0|2,0:0|0:0,0:0:0:0:
416,52,101090,2,0,P|465:104|452:176,1,150.000005722046,0|2,0:0|0:0,0:0:0:0:
256,192,101757,1,4,0:0:0:0:
376,88,103090,6,0,L|324:88,7,50,0|0|0|0|0|0|0|0,0:0|0:0|0:0|0:0|0:0|0:0|0:0|0:0,0:0:0:0:
276,88,103756,5,0,0:0:0:0:
232,116,103840,1,0,0:0:0:0:
212,164,103923,1,0,0:0:0:0:
216,212,104006,1,0,0:0:0:0:
248,252,104090,1,0,0:0:0:0:
292,276,104173,1,0,0:0:0:0:
340,272,104256,1,0,0:0:0:0:
380,244,104340,1,0,0:0:0:0:
404,200,104423,6,0,L|416:152,7,50,4|0|0|0|0|0|0|0,0:0|0:0|0:0|0:0|0:0|0:0|0:0|0:0,0:0:0:0:
412,100,105090,5,4,0:0:0:0:
380,60,105173,1,0,0:0:0:0:
332,40,105257,1,0,0:0:0:0:
284,40,105340,1,0,0:0:0:0:
236,60,105423,1,0,0:0:0:0:
208,104,105507,1,0,0:0:0:0:
200,152,105590,1,0,0:0:0:0:
212,200,105673,1,0,0:0:0:0:
248,232,105757,6,0,L|296:248,3,50,4|0|0|0,0:0|0:0|0:0|0:0,0:0:0:0:
264,152,106090,2,0,L|216:136,3,50,4|0|0|0,0:0|0:0|0:0|0:0,0:0:0:0:
168,124,106423,5,4,0:0:0:0:
120,136,106507,1,0,0:0:0:0:
88,176,106590,1,4,0:0:0:0:
84,224,106673,1,0,0:0:0:0:
104,268,106757,1,4,0:0:0:0:
144,296,106840,1,0,0:0:0:0:
192,300,106923,6,0,P|260:238|241:140,1,200,4|0,0:0|0:0,0:0:0:0:
160,200,107423,2,0,P|249:243|327:194,1,200,8|0,0:0|0:0,0:0:0:0:
132,124,107923,2,0,P|88:148|68:192,1,100,0|8,0:0|0:0,0:0:0:0:
224,104,108257,6,0,P|148:38|60:66,1,200,4|0,0:0|0:0,0:0:0:0:
264,176,108757,2,0,P|300:140|304:92,1,100,8|0,0:0|0:0,0:0:0:0:
168,208,109090,1,0,0:0:0:0:
240,328,109257,1,0,0:0:0:0:
348,240,109423,1,8,0:0:0:0:
460,156,109590,6,0,P|500:248|460:332,1,200,4|0,0:0|0:0,0:0:0:0:
316,352,110090,1,8,0:0:0:0:
236,212,110257,1,0,0:0:0:0:
320,76,110423,1,0,0:0:0:0:
184,28,110590,2,0,P|168:76|184:120,1,100,0|8,0:0|0:0,0:0:0:0:
268,256,110923,6,0,P|184:216|92:256,1,200,4|0,0:0|0:0,0:0:0:0:
320,328,111423,2,0,P|352:288|356:240,1,100,8|0,0:0|0:0,0:0:0:0:
192,56,111757,2,0,P|160:96|156:144,1,100,0|0,0:0|0:0,0:0:0:0:
256,136,112090,1,8,0:0:0:0:
64,72,112257,1,0,0:0:0:0:
140,280,112423,6,0,L|240:280,1,100,4|0,0:0|0:0,0:0:0:0:
300,200,112757,1,8,0:0:0:0:
184,364,112923,1,0,0:0:0:0:
300,200,113090,2,0,L|200:200,1,100,0|0,0:0|0:0,0:0:0:0:
380,288,113423,1,8,0:0:0:0:
380,288,113590,6,0,P|420:200|380:112,1,200,4|0,0:0|0:0,0:0:0:0:
252,56,114090,1,8,0:0:0:0:
252,196,114257,1,0,0:0:0:0:
132,124,114423,1,0,0:0:0:0:
184,296,114590,1,0,0:0:0:0:
292,128,114757,2,0,L|392:128,1,100,8|0,0:0|0:0,0:0:0:0:
476,308,115090,5,4,0:0:0:0:
276,308,115257,2,0,L|376:308,1,100,0|8,0:0|0:0,0:0:0:0:
40,208,115590,5,0,0:0:0:0:
240,208,115757,2,0,L|140:208,1,100,0|8,0:0|0:0,0:0:0:0:
476,112,116090,5,0,0:0:0:0:
276,112,116257,2,0,L|376:112,1,100,0|8,0:0|0:0,0:0:0:0:
40,16,116590,5,0,0:0:0:0:
240,16,116757,2,0,L|140:16,1,100,0|8,0:0|0:0,0:0:0:0:
92,128,117090,1,0,0:0:0:0:
92,128,117173,1,0,0:0:0:0:
92,128,117257,1,0,0:0:0:0:
136,240,117423,2,0,L|236:240,1,100,8|0,0:0|0:0,0:0:0:0:
328,284,117757,6,0,P|344:236|328:192,1,100,4|0,0:0|0:0,0:0:0:0:
48,192,118090,2,0,P|32:240|48:284,1,100,8|0,0:0|0:0,0:0:0:0:
236,240,118423,2,0,L|136:240,2,100,0|0|8,0:0|0:0|0:0,0:0:0:0:
188,348,118923,1,0,0:0:0:0:
188,148,119090,6,0,P|236:136|284:148,1,100,0|0,0:0|0:0,0:0:0:0:
364,332,119423,2,0,P|316:344|268:332,1,100,8|0,0:0|0:0,0:0:0:0:
412,192,119757,1,0,0:0:0:0:
412,192,119840,1,0,0:0:0:0:
412,192,119923,1,0,0:0:0:0:
364,52,120090,2,0,P|316:40|268:52,1,100,8|0,0:0|0:0,0:0:0:0:
188,236,120423,6,0,P|236:248|284:236,1,100,4|0,0:0|0:0,0:0:0:0:
120,160,120757,2,0,P|77:185|52:227,1,100,8|0,0:0|0:0,0:0:0:0:
212,148,121090,2,0,P|223:100|211:52,1,100,0|0,0:0|0:0,0:0:0:0:
92,64,121423,1,8,0:0:0:0:
312,104,121590,1,0,0:0:0:0:
292,264,121757,6,0,L|192:264,1,100,4|0,0:0|0:0,0:0:0:0:
448,324,122090,1,8,0:0:0:0:
356,192,122257,1,0,0:0:0:0:
484,128,122423,1,4,0:0:0:0:
360,284,122590,1,0,0:0:0:0:
360,284,122673,1,0,0:0:0:0:
360,284,122757,1,8,0:0:0:0:
204,192,122923,1,0,0:0:0:0:
324,88,123090,5,4,0:0:0:0:
360,260,123257,1,0,0:0:0:0:
188,296,123423,1,8,0:0:0:0:
152,124,123590,5,0,0:0:0:0:
180,304,123757,1,0,0:0:0:0:
368,268,123923,1,8,0:0:0:0:
332,80,124090,5,0,0:0:0:0:
376,276,124257,1,0,0:0:0:0:
172,312,124423,1,8,0:0:0:0:
136,108,124590,5,0,0:0:0:0:
164,320,124757,1,0,0:0:0:0:
384,284,124923,1,8,0:0:0:0:
348,64,125090,5,4,0:0:0:0:
256,192,125257,1,0,0:0:0:0:
256,192,125340,1,0,0:0:0:0:
256,192,125423,2,0,L|156:192,1,100,8|0,0:0|0:0,0:0:0:0:
108,80,125757,5,4,0:0:0:0:
128,280,125923,1,0,0:0:0:0:
184,48,126090,1,8,0:0:0:0:
209,298,126256,1,0,0:0:0:0:
256,16,126423,1,0,0:0:0:0:
288,320,126589,1,0,0:0:0:0:
432,208,126757,1,8,0:0:0:0:
352,80,126923,6,0,P|256:52|160:80,1,200,4|0,0:0|0:0,0:0:0:0:
256,180,127423,1,8,0:0:0:0:
440,104,127590,1,0,0:0:0:0:
404,300,127757,1,0,0:0:0:0:
256,244,127923,1,0,0:0:0:0:
108,300,128090,1,8,0:0:0:0:
108,160,128257,6,0,P|204:132|300:160,1,200,4|0,0:0|0:0,0:0:0:0:
412,44,128757,2,0,L|312:44,1,100,8|0,0:0|0:0,0:0:0:0:
312,244,129090,2,0,L|412:244,2,100,0|0|8,0:0|0:0|0:0,0:0:0:0:
468,160,129590,6,0,P|512:252|468:332,1,200,4|0,0:0|0:0,0:0:0:0:
312,244,130090,2,0,L|412:244,1,100,8|0,0:0|0:0,0:0:0:0:
200,140,130423,2,0,L|100:140,1,100,0|0,0:0|0:0,0:0:0:0:
100,140,130757,1,8,0:0:0:0:
256,56,130923,6,0,P|356:52|436:108,1,200,4|0,0:0|0:0,0:0:0:0:
396,284,131423,2,0,L|496:284,1,100,8|0,0:0|0:0,0:0:0:0:
348,176,131757,1,0,0:0:0:0:
348,176,131840,1,0,0:0:0:0:
348,176,131923,1,0,0:0:0:0:
256,308,132090,2,0,P|208:320|160:308,1,100,8|4,0:0|0:0,0:0:0:0:
256,28,133423,5,8,0:0:0:0:
256,192,133590,1,4,0:0:0:0:
