osu file format v13

[General]
AudioFilename: nijiiro.mp3
AudioLeadIn: 0
PreviewTime: 58870
Countdown: 0
SampleSet: Normal
StackLeniency: 0.7
Mode: 0
LetterboxInBreaks: 0
WidescreenStoryboard: 0

[Editor]
Bookmarks: 745,6745,12745,14245,26245,32245,33745,45745,57745,59245,71245,81745,83245,95245,101245,102745
DistanceSpacing: 1.2
BeatDivisor: 4
GridSize: 4
TimelineZoom: 1

[Metadata]
Title:Nijiiro
TitleUnicode:虹色
Artist:DJ YOSHITAKA feat. G.S.C license
ArtistUnicode:DJ YOSHITAKA feat. G.S.C license
Creator:Damnae
Version:Insane
Source:beatmania IIDX
Tags:13th DistorteD pop'n music gsc eri dwp dancedancerevolution supernova natteke
BeatmapID:336859
BeatmapSetID:134289

[Difficulty]
HPDrainRate:7
CircleSize:4
OverallDifficulty:7
ApproachRate:9
SliderMultiplier:1.6
SliderTickRate:2

[Events]
//Background and Video events
0,0,"bg.png",0,0
//Break Periods
//Storyboard Layer 0 (Background)
//Storyboard Layer 1 (Fail)
//Storyboard Layer 2 (Pass)
//Storyboard Layer 3 (Foreground)
//Storyboard Sound Samples
//Background Colour Transformations
3,100,0,0,0

[TimingPoints]
745,375,4,1,1,45,1,0
32245,-100,4,1,1,25,0,0
32338,-100,4,1,1,45,0,0
33370,-100,4,1,1,5,0,0
33745,-100,4,1,1,45,0,0
59245,-100,4,1,1,45,0,1
81745,-100,4,1,0,45,0,0
83245,-100,4,1,1,45,0,0
102745,-100,4,1,1,5,0,0

[Colours]
Combo1 : 255,94,55
Combo2 : 173,255,95
Combo3 : 17,254,176
Combo4 : 255,88,100

[HitObjects]
256,192,11245,12,6,12745,0:0:0:0:
107,62,14245,5,4,0:0:0:0:
69,225,14432,1,0,0:0:0:0:
184,118,14620,1,10,0:0:0:0:
184,118,14995,6,0,P|217:139|256:148,1,80
257,149,15276,2,0,L|138:169,1,120,10|0,0:0|0:0,0:0:0:0:
266,233,15745,1,0,0:0:0:0:
344,219,15932,1,0,0:0:0:0:
423,205,16120,1,10,0:0:0:0:
430,211,16495,6,0,P|396:189|357:180,1,80,0|0,0:0|0:0,0:0:0:0:
357,180,16776,2,0,L|475:159,1,120,10|0,0:0|0:0,0:0:0:0:
475,159,17151,1,8,0:0:0:0:
475,159,17245,1,0,0:0:0:0:
308,261,17432,1,0,0:0:0:0:
281,97,17620,1,10,0:0:0:0:
281,97,17995,5,0,0:0:0:0:
238,164,18182,1,0,0:0:0:0:
238,164,18276,2,0,P|182:178|110:173,1,120,10|0,0:0|0:0,0:0:0:0:
199,261,18745,1,10,0:0:0:0:
281,97,18932,1,0,0:0:0:0:
282,97,19026,2,0,P|337:82|409:87,1,120,10|0,0:0|0:0,0:0:0:0:
477,103,19495,1,10,0:0:0:0:
395,267,19776,1,10,0:0:0:0:
395,267,19870,1,0,0:0:0:0:
199,261,20057,5,2,0:0:0:0:
281,97,20245,1,4,0:0:0:0:
477,103,20432,1,0,0:0:0:0:
395,267,20620,2,0,P|362:288|323:297,1,80,10|0,0:0|2:0,0:0:0:0:
281,97,20995,6,0,P|314:76|353:67,1,80
354,66,21276,2,0,L|235:46,1,120,10|0,0:0|0:0,0:0:0:0:
81,192,21745,1,0,0:0:0:0:
159,178,21932,1,0,0:0:0:0:
238,164,22120,1,10,0:0:0:0:
244,170,22495,6,0,P|211:191|172:200,1,80
171,201,22776,2,0,L|290:221,1,120,10|0,0:0|2:0,0:0:0:0:
445,122,23245,1,2,0:0:0:0:
283,77,23526,5,2,0:0:0:0:
283,77,23620,1,8,0:0:0:0:
270,155,23807,1,0,0:0:0:0:
165,195,23995,1,10,0:0:0:0:
165,195,24088,1,0,0:0:0:0:
153,273,24276,1,2,0:0:0:0:
153,273,24370,1,8,0:0:0:0:
256,314,24557,5,2,0:0:0:0:
366,291,24745,1,10,0:0:0:0:
432,200,24932,1,10,0:0:0:0:
350,123,25120,1,2,0:0:0:0:
376,300,25307,1,10,0:0:0:0:
240,146,25495,5,0,0:0:0:0:
266,323,25682,1,8,0:0:0:0:
153,273,25870,1,0,0:0:0:0:
153,273,25963,1,8,0:0:0:0:
153,273,26057,1,0,0:0:0:0:
153,273,26151,1,8,0:0:0:0:
153,273,26245,2,0,L|280:235,1,120,6|2,0:0|1:2,0:0:0:0:
267,238,26620,2,0,P|287:238|307:242,2,40,8|0|0,0:0|0:0|0:0,0:0:0:0:
337,150,26995,1,0,0:0:0:0:
310,342,27182,1,0,0:0:0:0:
298,125,27370,5,8,0:0:0:0:
364,307,27557,1,0,0:0:0:0:
228,212,27745,6,0,L|101:250,1,120,6|2,0:0|1:2,0:0:0:0:
113,246,28120,2,0,P|93:245|73:241,2,40,8|0|0,0:0|0:0|0:0,0:0:0:0:
44,335,28495,1,0,0:0:0:0:
71,143,28682,1,0,0:0:0:0:
83,360,28870,5,8,0:0:0:0:
17,178,29057,1,0,0:0:0:0:
166,313,29245,2,0,P|227:318|302:313,1,120,6|2,0:0|2:0,0:0:0:0:
285,315,29620,2,0,L|269:233,1,80,8|0,0:0|0:0,0:0:0:0:
218,137,29995,1,6,0:0:0:0:
218,137,30088,2,0,L|201:54,1,80,2|2,0:0|2:0,0:0:0:0:
202,58,30370,2,0,P|263:63|296:62,1,80,8|0,0:0|0:0,0:0:0:0:
350,151,30745,5,14,0:0:0:0:
350,151,30838,1,0,0:0:0:0:
166,313,31026,1,0,0:0:0:0:
166,313,31120,1,10,0:0:0:0:
218,137,31307,1,0,0:0:0:0:
218,137,31401,1,8,0:0:0:0:
218,137,31495,1,6,0:0:0:0:
356,247,31682,1,0,0:0:0:0:
160,217,31870,1,10,0:0:0:0:
298,327,32057,1,10,0:0:0:0:
298,327,32151,1,10,0:0:0:0:
298,327,32245,1,6,0:2:0:0:
256,192,32338,12,0,33370,0:0:0:0:
104,84,33745,5,4,0:0:0:0:
54,200,33932,1,2,0:0:0:0:
141,154,34120,2,0,P|232:146|315:151,1,160
392,36,34776,1,0,0:0:0:0:
392,36,34870,2,0,P|401:96|407:127,1,80,0|2,0:0|0:0,0:0:0:0:
389,298,35245,6,0,P|380:238|374:207,1,80,0|2,0:0|0:0,0:0:0:0:
252,305,35620,2,0,P|287:324|319:349,1,80,0|2,0:0|0:0,0:0:0:0:
183,264,35995,2,0,P|120:269|63:266,1,120
63,266,36370,1,0,0:0:0:0:
36,190,36557,1,2,0:0:0:0:
88,72,36745,5,0,0:0:0:0:
140,331,37026,1,0,0:0:0:0:
140,331,37120,2,0,P|159:296|183:264,1,80,0|2,0:0|0:0,0:0:0:0:
220,30,37495,2,0,P|223:110|216:190,1,160
472,191,38245,1,0,0:0:0:0:
472,191,38338,1,0,0:0:0:0:
280,303,38526,2,0,P|284:327|289:356,1,40
293,208,38807,1,2,0:0:0:0:
293,208,38901,1,0,0:0:0:0:
293,208,38995,1,0,0:0:0:0:
293,208,39088,2,0,P|295:175|293:98,1,80
295,128,39370,1,0,0:0:0:0:
472,191,39557,5,2,0:0:0:0:
280,303,39745,1,4,0:0:0:0:
203,245,39932,1,2,0:0:0:0:
293,208,40120,2,0,P|326:225|444:265,1,160
280,303,40776,1,0,0:0:0:0:
280,303,40870,2,0,P|231:292|189:288,1,80,0|2,0:0|0:0,0:0:0:0:
18,306,41245,6,0,P|67:317|109:321,1,80,0|2,0:0|0:0,0:0:0:0:
224,166,41620,2,0,P|191:149|73:109,1,160
222,247,42276,1,0,0:0:0:0:
222,247,42370,1,0,0:0:0:0:
294,128,42557,1,2,0:0:0:0:
293,208,42745,6,0,P|326:225|444:265,1,160
442,264,43307,1,2,0:0:0:0:
341,323,43495,2,0,P|305:320|177:337,1,160
46,192,44245,1,4,0:0:0:0:
46,192,44620,1,4,0:0:0:0:
46,192,44995,5,4,0:0:0:0:
135,214,45182,1,2,0:0:0:0:
237,194,45370,1,4,0:0:0:0:
351,179,45557,1,2,0:0:0:0:
478,192,45745,6,0,P|417:201|383:211,1,80
269,148,46120,1,8,0:0:0:0:
305,265,46307,1,2,0:0:0:0:
305,265,46401,2,0,P|309:289|314:318,1,40
135,214,46682,2,0,P|140:268|140:313,2,80,0|8|2,0:0|0:0|0:0,0:0:0:0:
269,148,47245,2,0,P|150:127|114:111,1,160,0|8,0:0|0:0,0:0:0:0:
114,111,47807,5,2,0:0:0:0:
305,265,47995,2,0,P|365:258|392:257,1,80
495,141,48370,2,0,P|455:146|416:149,1,80,8|2,0:0|0:0,0:0:0:0:
135,214,48745,2,0,P|76:221|18:239,1,120
18,238,49120,2,0,P|63:248|107:265,1,80,8|2,0:0|0:0,0:0:0:0:
345,311,49495,2,0,P|286:304|228:286,1,120
228,287,49870,2,0,P|273:277|317:260,1,80,8|2,0:0|0:0,0:0:0:0:
267,73,50245,6,0,P|192:99|113:111,1,160,0|8,0:0|0:0,0:0:0:0:
413,83,50807,2,0,P|381:58|354:30,1,80,2|0,0:0|0:0,0:0:0:0:
441,176,51182,1,0,0:0:0:0:
231,169,51370,2,0,P|262:193|290:222,1,80,8|2,0:0|0:0,0:0:0:0:
381,251,51745,6,0,P|302:262|226:289,1,160,0|8,0:0|0:0,0:0:0:0:
133,265,52307,1,2,0:0:0:0:
108,93,52495,2,0,P|125:129|136:168,1,80
51,339,52870,2,0,P|33:302|23:264,1,80,8|2,0:0|0:0,0:0:0:0:
23,265,53245,6,0,P|101:253|172:228,1,120,0|0,0:0|0:0,0:0:0:0:
156,218,53620,1,8,0:0:0:0:
302,89,53807,1,2,0:0:0:0:
263,168,53995,2,0,P|275:246|302:322,1,160,0|8,0:0|0:0,0:0:0:0:
389,336,54557,1,2,0:0:0:0:
466,294,54745,6,4,P|453:215|434:156,1,120,4|0,0:0|0:0,0:0:0:0:
453,152,55120,1,0,0:0:0:0:
358,164,55307,1,2,0:0:0:0:
263,168,55495,2,0,P|184:155|125:136,1,120,0|0,0:0|0:0,0:0:0:0:
121,155,55870,1,0,0:0:0:0:
38,247,56057,1,2,0:0:0:0:
133,243,56245,2,0,P|211:255|271:275,1,120,0|0,0:0|0:0,0:0:0:0:
275,256,56620,1,0,0:0:0:0:
411,62,56807,1,2,0:0:0:0:
316,66,56995,2,0,P|237:53|178:34,1,120,0|0,0:0|0:0,0:0:0:0:
220,144,57371,5,0,0:0:0:0:
220,144,57464,1,0,0:0:0:0:
220,144,57558,1,0,0:0:0:0:
220,144,57652,1,0,0:0:0:0:
220,144,57746,1,6,0:0:0:0:
92,80,58027,1,2,0:0:0:0:
107,316,58308,1,2,0:0:0:0:
24,268,58495,1,2,0:0:0:0:
15,254,58870,5,0,0:0:0:0:
34,100,59057,1,0,0:0:0:0:
81,184,59245,2,0,P|177:184|269:172,1,160,6|8,0:0|0:0,0:0:0:0:
433,173,59807,1,0,0:0:0:0:
347,217,59995,1,0,0:0:0:0:
347,121,60182,1,0,0:0:0:0:
436,176,60370,1,8,0:0:0:0:
430,271,60557,1,0,0:0:0:0:
350,220,60745,6,0,P|254:220|162:232,1,160,2|8,0:0|0:0,0:0:0:0:
99,259,61307,1,0,0:0:0:0:
55,344,61495,1,0,0:0:0:0:
91,178,61682,1,0,0:0:0:0:
12,233,61870,1,8,0:0:0:0:
122,104,62057,1,0,0:0:0:0:
28,116,62245,6,0,P|124:116|216:104,1,160,2|8,0:0|0:0,0:0:0:0:
256,175,62807,1,0,0:0:0:0:
422,121,62995,2,0,P|382:127|344:138,1,80
99,259,63370,1,8,0:0:0:0:
91,178,63557,1,0,0:0:0:0:
122,104,63745,2,0,P|160:92|199:87,1,80
199,87,64026,1,0,0:0:0:0:
199,87,64120,1,8,0:0:0:0:
366,288,64307,6,0,P|403:301|443:309,1,80,8|0,0:0|0:0,0:0:0:0:
419,217,64682,1,0,0:0:0:0:
327,246,64870,1,8,0:0:0:0:
351,338,65057,1,0,0:0:0:0:
444,310,65245,6,0,P|444:214|456:122,1,160,6|8,0:0|0:0,0:0:0:0:
327,246,65807,1,0,0:0:0:0:
263,83,65995,2,0,P|273:121|278:161,1,80
248,324,66370,2,0,P|237:285|232:245,1,80,8|0,0:0|0:0,0:0:0:0:
158,105,66745,6,0,P|158:201|146:293,1,160,2|8,0:0|0:0,0:0:0:0:
275,169,67307,1,0,0:0:0:0:
339,331,67495,2,0,P|328:292|323:252,1,80
354,90,67870,2,0,P|364:128|369:168,1,80,8|0,0:0|0:0,0:0:0:0:
312,259,68245,6,0,P|232:251|152:251,1,160,2|8,0:0|0:0,0:0:0:0:
71,200,68807,1,0,0:0:0:0:
156,156,68995,2,0,P|165:90|159:27,2,120,2|8|0,0:0|0:0|0:0,0:0:0:0:
104,325,69745,2,0,P|55:290|0:266,1,120,2|8,0:0|0:0,0:0:0:0:
211,357,70307,5,0,0:0:0:0:
321,340,70494,1,0,0:0:0:0:
400,260,70682,1,8,0:0:0:0:
428,152,70869,1,8,0:0:0:0:
404,42,71057,1,8,0:0:0:0:
403,42,71245,6,0,P|344:48|284:41,2,120,6|8|0,0:0|0:0|0:0,0:0:0:0:
267,133,71995,2,0,P|212:99|139:76,2,120,2|8|0,0:0|0:0|0:0,0:0:0:0:
182,196,72745,1,0,0:0:0:0:
395,58,73026,1,8,0:0:0:0:
328,279,73307,1,0,0:0:0:0:
328,279,73495,6,0,P|248:271|168:271,1,160,0|8,0:0|0:0,0:0:0:0:
88,219,74057,1,0,0:0:0:0:
309,194,74245,2,0,P|388:201|468:201,1,160,2|8,0:0|0:0,0:0:0:0:
468,201,74807,1,0,0:0:0:0:
388,74,74995,1,0,0:0:0:0:
328,279,75276,1,8,0:0:0:0:
493,252,75557,1,0,0:0:0:0:
328,279,75745,5,0,0:0:0:0:
305,185,75932,1,0,0:0:0:0:
396,213,76120,1,8,0:0:0:0:
328,279,76307,2,0,P|248:271|168:271,1,160,2|0,0:0|0:0,0:0:0:0:
207,185,76870,1,8,0:0:0:0:
94,230,77058,1,0,0:0:0:0:
248,71,77245,6,0,P|184:77|109:66,2,120,6|8|0,0:0|0:0|0:0,0:0:0:0:
356,161,77995,2,0,P|415:154|475:160,2,120,2|8|0,0:0|0:0|0:0,0:0:0:0:
321,366,78745,6,0,P|350:309|400:252,2,120,2|8|0,0:0|0:0|0:0,0:0:0:0:
251,202,79495,2,0,P|265:120|265:52,1,120,2|8,0:0|0:0,0:0:0:0:
267,83,79870,2,0,P|225:85|177:79,1,80,0|0,0:0|0:0,0:0:0:0:
13,195,80245,2,8,P|83:217|148:212,1,120,2|8,0:0|0:0,0:0:0:0:
128,215,80620,2,0,P|119:172|116:133,1,80,0|0,0:0|0:0,0:0:0:0:
73,33,80995,1,10,0:0:0:0:
436,156,81276,1,0,0:0:0:0:
436,156,81370,1,8,0:0:0:0:
436,156,81463,1,0,0:0:0:0:
436,156,81557,1,0,0:0:0:0:
436,156,81651,1,8,0:0:0:0:
436,156,81745,5,4,0:2:0:0:
372,272,82026,1,4,0:2:0:0:
112,180,82307,1,4,0:2:0:0:
194,269,83245,6,0,P|233:276|270:289,2,80,4|0|10,0:0|0:0|0:0,0:0:0:0:
35,160,83995,2,0,P|72:173|111:180,1,80
111,180,84276,2,0,L|96:36,1,120,10|0,0:0|0:0,0:0:0:0:
189,151,84745,1,0,0:0:0:0:
266,132,84932,1,0,0:0:0:0:
344,114,85120,1,10,0:0:0:0:
350,120,85495,6,0,P|312:106|273:99,1,80
273,99,85776,2,0,L|288:243,1,120,10|0,0:0|0:0,0:0:0:0:
252,291,86245,1,0,0:0:0:0:
192,238,86432,1,0,0:0:0:0:
365,209,86620,1,10,0:0:0:0:
371,215,86995,6,0,P|408:201|447:194,1,80
447,194,87276,2,0,L|431:338,1,120,10|0,0:0|0:0,0:0:0:0:
344,348,87745,1,2,0:0:0:0:
186,232,88026,1,2,0:0:0:0:
186,232,88120,1,8,0:0:0:0:
239,172,88307,1,0,0:0:0:0:
293,113,88495,1,10,0:0:0:0:
23,172,88776,1,10,0:0:0:0:
23,172,88870,1,2,0:0:0:0:
98,144,89057,1,2,0:0:0:0:
173,117,89245,6,0,P|166:78|153:41,2,80,6|0|10,0:0|0:0|0:0,0:0:0:0:
30,332,89995,2,0,P|16:294|9:255,1,80
9,256,90276,2,0,L|153:271,1,120,10|0,0:0|0:0,0:0:0:0:
286,298,90745,1,0,0:0:0:0:
283,218,90932,1,0,0:0:0:0:
206,241,91120,1,10,0:0:0:0:
206,241,91495,5,0,0:0:0:0:
360,195,91682,1,0,0:0:0:0:
360,195,91776,1,10,0:0:0:0:
206,156,91963,1,8,0:0:0:0:
206,156,92057,1,2,0:0:0:0:
360,195,92245,6,0,L|479:181,1,120,0|2,0:0|0:0,0:0:0:0:
478,180,92620,2,0,P|470:219|457:256,1,80,8|0,0:0|0:0,0:0:0:0:
277,50,92995,1,10,0:0:0:0:
277,50,93088,2,0,L|351:80,1,80,0|0,0:0|0:0,0:0:0:0:
350,79,93370,2,0,P|324:109|295:136,1,80,10|0,0:0|0:0,0:0:0:0:
163,79,93745,5,2,0:0:0:0:
163,79,93838,1,8,0:0:0:0:
163,79,93932,1,2,0:0:0:0:
126,185,94119,1,10,0:0:0:0:
176,284,94307,1,10,0:0:0:0:
282,320,94494,1,0,0:0:0:0:
383,270,94682,1,8,0:0:0:0:
418,164,94869,1,0,0:0:0:0:
418,164,94963,1,8,0:0:0:0:
418,164,95057,1,0,0:0:0:0:
418,164,95151,1,8,0:0:0:0:
418,164,95245,5,6,0:0:0:0:
368,64,95526,1,0,0:0:0:0:
368,64,95620,1,8,0:0:0:0:
262,28,95807,1,0,0:0:0:0:
194,117,95995,1,0,0:0:0:0:
299,153,96182,1,0,0:0:0:0:
368,64,96370,1,8,0:0:0:0:
194,117,96557,1,0,0:0:0:0:
362,70,96745,5,6,0:0:0:0:
188,123,97026,1,0,0:0:0:0:
188,123,97120,1,8,0:0:0:0:
293,159,97307,1,0,0:0:0:0:
256,34,97495,1,0,0:0:0:0:
293,159,97682,1,0,0:0:0:0:
225,248,97870,1,8,0:0:0:0:
188,123,98057,1,0,0:0:0:0:
287,165,98245,5,6,0:0:0:0:
395,139,98432,2,0,P|423:147|438:153,2,40,0|8|0,0:0|0:0|0:0,0:0:0:0:
275,197,98807,5,0,0:0:0:0:
167,223,98995,1,6,0:0:0:0:
167,223,99088,1,8,0:0:0:0:
47,281,99276,5,8,0:0:0:0:
47,281,99370,1,0,0:0:0:0:
155,255,99557,1,0,0:0:0:0:
335,282,99745,5,14,0:0:0:0:
335,282,99838,1,0,0:0:0:0:
227,308,100026,1,0,0:0:0:0:
227,308,100120,1,8,0:0:0:0:
347,250,100307,5,0,0:0:0:0:
347,250,100401,1,8,0:0:0:0:
347,250,100495,1,6,0:0:0:0:
455,224,100682,1,0,0:0:0:0:
347,137,100870,1,10,0:0:0:0:
455,114,101058,1,10,0:0:0:0:
455,114,101151,1,2,0:0:0:0:
455,114,101245,1,6,0:0:0:0:
256,192,101338,12,0,102745,2:0:0:0:
