osu file format v13

[General]
AudioFilename: nijiiro.mp3
AudioLeadIn: 0
PreviewTime: 58870
Countdown: 0
SampleSet: Normal
StackLeniency: 0.7
Mode: 0
LetterboxInBreaks: 0
WidescreenStoryboard: 0

[Editor]
Bookmarks: 745,6745,12745,14245,26245,32245,33745,45745,57745,59245,71245,81745,83245,95245,101245,102745
DistanceSpacing: 1
BeatDivisor: 4
GridSize: 4
TimelineZoom: 1

[Metadata]
Title:Nijiiro
TitleUnicode:虹色
Artist:DJ YOSHITAKA feat. G.S.C license
ArtistUnicode:DJ YOSHITAKA feat. G.S.C license
Creator:Damnae
Version:Easy
Source:beatmania IIDX
Tags:13th DistorteD pop'n music gsc eri dwp dancedancerevolution supernova natteke
BeatmapID:339857
BeatmapSetID:134289

[Difficulty]
HPDrainRate:2
CircleSize:2
OverallDifficulty:2
ApproachRate:2
SliderMultiplier:0.9
SliderTickRate:2

[Events]
//Background and Video events
0,0,"bg.png",0,0
//Break Periods
//Storyboard Layer 0 (Background)
//Storyboard Layer 1 (Fail)
//Storyboard Layer 2 (Pass)
//Storyboard Layer 3 (Foreground)
//Storyboard Sound Samples
//Background Colour Transformations
3,100,0,0,0

[TimingPoints]
745,375,4,1,1,45,1,0
32245,-100,4,1,1,25,0,0
32338,-100,4,1,1,45,0,0
33370,-100,4,1,1,5,0,0
33745,-100,4,1,1,45,0,0
59245,-100,4,1,1,45,0,1
81745,-100,4,1,0,45,0,0
83245,-100,4,1,1,45,0,0
102745,-100,4,1,1,5,0,0

[Colours]
Combo1 : 255,94,55
Combo2 : 173,255,95
Combo3 : 17,254,176
Combo4 : 255,88,100

[HitObjects]
256,192,11245,12,6,12745,0:0:0:0:
440,84,14245,6,0,P|357:80|274:13,1,180,4|0,0:0|0:0,0:0:0:0:
202,68,15370,2,0,P|207:156|162:232,1,180,8|8,0:0|0:0,0:0:0:0:
195,316,16495,2,0,L|292:328,1,90,0|8,0:0|0:0,0:0:0:0:
374,327,17245,5,0,0:0:0:0:
464,327,17620,1,8,0:0:0:0:
327,209,18370,2,0,P|238:201|160:244,1,180,8|8,0:0|0:0,0:0:0:0:
97,180,19495,2,0,L|85:83,1,90,0|8,0:0|0:0,0:0:0:0:
175,103,20245,6,0,P|258:99|341:32,1,180,4|0,0:0|0:0,0:0:0:0:
413,87,21370,2,0,P|408:175|453:251,1,180,8|8,0:0|0:0,0:0:0:0:
429,338,22495,2,0,L|332:326,1,90,0|8,0:0|0:0,0:0:0:0:
281,258,23245,5,0,0:0:0:0:
226,329,23620,1,8,0:0:0:0:
139,352,23995,1,0,0:0:0:0:
53,323,24370,2,0,P|45:234|88:156,1,180,8|8,0:0|0:0,0:0:0:0:
127,73,25495,2,0,L|224:61,1,90,0|8,0:0|0:0,0:0:0:0:
301,93,26245,5,6,0:0:0:0:
121,319,27745,1,6,0:0:0:0:
392,64,29245,5,6,0:0:0:0:
256,180,29995,1,6,0:0:0:0:
256,192,30745,12,4,32245,0:2:0:0:
232,126,33745,6,0,B|320:138|408:102|408:102|404:142|424:198,1,270,0|8,1:0|0:0,0:0:0:0:
366,261,35245,2,0,B|278:225|190:237,1,180,0|0,1:0|0:0,0:0:0:0:
126,300,36370,1,8,0:0:0:0:
102,213,36745,6,0,B|114:125|78:37|78:37,2,180,0|0|0,1:0|0:0|0:0,0:0:0:0:
256,306,38995,1,0,0:0:0:0:
344,292,39370,1,8,0:0:0:0:
433,278,39745,6,0,B|421:190|457:102|457:102|417:106|361:86,1,270,0|8,1:0|0:0,0:0:0:0:
304,152,41245,2,0,B|216:116|128:128,1,180,0|0,1:0|0:0,0:0:0:0:
68,196,42370,1,8,0:0:0:0:
40,110,42745,5,0,0:0:0:0:
93,281,43495,1,0,0:0:0:0:
221,101,44245,6,0,L|320:72,1,90,4|8,0:0|0:0,0:0:0:0:
396,52,44995,2,0,L|425:150,1,90,4|8,0:0|0:0,0:0:0:0:
452,224,45745,6,0,P|368:300|344:368,1,180,4|2,0:0|0:0,0:0:0:0:
256,340,46870,1,8,0:0:0:0:
166,360,47245,2,0,P|129:279|59:224,1,180,0|0,0:0|0:0,0:0:0:0:
20,140,48370,1,8,0:0:0:0:
104,104,48745,5,4,0:0:0:0:
284,124,49495,1,0,0:0:0:0:
124,208,50245,2,0,P|115:247|112:300,1,90,4|8,0:0|0:0,0:0:0:0:
172,364,50995,2,0,P|211:373|264:376,1,90,4|8,0:0|0:0,0:0:0:0:
344,340,51745,5,4,0:0:0:0:
448,192,52495,1,8,0:0:0:0:
344,44,53245,1,4,0:0:0:0:
356,224,53995,2,8,P|272:236|252:236,1,90,0|8,0:0|0:0,0:0:0:0:
188,192,54745,5,4,0:0:0:0:
188,192,56245,1,4,0:0:0:0:
188,192,57745,1,0,0:0:0:0:
352,116,58495,1,4,0:0:0:0:
256,268,59245,6,0,P|144:252|76:268,1,180
28,192,60370,1,8,0:0:0:0:
79,117,60745,2,0,P|168:132|256:116,1,180
332,64,61870,1,8,0:0:0:0:
360,152,62245,6,0,P|332:260|348:332,2,180,4|0|0,0:0|0:0|0:0,0:0:0:0:
432,96,64120,1,8,0:0:0:0:
496,32,64495,1,0,0:0:0:0:
336,116,65245,6,0,P|224:132|156:116,1,180
108,192,66370,1,8,0:0:0:0:
159,266,66745,2,0,P|247:250|335:267,1,180
416,308,67870,1,8,0:0:0:0:
488,256,68245,5,4,0:0:0:0:
400,100,68995,1,8,0:0:0:0:
256,208,69745,1,4,0:0:0:0:
112,100,70495,2,0,L|92:200,1,90,0|8,0:0|0:0,0:0:0:0:
72,276,71245,5,0,0:0:0:0:
212,163,71995,2,0,L|192:263,1,90,0|8,0:0|0:0,0:0:0:0:
172,339,72745,1,0,0:0:0:0:
343,284,73495,2,0,L|363:184,1,90,0|8,0:0|0:0,0:0:0:0:
379,107,74245,5,0,0:0:0:0:
221,19,74995,1,0,0:0:0:0:
89,142,75745,1,0,0:0:0:0:
165,305,76495,1,0,0:0:0:0:
254,292,76870,1,8,0:0:0:0:
344,283,77245,5,0,0:0:0:0:
182,203,77995,2,0,L|82:183,1,90,0|8,0:0|0:0,0:0:0:0:
6,163,78745,1,0,0:0:0:0:
174,98,79495,2,0,L|274:78,1,90,0|8,0:0|0:0,0:0:0:0:
350,58,80245,5,0,0:0:0:0:
333,237,80995,2,0,L|353:337,1,90,0|8,0:0|0:0,0:0:0:0:
436,296,81745,6,0,L|423:228,2,67.5,4|4|4,0:2|0:2|0:2,0:0:0:0:
440,300,83245,6,0,P|357:304|274:371,1,180,4|0,0:0|0:0,0:0:0:0:
202,316,84370,2,0,P|207:228|162:152,1,180,8|8,0:0|0:0,0:0:0:0:
195,68,85495,2,0,L|292:56,1,90,0|8,0:0|0:0,0:0:0:0:
374,57,86245,5,0,0:0:0:0:
464,57,86620,1,8,0:0:0:0:
327,175,87370,2,0,P|238:183|160:140,1,180,8|8,0:0|0:0,0:0:0:0:
97,204,88495,2,0,L|85:301,1,90,0|8,0:0|0:0,0:0:0:0:
175,281,89245,6,0,P|258:285|341:352,1,180,4|0,0:0|0:0,0:0:0:0:
413,297,90370,2,0,P|408:209|453:133,1,180,8|8,0:0|0:0,0:0:0:0:
429,46,91495,2,0,L|332:58,1,90,0|8,0:0|0:0,0:0:0:0:
281,126,92245,5,0,0:0:0:0:
226,55,92620,1,8,0:0:0:0:
139,32,92995,1,0,0:0:0:0:
53,61,93370,2,0,P|45:150|88:228,1,180,8|8,0:0|0:0,0:0:0:0:
127,311,94495,2,0,L|224:323,1,90,0|8,0:0|0:0,0:0:0:0:
301,291,95245,5,6,0:0:0:0:
121,65,96745,1,6,0:0:0:0:
392,320,98245,5,6,0:0:0:0:
265,192,98995,1,6,0:0:0:0:
256,192,99745,12,4,101245,0:0:0:0:
