osu file format v12

[General]
AudioFilename: 2-03 High School Love.mp3
AudioLeadIn: 2000
PreviewTime: 46036
Countdown: 0
SampleSet: Normal
StackLeniency: 0.4
Mode: 0
LetterboxInBreaks: 1
WidescreenStoryboard: 1

[Editor]
DistanceSpacing: 1
BeatDivisor: 4
GridSize: 8

[Metadata]
Title:HIGH SCHOOL LOVE
TitleUnicode:HIGH SCHOOL LOVE
Artist:DJ YOSHITAKA feat. DWP
ArtistUnicode:DJ YOSHITAKA feat. DWP
Creator:fanzhen0019
Version:Standard
Source:pop'n music 14 FEVER!
Tags:bemani iidx14 ERi wac beatmania IIDX 14 GOLD portable
BeatmapID:289688
BeatmapSetID:78211

[Difficulty]
HPDrainRate:4
CircleSize:3
OverallDifficulty:4
ApproachRate:5
SliderMultiplier:1.2
SliderTickRate:2

[Events]
//Background and Video events
0,0,"BGGB.jpg",0,0
//Break Periods
2,72411,84836
2,86244,89836
//Storyboard Layer 0 (Background)
//Storyboard Layer 1 (Fail)
//Storyboard Layer 2 (Pass)
//Storyboard Layer 3 (Foreground)
//Storyboard Sound Samples
//Background Colour Transformations
3,100,163,162,255

[TimingPoints]
370,333.333333333333,4,1,1,85,1,0
703,-100,4,1,1,70,0,0
21703,-133.333333333333,4,1,1,70,0,0
46036,-100,4,1,1,70,0,1
56203,-100,4,1,1,70,0,0
56703,-100,4,1,1,70,0,1
69703,-100,4,1,1,70,0,0
84869,-100,4,1,1,70,0,0
96703,-100,4,1,1,70,0,1
112286,-100,4,1,1,5,0,0

[Colours]
Combo1 : 255,204,128
Combo2 : 100,240,150
Combo3 : 97,214,240
Combo4 : 117,117,255

[HitObjects]
424,184,370,5,4,0:0:0:0:
320,240,703,2,0,L|120:248,1,180
48,168,1536,2,0,P|104:128|168:136,1,120
208,160,2036,2,0,L|336:154,2,120
140,247,3036,6,0,P|140:311|200:336,1,120
240,320,3536,2,0,L|368:328,1,120
480,336,4203,1,0,0:0:0:0:
504,216,4536,2,0,L|438:213,1,60
344,144,5036,2,0,L|216:152,1,120
88,184,5703,5,4,0:0:0:0:
192,240,6036,2,0,L|392:248,1,180
464,168,6869,2,0,P|408:128|344:136,1,120
304,160,7369,2,0,L|176:154,2,120
372,247,8369,6,0,P|372:311|312:336,1,120
272,320,8869,2,0,L|144:328,1,120
32,336,9536,1,0,0:0:0:0:
256,192,9703,12,4,11036,0:0:0:0:
448,224,11536,6,4,P|448:280|416:352,2,120
288,168,12703,1,0,0:0:0:0:
168,128,13036,1,0,0:0:0:0:
192,248,13369,1,0,0:0:0:0:
288,168,13703,5,4,0:0:0:0:
64,224,14203,2,4,P|64:280|96:352,2,120
120,56,15369,1,0,0:0:0:0:
224,112,15703,2,0,P|288:120|344:88,1,120
416,8,16369,5,4,0:0:0:0:
368,184,16869,2,4,L|376:320,2,120
192,160,18036,5,0,0:0:0:0:
88,216,18369,1,0,0:0:0:0:
192,272,18703,1,0,0:0:0:0:
88,328,19036,5,4,0:0:0:0:
256,160,19703,1,4,0:0:0:0:
424,328,20369,1,4,0:0:0:0:
256,160,21036,1,4,0:0:0:0:
192,272,21369,1,4,0:0:0:0:
320,272,21703,1,4,0:0:0:0:
408,112,22369,6,0,L|456:120,2,45.0000017166138
360,104,22869,1,0,0:0:0:0:
304,176,23203,2,0,L|248:184,1,45.0000017166138
168,192,23703,2,0,P|128:184|72:192,1,90.0000034332277
8,136,24369,1,4,0:0:0:0:
80,80,24703,6,0,L|72:24,1,45.0000017166138
168,96,25203,6,0,L|160:40,2,45.0000017166138
256,112,25869,6,0,L|248:56,2,45.0000017166138
344,128,26536,6,0,L|336:72,1,45.0000017166138
432,144,27036,6,0,L|456:248,2,90.0000034332277,4|0|0,0:0|0:0|0:0,0:0:0:0:
360,208,28036,2,0,P|352:232|352:256,1,45.0000017166138
272,296,28536,2,0,P|271:276|263:252,1,45.0000017166138
176,264,29036,2,0,P|160:216|160:160,1,90.0000034332277
80,144,29703,6,0,L|56:248,2,90.0000034332277,4|0|4,0:0|0:0|0:0,0:0:0:0:
144,80,30703,2,0,P|160:96|168:120,1,45.0000017166138
168,160,31036,5,4,0:0:0:0:
256,176,31369,1,4,0:0:0:0:
344,192,31703,2,4,L|400:184,1,45.0000017166138
448,248,32203,6,0,P|432:304|320:320,1,180.000006866455,4|0,0:0|0:0,0:0:0:0:
296,288,33036,2,0,L|152:296,1,135.000005149841,4|4,0:0|0:0,0:0:0:0:
168,152,34036,1,4,0:0:0:0:
64,136,34369,6,0,P|80:80|152:56,1,135.000005149841,4|4,0:0|0:0,0:0:0:0:
232,88,35203,2,0,L|376:80,2,135.000005149841,0|4|4,0:0|0:0|0:0,0:0:0:0:
168,152,36536,2,0,L|176:208,1,45.0000017166138,0|4,0:0|0:0,0:0:0:0:
256,232,37036,2,0,L|248:288,2,45.0000017166138
264,184,37536,1,4,0:0:0:0:
256,192,37703,12,4,40369,0:0:0:0:
256,128,41036,6,0,P|208:136|176:176,1,90.0000034332277,0|4,0:0|0:0,0:0:0:0:
312,288,42036,2,0,P|348:317|400:320,2,90.0000034332277,0|4|0,0:0|0:0|0:0,0:0:0:0:
248,224,43036,5,4,0:0:0:0:
168,264,43369,1,4,0:0:0:0:
80,240,43703,1,4,0:0:0:0:
0,280,44036,1,4,0:0:0:0:
80,328,44369,6,4,L|128:336,2,45.0000017166138
488,168,46036,6,0,P|480:224|328:208,1,240,4|0,0:0|0:0,0:0:0:0:
336,160,46869,2,0,L|341:39,2,120
333,220,47703,1,0,0:0:0:0:
224,272,48036,1,0,0:0:0:0:
104,256,48369,6,0,P|48:208|48:152,1,120
80,120,48869,2,0,L|208:112,2,120
176,198,49869,2,0,L|240:206,2,60
120,192,50369,1,0,0:0:0:0:
24,264,50703,1,0,0:0:0:0:
128,328,51036,6,0,P|200:336|232:296,1,120,4|0,0:0|0:0,0:0:0:0:
283,304,51536,2,0,P|312:336|384:328,1,120
384,208,52203,2,0,P|320:192|272:232,1,120,4|0,0:0|0:0,0:0:0:0:
233,220,52703,2,0,P|192:192|128:208,1,120
16,176,53369,2,0,L|24:112,1,60
32,56,53703,6,0,P|96:120|224:88,2,180,4|0|0,0:0|0:0|0:0,0:0:0:0:
144,8,55036,2,0,L|208:8,2,60,4|0|0,0:0|0:0|0:0,0:0:0:0:
328,80,55703,2,0,L|264:80,2,60
392,80,56203,1,0,0:0:0:0:
368,256,56703,6,0,P|288:248|216:328,1,180,4|0,0:0|0:0,0:0:0:0:
224,376,57369,1,0,0:0:0:0:
280,368,57536,2,0,L|448:376,2,120
224,376,58369,2,0,P|160:352|144:304,1,120
8,296,59036,6,0,P|0:224|88:160,2,180,0|0|0,0:0|0:0|0:0,0:0:0:0:
128,264,60369,2,0,L|192:264,2,60
216,184,61036,2,0,L|280:184,2,60
168,152,61536,1,0,0:0:0:0:
152,96,61703,6,0,P|184:40|248:32,1,120,4|0,0:0|0:0,0:0:0:0:
277,28,62203,2,4,P|328:40|360:96,2,120
256,144,63203,2,0,L|256:208,1,60,0|4,0:0|0:0,0:0:0:0:
136,184,63703,1,0,0:0:0:0:
40,248,64036,1,4,0:0:0:0:
152,288,64369,6,0,P|184:344|234:355,1,120,4|0,0:0|0:0,0:0:0:0:
277,355,64869,2,4,P|328:344|360:288,2,120
256,240,65869,2,0,L|256:176,1,60,0|4,0:0|0:0,0:0:0:0:
368,144,66369,2,0,L|368:208,2,60,0|0|4,0:0|0:0|0:0,0:0:0:0:
392,24,67036,6,0,P|336:64|288:56,1,120,4|0,0:0|0:0,0:0:0:0:
224,56,67536,2,4,P|176:64|120:24,2,120
256,168,68536,2,0,L|256:240,1,60,0|4,0:0|0:0,0:0:0:0:
192,328,69036,1,0,0:0:0:0:
320,328,69369,1,0,0:0:0:0:
440,328,69703,1,4,0:0:0:0:
256,192,69869,12,4,72203,0:0:0:0:
256,192,86036,5,4,0:0:0:0:
256,192,91036,5,4,0:0:0:0:
256,192,92369,5,4,0:0:0:0:
256,192,93703,5,4,0:0:0:0:
256,192,94369,1,4,0:0:0:0:
256,192,95036,1,4,0:0:0:0:
80,24,95703,2,0,P|176:32|224:96,1,180,4|0,0:0|0:0,0:0:0:0:
144,256,96703,6,0,P|224:248|296:328,1,180,4|0,0:0|0:0,0:0:0:0:
288,376,97369,1,0,0:0:0:0:
232,368,97536,2,0,L|64:376,2,120
288,376,98369,2,0,P|352:352|368:304,1,120
504,296,99036,6,0,P|512:224|424:160,2,180
384,264,100369,2,0,L|320:264,2,60
296,184,101036,2,0,L|232:184,2,60
344,152,101536,1,0,0:0:0:0:
360,96,101703,6,0,P|328:40|264:32,1,120,4|0,0:0|0:0,0:0:0:0:
234,28,102203,2,4,P|184:40|152:96,2,120
256,144,103203,2,0,L|256:208,1,60,0|4,0:0|0:0,0:0:0:0:
376,184,103703,1,0,0:0:0:0:
472,248,104036,1,4,0:0:0:0:
360,288,104369,6,0,P|328:344|277:355,1,120,4|0,0:0|0:0,0:0:0:0:
234,355,104869,2,4,P|184:344|152:288,2,120
256,240,105869,2,0,L|256:176,1,60,0|4,0:0|0:0,0:0:0:0:
144,144,106369,2,0,L|144:208,2,60,0|0|4,0:0|0:0|0:0,0:0:0:0:
120,24,107036,6,0,P|176:64|224:56,1,120,4|0,0:0|0:0,0:0:0:0:
288,56,107536,2,4,P|336:64|392:24,2,120
256,168,108536,2,0,L|256:240,1,60,0|4,0:0|0:0,0:0:0:0:
320,328,109036,1,0,0:0:0:0:
192,328,109369,1,4,0:0:0:0:
256,192,109703,12,0,112286,0:0:0:0:
