osu file format v12

[General]
AudioFilename: 2-03 High School Love.mp3
AudioLeadIn: 2000
PreviewTime: 46036
Countdown: 0
SampleSet: Normal
StackLeniency: 0.4
Mode: 0
LetterboxInBreaks: 1
WidescreenStoryboard: 0

[Editor]
DistanceSpacing: 1
BeatDivisor: 4
GridSize: 8

[Metadata]
Title:HIGH SCHOOL LOVE
TitleUnicode:HIGH SCHOOL LOVE
Artist:DJ YOSHITAKA feat. DWP
ArtistUnicode:DJ YOSHITAKA feat. DWP
Creator:fanzhen0019
Version:Hyper
Source:pop'n music 14 FEVER!
Tags:bemani iidx14 ERi wac beatmania IIDX 14 GOLD portable
BeatmapID:218988
BeatmapSetID:78211

[Difficulty]
HPDrainRate:6
CircleSize:4
OverallDifficulty:6
ApproachRate:8
SliderMultiplier:1.6
SliderTickRate:1

[Events]
//Background and Video events
0,0,"BGGB.jpg",0,0
//Break Periods
2,86236,90286
//Storyboard Layer 0 (Background)
//Storyboard Layer 1 (Fail)
//Storyboard Layer 2 (Pass)
//Storyboard Layer 3 (Foreground)
//Storyboard Sound Samples
//Background Colour Transformations
3,100,163,162,255

[TimingPoints]
370,333.333333333333,4,1,1,85,1,0
703,-100,4,1,1,70,0,0
46036,-100,4,1,1,70,0,1
55703,-100,4,1,1,70,0,0
56703,-100,4,1,1,70,0,1
69703,-100,4,1,1,70,0,0
96703,-100,4,1,1,70,0,1
111869,-100,4,1,1,5,0,1
112286,-100,4,1,1,5,0,0

[Colours]
Combo1 : 255,204,128
Combo2 : 100,240,150
Combo3 : 97,214,240
Combo4 : 117,117,255

[HitObjects]
456,224,370,5,4,0:0:0:0:
456,224,703,6,0,P|344:224|320:256,1,160
288,328,1203,2,0,L|200:336,1,80
128,344,1536,1,0,0:0:0:0:
32,144,1869,5,0,0:0:0:0:
24,224,2036,1,0,0:0:0:0:
176,168,2369,1,0,0:0:0:0:
192,88,2536,2,0,L|280:56,1,80
344,32,2869,1,0,0:0:0:0:
344,32,3036,6,0,P|296:80|304:176,1,160
360,224,3536,2,0,L|184:200,2,160
240,328,4536,2,0,L|128:312,1,80
80,304,4869,1,0,0:0:0:0:
80,304,5036,5,0,0:0:0:0:
192,192,5369,1,0,0:0:0:0:
72,80,5703,2,0,L|88:168,1,80,4|0,0:0|0:0,0:0:0:0:
48,232,6036,6,0,P|96:193|192:193,1,160
232,264,6536,2,0,P|280:304|392:296,1,160
488,128,7203,1,0,0:0:0:0:
480,208,7369,1,0,0:0:0:0:
336,136,7703,1,0,0:0:0:0:
344,56,7869,1,0,0:0:0:0:
264,80,8036,5,0,0:0:0:0:
184,56,8203,1,0,0:0:0:0:
104,88,8369,6,0,P|72:136|88:240,1,160
160,256,8869,1,0,0:0:0:0:
320,224,9203,2,0,L|408:208,1,80
440,144,9536,2,0,P|428:241|460:289,1,160
392,328,10036,2,0,L|304:344,1,80
240,376,10369,2,0,P|184:336|208:256,1,160
208,96,11036,5,4,0:0:0:0:
168,168,11203,1,0,0:0:0:0:
88,144,11369,1,0,0:0:0:0:
128,72,11536,5,4,0:0:0:0:
256,168,11869,1,4,0:0:0:0:
104,224,12203,1,4,0:0:0:0:
128,72,12536,5,0,0:0:0:0:
208,96,12703,1,0,0:0:0:0:
256,32,12869,1,0,0:0:0:0:
256,32,13203,5,0,0:0:0:0:
304,96,13369,1,0,0:0:0:0:
384,72,13536,1,0,0:0:0:0:
304,96,13703,5,4,0:0:0:0:
344,168,13869,1,0,0:0:0:0:
424,144,14036,1,0,0:0:0:0:
384,72,14203,5,4,0:0:0:0:
256,168,14536,1,4,0:0:0:0:
408,224,14869,1,4,0:0:0:0:
384,72,15203,5,0,0:0:0:0:
424,144,15369,1,0,0:0:0:0:
344,168,15536,1,0,0:0:0:0:
304,96,15703,1,0,0:0:0:0:
256,248,16036,1,0,0:0:0:0:
256,168,16203,1,0,0:0:0:0:
208,96,16369,5,4,0:0:0:0:
256,168,16536,1,0,0:0:0:0:
168,168,16703,1,0,0:0:0:0:
120,96,16869,5,4,0:0:0:0:
256,24,17203,1,4,0:0:0:0:
392,96,17536,1,4,0:0:0:0:
256,168,17869,1,0,0:0:0:0:
256,248,18036,2,0,L|256:344,1,80
184,352,18369,6,0,P|152:320|152:280,1,80
328,352,18703,2,0,P|360:320|362:287,1,80
256,248,19036,5,4,0:0:0:0:
184,208,19203,1,0,0:0:0:0:
184,128,19369,1,0,0:0:0:0:
328,128,19703,5,4,0:0:0:0:
328,208,19869,1,0,0:0:0:0:
256,248,20036,1,0,0:0:0:0:
184,128,20369,5,4,0:0:0:0:
256,88,20536,1,0,0:0:0:0:
328,128,20703,1,4,0:0:0:0:
328,208,20869,1,0,0:0:0:0:
256,248,21036,1,4,0:0:0:0:
184,208,21203,1,0,0:0:0:0:
112,168,21369,2,0,L|24:168,1,80
32,168,21703,5,4,0:0:0:0:
104,312,22036,1,0,0:0:0:0:
256,248,22369,1,0,0:0:0:0:
176,264,22536,2,0,P|152:208|160:176,1,80
216,144,22869,2,0,L|384:160,1,160
448,192,23369,2,0,P|472:136|464:104,1,80
416,56,23703,1,0,0:0:0:0:
256,72,24036,5,0,0:0:0:0:
175,75,24203,1,0,0:0:0:0:
216,144,24369,1,4,0:0:0:0:
312,272,24703,5,2,0:2:0:0:
392,280,24869,1,0,0:0:0:0:
240,320,25203,1,0,0:0:0:0:
160,312,25369,1,2,0:2:0:0:
80,304,25536,2,0,P|40:264|56:160,1,160
128,184,26036,2,0,L|112:96,1,80,2|0,0:2|0:0,0:0:0:0:
176,48,26369,1,0,0:0:0:0:
336,48,26703,1,2,0:2:0:0:
256,176,27036,6,0,P|296:216|400:224,1,160,4|0,0:0|0:0,0:0:0:0:
440,160,27536,2,0,P|408:216|456:296,1,160
512,344,28036,1,0,0:0:0:0:
512,344,28203,1,0,0:0:0:0:
432,328,28369,1,4,0:0:0:0:
352,312,28536,6,0,L|259:322,1,80
112,336,29036,1,0,0:0:0:0:
72,160,29369,1,0,0:0:0:0:
256,176,29703,6,0,P|216:216|112:224,1,160,4|0,0:0|0:0,0:0:0:0:
72,160,30203,2,0,P|104:216|56:296,1,160
0,344,30703,1,4,0:0:0:0:
0,344,30869,1,0,0:0:0:0:
136,328,31036,6,0,L|224:352,1,80,4|0,0:0|0:0,0:0:0:0:
298,349,31369,2,0,L|376:328,1,80,4|0,0:0|0:0,0:0:0:0:
448,288,31703,6,0,P|473:323|472:368,2,80,4|4|0,0:0|0:0|0:0,0:0:0:0:
376,256,32203,2,0,P|368:192|464:128,1,160,4|0,0:0|0:0,0:0:0:0:
512,120,32703,2,0,L|496:32,1,80,4|0,0:0|0:0,0:0:0:0:
416,24,33036,1,4,0:0:0:0:
416,24,33203,2,0,P|352:72|272:64,1,160,4|4,0:0|0:0,0:0:0:0:
152,168,33869,1,0,0:0:0:0:
208,224,34036,1,4,0:0:0:0:
64,288,34369,6,0,P|38:323|40:368,2,80,0|4|0,0:0|0:0|0:0,0:0:0:0:
136,256,34869,2,0,P|144:192|48:128,1,160,4|0,0:0|0:0,0:0:0:0:
0,120,35369,2,0,L|16:32,1,80,4|0,0:0|0:0,0:0:0:0:
96,24,35703,1,0,0:0:0:0:
96,24,35869,2,0,P|160:72|240:64,1,160,4|4,0:0|0:0,0:0:0:0:
360,168,36536,1,0,0:0:0:0:
304,224,36703,1,4,0:0:0:0:
384,240,36869,1,0,0:0:0:0:
328,296,37036,6,0,L|304:376,1,80
206,372,37369,2,0,L|184:296,1,80,0|4,0:0|0:0,0:0:0:0:
40,224,37869,5,0,0:0:0:0:
72,152,38036,1,0,0:0:0:0:
104,80,38203,1,0,0:0:0:0:
216,80,38536,1,0,0:0:0:0:
256,144,38703,1,0,0:0:0:0:
296,80,38869,1,0,0:0:0:0:
72,152,39203,1,0,0:0:0:0:
40,224,39369,1,0,0:0:0:0:
104,272,39536,1,0,0:0:0:0:
176,232,39703,6,0,P|216:272|216:304,1,80
294,292,40036,2,0,P|296:272|336:232,1,80
408,272,40369,5,4,0:0:0:0:
472,224,40536,1,0,0:0:0:0:
440,152,40703,1,0,0:0:0:0:
320,48,41036,5,0,0:0:0:0:
256,96,41203,1,0,0:0:0:0:
192,48,41369,1,4,0:0:0:0:
72,152,41703,5,0,0:0:0:0:
40,224,41869,1,4,0:0:0:0:
104,272,42036,1,0,0:0:0:0:
176,232,42203,1,0,0:0:0:0:
256,208,42369,2,0,L|256:120,2,80,4|0|4,0:0|0:0|0:0,0:0:0:0:
336,232,42869,1,0,0:0:0:0:
400,280,43036,6,0,L|472:232,1,80,4|0,0:0|0:0,0:0:0:0:
336,232,43369,2,0,L|384:152,1,80
256,208,43703,2,0,L|256:128,1,80,4|0,0:0|0:0,0:0:0:0:
176,232,44036,2,0,L|134:163,1,80
112,280,44369,5,4,0:0:0:0:
112,280,44536,1,0,0:0:0:0:
112,280,44703,1,0,0:0:0:0:
400,72,46036,6,0,P|384:136|448:200,1,160,4|0,0:0|0:0,0:0:0:0:
472,120,46536,1,0,0:0:0:0:
400,72,46703,1,0,0:0:0:0:
312,96,46869,2,0,L|150:75,2,160
264,168,47703,2,0,L|168:160,1,80
128,224,48036,2,0,L|48:232,1,80
0,296,48369,1,0,0:0:0:0:
48,231,48536,6,0,P|63:167|7:87,2,160
128,224,49369,2,0,P|168:208|192:176,1,80
176,104,49703,1,0,0:0:0:0:
256,240,50036,1,0,0:0:0:0:
320,184,50203,5,0,0:0:0:0:
392,224,50369,1,0,0:0:0:0:
376,304,50536,1,0,0:0:0:0:
296,312,50703,1,0,0:0:0:0:
256,240,50869,1,0,0:0:0:0:
176,240,51036,6,0,P|80:232|24:272,1,160,4|0,0:0|0:0,0:0:0:0:
48,344,51536,2,0,P|144:352|200:312,1,160
256,264,52036,1,0,0:0:0:0:
336,240,52203,6,0,P|432:232|488:272,1,160
464,344,52703,2,0,P|368:352|312:312,2,160
480,264,53536,1,0,0:0:0:0:
432,200,53703,6,0,P|328:192|296:152,1,160
216,152,54203,2,0,P|184:190|80:198,1,160
104,48,54703,2,0,L|136:128,1,80
378,122,55203,2,0,L|408:48,1,80
488,56,55536,5,0,0:0:0:0:
377,123,55703,1,0,0:0:0:0:
296,128,55869,1,0,0:0:0:0:
200,64,56036,1,0,0:0:0:0:
282,58,56203,1,0,0:0:0:0:
112,72,56703,6,0,P|128:136|64:200,1,160,4|0,0:0|0:0,0:0:0:0:
40,120,57203,1,0,0:0:0:0:
112,72,57369,1,0,0:0:0:0:
200,96,57536,2,0,L|362:75,2,160
248,168,58369,2,0,L|344:160,1,80
384,224,58703,2,0,L|464:232,1,80
512,296,59036,1,0,0:0:0:0:
464,231,59203,6,0,P|448:167|504:87,2,160
384,224,60036,2,0,P|344:208|320:176,1,80
336,104,60369,1,0,0:0:0:0:
256,240,60703,1,0,0:0:0:0:
192,184,60869,5,0,0:0:0:0:
120,224,61036,1,0,0:0:0:0:
136,304,61203,1,0,0:0:0:0:
216,312,61369,1,0,0:0:0:0:
256,240,61536,1,0,0:0:0:0:
328,200,61703,5,4,0:0:0:0:
400,160,61869,2,0,L|384:64,1,80
328,32,62203,2,4,P|424:64|480:56,2,160
256,176,63203,1,0,0:0:0:0:
328,200,63369,2,0,P|384:224|464:312,2,160
184,200,64369,5,4,0:0:0:0:
112,160,64536,2,0,L|128:64,1,80
184,32,64869,2,4,P|88:64|32:56,2,160
256,176,65869,1,0,0:0:0:0:
192,224,66036,6,0,L|216:312,1,80
296,304,66369,2,0,L|318:227,1,80
256,176,66703,1,0,0:0:0:0:
136,72,67036,6,0,L|104:152,1,80,4|0,0:0|0:0,0:0:0:0:
24,160,67369,1,0,0:0:0:0:
24,160,67536,2,4,P|80:160|160:224,2,160
120,288,68536,1,0,0:0:0:0:
200,304,68703,2,0,L|304:328,1,80
352,304,69036,2,0,P|400:264|384:176,1,160
224,192,69703,5,4,0:0:0:0:
256,192,69786,12,4,72203,0:0:0:0:
256,192,72369,6,0,L|280:232,2,40
200,128,72703,1,0,0:0:0:0:
184,136,72786,1,0,0:0:0:0:
168,144,72869,1,0,0:0:0:0:
152,152,72953,1,0,0:0:0:0:
136,144,73036,2,0,L|40:144,1,80,0|4,0:0|0:0,0:0:0:0:
0,96,73369,1,0,0:0:0:0:
40,224,73536,6,0,P|128:224|192:280,1,160,4|0,0:0|0:0,0:0:0:0:
192,352,74036,1,0,0:0:0:0:
176,344,74119,1,0,0:0:0:0:
160,336,74203,1,0,0:0:0:0:
256,272,74369,1,0,0:0:0:0:
352,320,74536,1,0,0:0:0:0:
440,256,74703,1,4,0:0:0:0:
344,216,74869,2,0,P|320:168|360:72,1,160,4|0,0:0|0:0,0:0:0:0:
424,112,75369,6,0,L|480:104,1,40
416,184,75619,1,0,0:0:0:0:
356,74,75786,2,0,L|360:32,1,40
344,216,76036,1,0,0:0:0:0:
280,168,76203,2,0,P|200:152|128:200,1,160,4|0,0:0|0:0,0:0:0:0:
128,208,76619,5,0,0:0:0:0:
128,224,76703,2,0,L|136:288,3,40
96,296,77036,5,0,0:0:0:0:
208,264,77203,1,4,0:0:0:0:
176,360,77369,1,0,0:0:0:0:
96,296,77536,2,0,P|24:224|32:168,1,160,4|0,0:0|0:0,0:0:0:0:
72,104,78036,1,4,0:0:0:0:
152,128,78203,5,0,0:0:0:0:
160,120,78286,1,0,0:0:0:0:
168,112,78369,1,0,0:0:0:0:
232,152,78536,5,0,0:0:0:0:
240,144,78619,1,0,0:0:0:0:
248,136,78703,1,4,0:0:0:0:
304,72,78869,1,0,0:0:0:0:
384,88,79036,6,0,L|424:96,1,40
448,120,79203,2,0,L|488:128,1,40
512,152,79369,1,4,0:0:0:0:
352,176,79536,5,0,0:0:0:0:
344,192,79619,1,0,0:0:0:0:
336,208,79703,2,0,L|344:256,3,40,0|0|4|0,0:0|0:0|0:0|0:0,0:0:0:0:
336,264,80036,2,0,L|328:312,3,40,0|0|4|0,0:0|0:0|0:0|0:0,0:0:0:0:
336,320,80369,6,0,P|256:320|184:360,1,160,4|0,0:0|0:0,0:0:0:0:
187,357,80869,2,0,P|176:256|216:208,1,160,4|0,0:0|0:0,0:0:0:0:
280,176,81369,2,0,L|328:168,3,40,4|0|0|0,0:0|0:0|0:0|0:0,0:0:0:0:
336,168,81703,1,0,0:0:0:0:
432,152,81869,6,0,P|464:192|456:272,1,120,4|0,0:0|0:0,0:0:0:0:
376,344,82369,2,0,P|344:304|352:224,2,120,4|0|4,0:0|0:0|0:0,0:0:0:0:
280,320,83036,5,4,0:0:0:0:
264,312,83119,1,0,0:0:0:0:
248,304,83203,1,0,0:0:0:0:
232,296,83286,1,0,0:0:0:0:
216,304,83369,2,0,L|176:288,3,40,4|0|0|0,0:0|0:0|0:0|0:0,0:0:0:0:
160,296,83703,5,4,0:0:0:0:
144,288,83786,1,0,0:0:0:0:
128,280,83869,1,0,0:0:0:0:
112,272,83953,1,0,0:0:0:0:
96,280,84036,2,0,L|56:264,3,40,4|0|0|0,0:0|0:0|0:0|0:0,0:0:0:0:
0,240,84369,5,2,0:2:0:0:
0,240,84536,1,2,0:2:0:0:
0,240,84703,1,2,0:2:0:0:
256,328,86036,5,4,0:0:0:0:
256,192,91036,5,4,0:0:0:0:
256,192,92369,5,4,0:0:0:0:
256,192,93703,5,4,0:0:0:0:
256,192,94369,1,4,0:0:0:0:
256,192,95036,1,4,0:0:0:0:
184,232,95203,1,0,0:0:0:0:
256,272,95369,1,0,0:0:0:0:
328,232,95536,1,0,0:0:0:0:
328,152,95703,6,0,L|328:112,3,40
256,112,96036,2,0,L|256:72,3,40
48,112,96703,6,0,P|136:104|192:176,1,160,4|0,0:0|0:0,0:0:0:0:
96,200,97203,2,0,L|17:215,1,80
40,136,97536,2,0,P|128:128|184:200,2,160
96,200,98369,2,0,L|96:288,1,80
128,352,98703,2,0,P|168:368|208:360,1,80
264,312,99036,5,0,0:0:0:0:
320,256,99203,2,0,P|392:240|472:288,2,160
288,184,100036,2,0,L|304:96,1,80
256,40,100369,1,0,0:0:0:0:
408,80,100703,1,0,0:0:0:0:
485,38,100869,5,0,0:0:0:0:
408,80,101036,1,0,0:0:0:0:
367,158,101203,1,0,0:0:0:0:
371,245,101369,1,0,0:0:0:0:
414,321,101536,1,0,0:0:0:0:
496,352,101703,6,0,L|322:339,1,160,4|0,0:0|0:0,0:0:0:0:
256,368,102203,2,4,P|200:368|176:272,2,160
344,216,103203,1,0,0:0:0:0:
256,192,103369,2,0,L|168:168,1,80
96,152,103703,2,0,L|120:248,1,80
96,320,104036,1,0,0:0:0:0:
32,264,104203,1,0,0:0:0:0:
16,352,104369,6,0,L|190:339,1,160,4|0,0:0|0:0,0:0:0:0:
256,368,104869,2,4,P|312:368|336:272,2,160
168,216,105869,1,0,0:0:0:0:
256,192,106036,2,0,L|344:168,1,80
400,232,106369,2,0,L|488:256,1,80
416,320,106703,1,0,0:0:0:0:
256,376,107036,5,4,0:0:0:0:
168,216,107369,1,0,0:0:0:0:
128,136,107536,1,4,0:0:0:0:
256,40,107869,2,4,B|224:104|296:128|256:192,1,160
384,136,108536,1,0,0:0:0:0:
344,216,108703,1,0,0:0:0:0:
256,192,108869,1,0,0:0:0:0:
168,216,109036,6,0,P|112:240|48:176,1,160
72,104,109536,1,0,0:0:0:0:
152,136,109703,6,0,L|168:216,1,80,4|0,0:0|0:0,0:0:0:0:
256,192,110036,1,0,0:0:0:0:
224,32,110369,6,0,L|240:112,1,80,4|0,0:0|0:0,0:0:0:0:
328,88,110703,1,0,0:0:0:0:
472,160,111036,6,0,L|456:248,1,80,4|0,0:0|0:0,0:0:0:0:
392,200,111369,2,0,L|376:288,1,80,4|0,0:0|0:0,0:0:0:0:
312,240,111703,6,0,L|304:280,3,40
296,320,112036,2,0,L|288:360,3,40
