osu file format v12

[General]
AudioFilename: 2-03 High School Love.mp3
AudioLeadIn: 2000
PreviewTime: 46036
Countdown: 0
SampleSet: Normal
StackLeniency: 0.4
Mode: 0
LetterboxInBreaks: 1
WidescreenStoryboard: 1

[Editor]
DistanceSpacing: 1
BeatDivisor: 4
GridSize: 8

[Metadata]
Title:HIGH SCHOOL LOVE
TitleUnicode:HIGH SCHOOL LOVE
Artist:DJ YOSHITAKA feat. DWP
ArtistUnicode:DJ YOSHITAKA feat. DWP
Creator:fanzhen0019
Version:Beginner
Source:pop'n music 14 FEVER!
Tags:bemani iidx14 ERi wac beatmania IIDX 14 GOLD portable
BeatmapID:289705
BeatmapSetID:78211

[Difficulty]
HPDrainRate:2
CircleSize:3
OverallDifficulty:2
ApproachRate:5
SliderMultiplier:0.8
SliderTickRate:2

[Events]
//Background and Video events
0,0,"BGGB.jpg",0,0
//Break Periods
2,72403,84836
2,86236,89836
//Storyboard Layer 0 (Background)
//Storyboard Layer 1 (Fail)
//Storyboard Layer 2 (Pass)
//Storyboard Layer 3 (Foreground)
//Storyboard Sound Samples
//Background Colour Transformations
3,100,163,162,255

[TimingPoints]
370,333.333333333333,4,1,1,85,1,0
703,-100,4,1,1,70,0,0
21703,-133.333333333333,4,1,1,70,0,0
46036,-100,4,1,1,70,0,1
56203,-100,4,1,1,70,0,0
56703,-100,4,1,1,70,0,1
69703,-100,4,1,1,70,0,0
84869,-100,4,1,1,70,0,0
96703,-100,4,1,1,70,0,1
112286,-100,4,1,1,5,0,0

[Colours]
Combo1 : 255,204,128
Combo2 : 100,240,150
Combo3 : 97,214,240
Combo4 : 117,117,255

[HitObjects]
72,168,370,1,4,0:0:0:0:
72,256,703,2,0,P|256:328|440:256,1,400
384,104,3036,1,0,0:0:0:0:
256,192,3703,1,0,0:0:0:0:
128,104,4369,1,0,0:0:0:0:
256,16,5036,2,0,L|256:112,2,80,0|0|4,0:0|0:0|0:0,0:0:0:0:
256,192,6369,5,0,0:0:0:0:
160,320,7036,2,0,P|256:213|352:320,1,320
464,200,9036,1,0,0:0:0:0:
336,104,9703,1,0,0:0:0:0:
176,104,10369,1,0,0:0:0:0:
48,200,11036,5,4,0:0:0:0:
160,248,11536,2,4,P|128:288|88:312,2,80
256,72,13036,1,0,0:0:0:0:
392,152,13703,5,4,0:0:0:0:
352,248,14203,2,4,P|384:288|424:312,2,80
256,72,15703,2,0,L|256:160,1,80
256,232,16369,5,4,0:0:0:0:
216,344,16869,2,4,P|256:336|296:344,2,80
56,224,18369,1,0,0:0:0:0:
96,72,19036,6,0,P|168:56|240:104,1,160,4|4,0:0|0:0,0:0:0:0:
197,252,20369,2,0,P|125:268|53:220,1,160,4|4,0:0|0:0,0:0:0:0:
96,72,21703,5,4,0:0:0:0:
200,128,22369,2,0,P|272:136|344:56,1,180.000006866455
384,104,23703,2,0,L|392:232,1,120.000004577637,0|4,0:0|0:0,0:0:0:0:
304,304,25036,5,0,0:0:0:0:
200,240,25703,1,0,0:0:0:0:
120,328,26369,1,0,0:0:0:0:
64,296,26703,1,0,0:0:0:0:
8,264,27036,6,0,P|8:208|112:136,1,180.000006866455
152,160,28369,2,0,L|224:168,2,60.0000022888184,4|0|0,0:0|0:0|0:0,0:0:0:0:
248,88,29703,6,0,P|248:144|352:216,1,180.000006866455,4|4,0:0|0:0,0:0:0:0:
392,192,31036,2,0,L|464:184,1,60.0000022888184,4|4,0:0|0:0,0:0:0:0:
512,176,31703,1,4,0:0:0:0:
496,264,32203,6,4,P|448:312|288:280,1,240.000009155274
144,248,34369,1,4,0:0:0:0:
88,176,34869,6,4,P|136:128|296:160,1,240.000009155274
424,232,37036,1,0,0:0:0:0:
472,152,37536,5,4,0:0:0:0:
256,192,37703,12,4,40369,0:0:0:0:
312,288,41703,6,4,P|256:296|192:288,1,120.000004577637
136,184,43036,2,0,P|256:152|368:184,1,240.000009155274,4|4,0:0|0:0,0:0:0:0:
472,72,46036,6,0,P|440:144|280:96,1,280,4|0,0:0|0:0,0:0:0:0:
136,112,47703,2,0,L|48:120,2,80
248,224,49036,2,0,L|336:232,2,80
104,288,50369,6,0,P|168:280|232:344,1,160,0|4,0:0|0:0,0:0:0:0:
392,312,51703,2,0,P|464:264|464:224,1,120
466,146,52536,2,0,P|464:120|392:72,1,120
312,72,53369,1,0,0:0:0:0:
232,48,53703,6,0,P|152:48|88:112,2,160
192,200,55703,2,0,L|200:288,1,80
360,296,56703,6,0,P|424:256|384:80,1,280,4|0,0:0|0:0,0:0:0:0:
256,72,58369,2,0,L|168:88,2,80
128,168,59703,2,0,L|216:184,2,80
264,248,61036,6,0,P|216:304|128:296,1,160,0|4,0:0|0:0,0:0:0:0:
64,200,62203,2,4,L|80:112,2,80
256,264,63703,1,0,0:0:0:0:
336,128,64369,5,4,0:0:0:0:
448,184,64869,2,4,L|432:272,2,80
256,264,66369,1,0,0:0:0:0:
256,104,67036,5,4,0:0:0:0:
216,216,67536,2,4,P|256:224|296:216,2,80
256,24,69036,1,0,0:0:0:0:
256,192,69703,12,4,72203,0:0:0:0:
256,192,86036,5,4,0:0:0:0:
256,192,91036,5,4,0:0:0:0:
256,192,92369,5,4,0:0:0:0:
256,192,93703,5,4,0:0:0:0:
256,192,94369,1,4,0:0:0:0:
256,192,95036,1,4,0:0:0:0:
408,248,95703,2,0,P|376:296|352:304,1,80
152,296,96703,6,0,P|88:256|128:80,1,280,4|0,0:0|0:0,0:0:0:0:
256,72,98369,2,0,L|344:88,2,80
384,168,99703,2,0,L|296:184,2,80
248,248,101036,6,0,P|296:304|384:296,1,160,0|4,0:0|0:0,0:0:0:0:
448,200,102203,2,4,L|432:112,2,80
256,264,103703,1,0,0:0:0:0:
176,128,104369,5,4,0:0:0:0:
64,184,104869,2,4,L|80:272,2,80
256,264,106369,1,0,0:0:0:0:
256,104,107036,5,4,0:0:0:0:
296,216,107536,2,4,P|256:224|216:216,2,80
256,24,109036,1,0,0:0:0:0:
256,192,109703,12,0,112286,0:0:0:0:
