osu file format v12

[General]
AudioFilename: 2-03 High School Love.mp3
AudioLeadIn: 2000
PreviewTime: 46036
Countdown: 0
SampleSet: Normal
StackLeniency: 0.4
Mode: 0
LetterboxInBreaks: 1
WidescreenStoryboard: 0

[Editor]
DistanceSpacing: 1
BeatDivisor: 4
GridSize: 8

[Metadata]
Title:HIGH SCHOOL LOVE
TitleUnicode:HIGH SCHOOL LOVE
Artist:DJ YOSHITAKA feat. DWP
ArtistUnicode:DJ YOSHITAKA feat. DWP
Creator:fanzhen0019
Version:Another
Source:pop'n music 14 FEVER!
Tags:bemani iidx14 ERi wac beatmania IIDX 14 GOLD portable
BeatmapID:219307
BeatmapSetID:78211

[Difficulty]
HPDrainRate:7
CircleSize:4
OverallDifficulty:8
ApproachRate:9
SliderMultiplier:2.08
SliderTickRate:1

[Events]
//Background and Video events
0,0,"BGGB.jpg",0,0
//Break Periods
2,86236,90436
//Storyboard Layer 0 (Background)
//Storyboard Layer 1 (Fail)
//Storyboard Layer 2 (Pass)
//Storyboard Layer 3 (Foreground)
//Storyboard Sound Samples
//Background Colour Transformations
3,100,163,162,255

[TimingPoints]
370,333.333333333333,4,1,1,85,1,0
703,-100,4,1,1,70,0,0
21703,-133.333333333333,4,1,1,70,0,0
44869,-133.333333333333,4,1,1,40,0,0
45703,-100,4,1,1,70,0,0
46036,-100,4,1,1,70,0,1
55703,-100,4,1,1,70,0,0
56703,-100,4,1,1,70,0,1
69703,-100,4,1,1,70,0,0
84869,-100,4,1,1,70,0,0
96703,-100,4,1,1,70,0,1
112286,-100,4,1,1,5,0,0

[Colours]
Combo1 : 255,204,128
Combo2 : 100,240,150
Combo3 : 97,214,240
Combo4 : 117,117,255

[HitObjects]
408,176,370,2,0,L|416:288,1,104,4|0,0:0|0:0,0:0:0:0:
336,312,703,2,0,P|280:264|328:152,1,208
416,184,1203,2,0,L|424:296,1,104,0|0,0:0|0:0,0:0:0:0:
344,320,1536,2,0,B|242:312|224:344|136:336,1,208
56,312,2036,1,0,0:0:0:0:
80,232,2203,1,0,0:0:0:0:
40,96,2369,2,0,P|0:144|40:184,1,104
184,136,2703,2,0,P|184:72|144:48,1,104
160,208,3036,6,0,P|232:232|344:176,1,208
400,112,3536,2,0,L|503:98,1,104
312,96,3869,1,0,0:0:0:0:
400,112,4036,1,0,0:0:0:0:
464,24,4203,2,0,P|416:96|464:224,1,208
352,280,4703,1,0,0:0:0:0:
256,204,4869,1,0,0:0:0:0:
312,96,5036,2,0,P|232:176|128:168,1,208
48,128,5536,1,0,0:0:0:0:
80,96,5703,6,0,L|72:208,1,104,4|0,0:0|0:0,0:0:0:0:
160,224,6036,2,0,P|216:176|168:64,1,208
72,104,6536,2,0,L|64:216,1,104,0|0,0:0|0:0,0:0:0:0:
152,232,6869,2,0,B|253:224|272:256|360:248,1,208
448,224,7369,1,0,0:0:0:0:
312,176,7536,1,0,0:0:0:0:
400,152,7703,2,0,P|360:248|456:312,1,208
448,224,8203,1,0,0:0:0:0:
312,176,8369,6,0,P|248:200|152:112,1,208
184,40,8869,2,0,P|248:16|344:104,1,208
250,105,9369,1,0,0:0:0:0:
88,32,9536,6,0,B|-8:128|96:224|96:224,1,208
101,301,10036,2,0,L|0:280,1,104
200,288,10369,5,0,0:0:0:0:
224,296,10453,1,0,0:0:0:0:
248,304,10536,1,0,0:0:0:0:
272,312,10619,1,0,0:0:0:0:
304,336,10703,5,0,0:0:0:0:
328,344,10786,1,0,0:0:0:0:
352,352,10869,1,0,0:0:0:0:
376,360,10953,1,0,0:0:0:0:
408,376,11036,5,4,0:0:0:0:
488,312,11203,1,0,0:0:0:0:
320,208,11369,1,0,0:0:0:0:
392,152,11536,5,4,0:0:0:0:
488,312,11869,1,4,0:0:0:0:
256,280,12203,1,4,0:0:0:0:
392,152,12536,5,0,0:0:0:0:
320,208,12703,1,0,0:0:0:0:
256,280,12869,1,0,0:0:0:0:
256,280,13203,5,0,0:0:0:0:
192,208,13369,1,0,0:0:0:0:
120,152,13536,1,0,0:0:0:0:
104,376,13703,5,4,0:0:0:0:
24,312,13869,1,0,0:0:0:0:
192,208,14036,1,0,0:0:0:0:
120,152,14203,5,4,0:0:0:0:
24,312,14536,1,4,0:0:0:0:
256,280,14869,1,4,0:0:0:0:
120,152,15203,5,0,0:0:0:0:
192,208,15369,1,0,0:0:0:0:
256,280,15536,1,0,0:0:0:0:
320,208,15703,5,0,0:0:0:0:
392,152,15869,1,0,0:0:0:0:
256,104,16036,1,0,0:0:0:0:
336,48,16203,1,0,0:0:0:0:
416,64,16369,5,4,0:0:0:0:
256,104,16536,1,0,0:0:0:0:
96,64,16703,1,0,0:0:0:0:
256,24,16869,5,4,0:0:0:0:
392,152,17203,1,4,0:0:0:0:
120,152,17536,1,4,0:0:0:0:
104,352,17869,5,0,0:0:0:0:
168,304,18036,1,0,0:0:0:0:
160,224,18203,1,0,0:0:0:0:
352,224,18536,5,0,0:0:0:0:
344,304,18703,1,0,0:0:0:0:
408,352,18869,1,0,0:0:0:0:
416,272,19036,5,4,0:0:0:0:
416,272,19369,1,0,0:0:0:0:
256,160,19703,5,4,0:0:0:0:
256,160,20036,1,0,0:0:0:0:
96,272,20369,5,4,0:0:0:0:
96,272,20536,1,0,0:0:0:0:
52,197,20703,1,4,0:0:0:0:
52,197,20869,1,0,0:0:0:0:
88,120,21036,5,4,0:0:0:0:
88,120,21119,1,0,0:0:0:0:
88,120,21203,1,0,0:0:0:0:
88,120,21286,1,0,0:0:0:0:
88,120,21369,1,4,0:0:0:0:
88,120,21453,1,0,0:0:0:0:
88,120,21536,1,0,0:0:0:0:
88,120,21619,1,0,0:0:0:0:
88,120,21703,6,0,P|152:144|240:128,1,156.000005950928,4|0,0:0|0:0,0:0:0:0:
296,72,22203,1,0,0:0:0:0:
448,104,22369,2,0,L|336:120,1,78.000002975464
304,160,22703,1,0,0:0:0:0:
344,248,22869,2,0,B|440:232|440:232|472:216|472:168,1,156.000005950928
448,112,23369,2,0,L|336:128,1,78.000002975464
256,224,23703,2,0,P|200:224|128:160,1,156.000005950928
128,80,24203,1,0,0:0:0:0:
16,128,24369,5,0,0:0:0:0:
200,48,24703,1,2,0:2:0:0:
216,136,24869,1,0,0:0:0:0:
0,224,25203,1,0,0:0:0:0:
16,128,25369,1,2,0:2:0:0:
0,224,25536,1,0,0:0:0:0:
136,304,25869,1,0,0:0:0:0:
128,216,26036,1,2,0:2:0:0:
136,304,26203,1,0,0:0:0:0:
128,216,26369,1,0,0:0:0:0:
200,256,26536,5,0,0:0:0:0:
280,272,26703,2,0,L|368:264,1,78.000002975464,6|0,0:2|0:0,0:0:0:0:
424,232,27036,6,0,P|480:176|464:88,1,156.000005950928,4|0,0:0|0:0,0:0:0:0:
352,88,27536,1,0,0:0:0:0:
328,168,27703,1,0,0:0:0:0:
408,152,27869,1,0,0:0:0:0:
352,88,28036,1,0,0:0:0:0:
272,104,28203,2,0,P|192:120|120:88,1,156.000005950928,4|0,0:0|0:0,0:0:0:0:
80,32,28703,6,0,P|56:56|48:104,1,78.000002975464
168,208,29036,2,0,P|192:184|200:136,1,78.000002975464
88,152,29369,1,4,0:0:0:0:
88,152,29703,6,0,P|32:208|48:296,1,156.000005950928,4|0,0:0|0:0,0:0:0:0:
160,296,30203,1,0,0:0:0:0:
192,216,30369,1,4,0:0:0:0:
112,232,30536,1,0,0:0:0:0:
160,296,30703,1,0,0:0:0:0:
240,280,30869,1,0,0:0:0:0:
320,264,31036,6,0,L|312:344,1,78.000002975464,4|0,0:0|0:0,0:0:0:0:
384,200,31369,2,0,L|400:288,1,78.000002975464,4|0,0:0|0:0,0:0:0:0:
448,136,31703,1,4,0:0:0:0:
440,120,31786,1,0,0:0:0:0:
432,104,31869,1,4,0:0:0:0:
424,88,31953,1,0,0:0:0:0:
416,72,32036,5,0,0:0:0:0:
336,160,32203,2,0,P|280:184|208:112,1,156.000005950928,4|0,0:0|0:0,0:0:0:0:
48,56,32703,2,0,P|96:40|136:48,1,78.000002975464,4|0,0:0|0:0,0:0:0:0:
216,136,33036,2,0,P|168:152|128:144,1,78.000002975464,4|4,0:0|0:0,0:0:0:0:
64,136,33369,1,0,0:0:0:0:
64,136,33536,2,0,L|88:328,1,156.000005950928,4|0,0:0|0:0,0:0:0:0:
72,368,34036,2,0,P|128:352|144:328,1,78.000002975464,4|0,0:0|0:0,0:0:0:0:
152,264,34369,5,4,0:0:0:0:
0,200,34536,1,2,0:2:0:0:
96,72,34703,1,4,0:0:0:0:
176,160,34869,6,0,P|232:184|304:112,1,156.000005950928,4|0,0:0|0:0,0:0:0:0:
464,56,35369,2,0,P|416:40|376:48,1,78.000002975464,4|0,0:0|0:0,0:0:0:0:
296,136,35703,2,0,P|344:152|384:144,1,78.000002975464,4|4,0:0|0:0,0:0:0:0:
448,136,36036,1,0,0:0:0:0:
448,136,36203,2,0,L|424:328,1,156.000005950928,4|0,0:0|0:0,0:0:0:0:
440,368,36703,2,0,P|384:352|368:328,1,78.000002975464,4|0,0:0|0:0,0:0:0:0:
360,264,37036,5,4,0:0:0:0:
256,304,37203,1,0,0:0:0:0:
152,264,37369,1,0,0:0:0:0:
152,128,37536,6,0,P|120:208|152:264,1,156.000005950928,4|0,0:2|0:0,0:0:0:0:
256,304,38036,1,0,0:0:0:0:
360,264,38203,2,0,P|392:208|360:128,1,156.000005950928,0|0,0:0|0:0,0:0:0:0:
256,88,38703,1,0,0:0:0:0:
152,128,38869,1,0,0:0:0:0:
152,264,39036,6,0,P|112:288|64:288,1,78.000002975464
81,102,39369,2,0,P|111:105|151:129,1,78.000002975464
360,264,39703,6,0,P|400:288|448:288,1,78.000002975464
431,102,40036,2,0,P|400:105|360:129,1,78.000002975464
256,192,40369,5,4,0:0:0:0:
327,93,40536,1,0,0:0:0:0:
400,152,40703,1,0,0:0:0:0:
256,192,40869,5,4,0:0:0:0:
184,93,41036,1,0,0:0:0:0:
256,48,41203,1,0,0:0:0:0:
256,192,41369,5,4,0:0:0:0:
140,229,41536,1,0,0:0:0:0:
113,145,41703,1,0,0:0:0:0:
256,192,41869,5,4,0:0:0:0:
255,313,42036,1,0,0:0:0:0:
168,312,42203,1,0,0:0:0:0:
256,192,42369,5,4,0:0:0:0:
371,229,42536,1,0,0:0:0:0:
344,320,42703,1,4,0:0:0:0:
256,192,42869,1,0,0:0:0:0:
184,93,43036,5,4,0:0:0:0:
327,93,43203,1,0,0:0:0:0:
371,229,43369,1,4,0:0:0:0:
255,313,43536,1,0,0:0:0:0:
140,229,43703,1,4,0:0:0:0:
200,152,43869,5,0,0:0:0:0:
312,152,44036,1,4,0:0:0:0:
256,248,44203,1,0,0:0:0:0:
256,192,44369,5,4,0:0:0:0:
256,192,44536,1,4,0:0:0:0:
256,192,44703,1,4,0:0:0:0:
371,229,44869,5,0,2:0:0:0:
424,176,45036,1,0,2:0:0:0:
480,288,45203,1,0,2:0:0:0:
408,296,45369,1,0,2:0:0:0:
495,213,45536,1,0,2:0:0:0:
504,224,46036,6,0,P|376:256|352:344,1,208,4|0,0:0|0:0,0:0:0:0:
400,384,46536,2,0,P|456:384|496:360,1,104
400,232,46869,2,0,P|360:208|304:208,1,104
200,240,47203,1,0,0:0:0:0:
112,288,47369,1,0,0:0:0:0:
208,336,47536,1,0,0:0:0:0:
112,288,47703,2,0,L|8:304,1,104
192,144,48036,2,0,L|88:128,1,104
64,136,48286,1,0,0:0:0:0:
40,152,48369,6,0,P|14:99|24:48,2,104
200,160,48869,2,0,L|424:128,1,208
496,176,49369,2,0,P|496:224|448:272,1,104
360,280,49619,1,0,0:0:0:0:
360,280,49703,5,0,0:0:0:0:
240,88,49869,1,0,0:0:0:0:
344,72,50036,1,0,0:0:0:0:
448,56,50203,1,0,0:0:0:0:
360,280,50369,5,0,0:0:0:0:
264,296,50536,1,0,0:0:0:0:
176,144,50703,1,0,0:0:0:0:
80,128,50869,1,0,0:0:0:0:
0,200,51036,6,0,L|8:328,2,104,4|0|0,0:2|0:0|0:0,0:0:0:0:
176,144,51536,2,0,P|160:192|112:224,1,104
0,112,51869,1,0,0:0:0:0:
104,8,52036,1,0,0:0:0:0:
192,64,52203,6,0,P|288:88|384:40,1,208
382,41,52619,1,0,0:0:0:0:
382,41,52703,1,0,0:0:0:0:
464,136,52869,1,0,0:0:0:0:
320,224,53036,2,0,L|328:120,1,104
456,240,53369,2,0,P|440:288|392:312,1,104
272,336,53703,6,0,B|152:320|192:368|56:344,1,208
0,280,54203,2,0,P|-8:224|8:176,1,104
96,128,54536,1,0,0:0:0:0:
176,192,54703,2,0,P|128:232|80:232,1,104
8,88,55036,1,0,0:0:0:0:
72,8,55203,5,0,0:0:0:0:
72,8,55369,1,0,0:0:0:0:
72,8,55536,1,0,0:0:0:0:
72,8,55703,5,0,0:0:0:0:
91,25,55786,1,0,0:0:0:0:
115,34,55869,1,0,0:0:0:0:
140,38,55953,1,0,0:0:0:0:
165,38,56036,1,0,0:0:0:0:
190,33,56119,1,0,0:0:0:0:
214,24,56203,1,0,0:0:0:0:
236,10,56286,1,0,0:0:0:0:
236,10,56703,6,0,L|216:128,1,104,4|0,0:0|0:0,0:0:0:0:
112,160,57036,1,0,0:0:0:0:
312,200,57203,2,0,P|328:136|320:96,1,104
216,16,57536,2,0,L|180:230,1,208
104,288,58036,1,0,0:0:0:0:
200,320,58203,1,0,0:0:0:0:
304,296,58369,6,0,P|325:242|312:200,1,104
224,112,58703,2,0,P|203:58|216:16,1,104
312,56,59036,5,0,0:0:0:0:
512,72,59203,2,0,L|408:80,1,104
224,112,59536,2,0,P|144:144|88:48,1,208
86,55,60036,1,0,0:0:0:0:
40,208,60203,2,0,L|48:264,2,52
24,120,60536,1,0,0:0:0:0:
128,264,60703,5,0,0:0:0:0:
208,240,60869,1,0,0:0:0:0:
288,272,61036,1,0,0:0:0:0:
368,248,61203,1,0,0:0:0:0:
368,248,61286,1,0,0:0:0:0:
368,248,61369,5,0,0:0:0:0:
392,264,61453,1,0,0:0:0:0:
424,272,61536,1,0,0:0:0:0:
456,264,61619,1,0,0:0:0:0:
480,248,61703,5,4,0:0:0:0:
424,160,61869,1,0,0:0:0:0:
368,248,62036,1,0,0:0:0:0:
272,296,62203,2,0,P|216:304|184:272,1,104,4|0,0:0|0:0,0:0:0:0:
184,110,62536,2,0,P|216:80|272:88,1,104,4|0,0:0|0:0,0:0:0:0:
240,192,62869,2,0,B|112:232|160:152|16:192,1,208,4|0,0:0|0:0,0:0:0:0:
80,272,63369,6,0,L|96:376,1,104
0,256,63703,1,0,0:0:0:0:
104,120,63869,1,0,0:0:0:0:
8,8,64036,2,0,L|24:112,1,104
0,256,64369,5,4,0:0:0:0:
104,344,64536,1,0,0:0:0:0:
136,216,64703,1,0,0:0:0:0:
240,296,64869,2,0,P|296:304|328:272,1,104,4|0,0:0|0:0,0:0:0:0:
327,110,65203,2,0,P|296:80|240:88,1,104,4|0,0:0|0:0,0:0:0:0:
272,192,65536,2,0,B|400:232|352:152|496:192,1,208,4|0,0:0|0:0,0:0:0:0:
432,272,66036,6,0,L|416:376,1,104
512,256,66369,1,0,0:0:0:0:
408,120,66536,1,0,0:0:0:0:
504,8,66703,2,0,L|488:112,1,104
360,232,67036,6,0,P|320:264|256:264,1,104,4|0,0:0|0:0,0:0:0:0:
152,232,67369,1,0,0:0:0:0:
256,80,67536,5,4,0:0:0:0:
416,304,67869,1,4,0:0:0:0:
256,336,68036,1,0,0:0:0:0:
96,304,68203,1,4,0:0:0:0:
152,104,68536,5,0,0:0:0:0:
256,80,68703,1,0,0:0:0:0:
360,104,68869,1,0,0:0:0:0:
424,184,69036,2,0,L|320:208,1,104
189,207,69369,2,0,L|88:184,1,104
0,248,69703,5,4,0:0:0:0:
189,207,70036,1,0,0:0:0:0:
16,168,70369,1,4,0:0:0:0:
168,288,70703,1,0,0:0:0:0:
8,360,71036,5,4,0:0:0:0:
88,368,71203,1,0,0:0:0:0:
168,360,71369,1,4,0:0:0:0:
248,368,71536,1,0,0:0:0:0:
328,360,71703,5,0,0:0:0:0:
353,362,71786,1,0,0:0:0:0:
378,364,71869,1,0,0:0:0:0:
404,366,71953,1,0,0:0:0:0:
432,264,72119,5,2,2:2:0:0:
408,248,72203,2,0,P|352:240|296:264,1,104,4|0,0:2|0:0,0:0:0:0:
280,280,72453,1,0,0:0:0:0:
272,312,72536,1,0,0:0:0:0:
24,304,72703,1,0,0:0:0:0:
48,328,72786,1,0,0:0:0:0:
80,336,72869,1,0,0:0:0:0:
112,328,72953,1,0,0:0:0:0:
136,304,73036,1,0,0:0:0:0:
168,224,73203,1,0,0:0:0:0:
144,144,73369,1,0,0:0:0:0:
0,224,73536,6,0,P|64:240|128:176,1,156,4|0,0:0|0:0,0:0:0:0:
144,144,73869,1,2,0:2:0:0:
88,32,74036,5,0,0:0:0:0:
56,8,74119,1,0,0:0:0:0:
16,8,74203,1,0,0:0:0:0:
184,144,74369,5,0,0:0:0:0:
220,128,74453,1,0,0:0:0:0:
240,93,74536,1,0,0:0:0:0:
240,56,74619,1,0,0:0:0:0:
224,24,74703,1,0,0:0:0:0:
192,8,74786,1,0,0:0:0:0:
152,8,74869,6,0,P|192:56|336:24,1,208,4|0,0:0|0:0,0:0:0:0:
448,72,75369,1,0,0:0:0:0:
448,72,75453,2,0,P|400:128|360:136,1,104
448,304,75786,2,0,L|440:200,1,104
456,184,76036,1,0,0:0:0:0:
472,376,76203,6,0,P|416:312|336:320,1,156,4|0,0:0|2:2,0:0:0:0:
272,272,76536,5,0,0:0:0:0:
237,260,76619,1,0,0:0:0:0:
200,262,76703,1,0,0:0:0:0:
168,280,76786,1,0,0:0:0:0:
150,311,76869,1,0,0:0:0:0:
150,347,76953,1,0,0:0:0:0:
167,378,77036,5,0,0:0:0:0:
296,302,77203,2,0,P|284:365|253:385,1,104,4|0,0:0|0:0,0:0:0:0:
365,181,77536,2,0,L|377:368,1,156,4|0,0:0|0:0,0:0:0:0:
377,373,77869,5,0,0:0:0:0:
464,320,78036,1,4,0:0:0:0:
288,216,78203,1,0,0:0:0:0:
280,184,78286,1,0,0:0:0:0:
272,152,78369,1,0,0:0:0:0:
176,200,78536,5,0,0:0:0:0:
168,168,78619,1,0,0:0:0:0:
160,136,78703,1,4,0:0:0:0:
64,184,78869,5,0,0:0:0:0:
56,152,78953,1,0,0:0:0:0:
48,120,79036,1,4,0:0:0:0:
71,109,79119,5,0,0:0:0:0:
87,88,79203,1,0,0:0:0:0:
91,62,79286,1,0,0:0:0:0:
77,39,79369,2,0,P|89:101|136:130,1,104,0|4,0:0|0:0,0:0:0:0:
152,104,79619,1,0,0:0:0:0:
183,129,79703,5,0,0:0:0:0:
206,138,79786,1,0,0:0:0:0:
231,140,79869,1,0,0:0:0:0:
256,134,79953,1,0,0:0:0:0:
301,118,80036,5,4,0:0:0:0:
313,140,80119,1,0,0:0:0:0:
317,165,80203,1,0,0:0:0:0:
313,190,80286,1,0,0:0:0:0:
296,208,80369,6,0,P|224:240|144:224,1,156,4|0,0:0|0:0,0:0:0:0:
120,208,80703,1,0,0:0:0:0:
16,288,80869,6,0,P|88:320|168:304,1,156,4|0,0:0|0:0,0:0:0:0:
192,288,81203,1,0,0:0:0:0:
312,232,81369,5,4,0:0:0:0:
311,258,81453,1,0,0:0:0:0:
325,279,81536,1,0,0:0:0:0:
347,290,81619,1,0,0:0:0:0:
373,289,81703,1,0,0:0:0:0:
384,160,81869,6,0,P|408:96|488:64,2,156,4|0|4,0:0|0:0|0:0,0:0:0:0:
393,282,82536,1,0,0:0:0:0:
421,294,82619,1,0,0:0:0:0:
452,296,82703,1,4,0:0:0:0:
328,216,82869,1,0,0:0:0:0:
195,199,83036,5,4,0:0:0:0:
169,204,83119,1,0,0:0:0:0:
142,205,83203,1,0,0:0:0:0:
117,197,83286,1,0,0:0:0:0:
76,168,83369,5,4,0:0:0:0:
69,131,83453,1,0,0:0:0:0:
78,96,83536,1,0,0:0:0:0:
104,71,83619,1,0,0:0:0:0:
160,48,83703,5,4,0:0:0:0:
206,51,83786,1,0,0:0:0:0:
243,78,83869,1,0,0:0:0:0:
262,120,83953,1,0,0:0:0:0:
264,177,84036,5,4,0:0:0:0:
242,229,84119,1,0,0:0:0:0:
195,262,84203,1,0,0:0:0:0:
138,263,84286,1,0,0:0:0:0:
67,227,84369,6,0,L|63:194,1,26,6|0,0:2|0:0,0:0:0:0:
35,131,84536,6,0,L|31:98,1,26,2|0,0:2|0:0,0:0:0:0:
3,35,84703,6,0,L|-1:2,1,26,2|0,0:2|0:0,0:0:0:0:
104,336,86036,5,4,0:0:0:0:
384,264,91036,5,4,0:0:0:0:
496,280,91203,5,2,2:0:0:0:
496,280,91536,1,2,2:0:0:0:
496,280,91869,1,2,2:0:0:0:
496,280,92203,1,2,2:0:0:0:
384,264,92369,5,4,0:0:0:0:
456,176,92536,5,2,2:0:0:0:
456,176,92869,1,2,2:0:0:0:
456,176,93203,1,2,2:0:0:0:
456,176,93536,1,2,2:0:0:0:
384,264,93703,5,4,0:0:0:0:
344,160,93869,5,2,2:0:0:0:
344,160,94203,1,2,2:0:0:0:
384,264,94369,5,4,0:0:0:0:
272,248,94536,5,2,2:0:0:0:
272,248,94869,1,2,2:0:0:0:
384,264,95036,5,4,0:0:0:0:
312,352,95203,5,2,2:0:0:0:
384,264,95369,5,4,0:0:0:0:
424,368,95536,5,2,2:0:0:0:
384,264,95703,5,4,0:0:0:0:
376,232,95786,1,0,0:0:0:0:
376,200,95869,1,0,0:0:0:0:
388,171,95953,1,0,0:0:0:0:
410,150,96036,1,0,0:0:0:0:
440,142,96119,1,0,0:0:0:0:
471,143,96203,1,4,0:0:0:0:
500,153,96286,1,0,0:0:0:0:
512,177,96703,6,0,P|528:231|505:295,1,104,4|0,0:0|0:0,0:0:0:0:
406,321,97036,1,0,0:0:0:0:
303,299,97203,1,0,0:0:0:0:
281,197,97369,1,0,0:0:0:0:
440,142,97536,2,0,P|465:229|404:322,1,208
281,197,98036,5,0,0:0:0:0:
176,195,98203,1,0,0:0:0:0:
176,195,98286,1,0,0:0:0:0:
176,195,98369,1,0,0:0:0:0:
91,256,98536,1,0,0:0:0:0:
112,360,98703,2,0,P|162:366|219:354,1,104
379,351,99036,6,0,P|344:298|345:254,1,104
512,172,99369,1,0,0:0:0:0:
512,249,99536,2,0,P|459:284|415:283,1,104
282,198,99869,1,0,0:0:0:0:
192,144,100036,2,0,L|80:152,1,104
64,168,100286,1,0,0:0:0:0:
40,184,100369,1,0,0:0:0:0:
152,48,100536,5,0,0:0:0:0:
152,48,100703,1,0,0:0:0:0:
152,48,100869,1,0,0:0:0:0:
192,144,101036,1,0,0:0:0:0:
282,198,101203,1,0,0:0:0:0:
384,216,101369,1,0,0:0:0:0:
415,213,101453,1,0,0:0:0:0:
445,206,101536,1,0,0:0:0:0:
472,190,101619,1,0,0:0:0:0:
488,168,101703,5,4,0:0:0:0:
400,112,101869,1,0,0:0:0:0:
488,56,102036,1,0,0:0:0:0:
304,112,102203,6,0,P|272:88|208:96,1,104,4|0,0:0|0:0,0:0:0:0:
56,192,102536,2,0,L|160:192,1,104,4|0,0:0|0:0,0:0:0:0:
304,272,102869,2,0,P|272:296|208:288,1,104,4|0,0:0|0:0,0:0:0:0:
256,192,103203,5,0,0:0:0:0:
352,192,103369,1,0,0:0:0:0:
424,136,103536,1,0,0:0:0:0:
432,40,103703,1,0,0:0:0:0:
424,136,103869,5,0,0:0:0:0:
384,280,104036,1,0,0:0:0:0:
256,192,104203,1,0,0:0:0:0:
112,112,104369,5,4,0:0:0:0:
24,56,104536,1,0,0:0:0:0:
24,168,104703,1,0,0:0:0:0:
208,112,104869,6,0,P|240:88|304:96,1,104,4|0,0:0|0:0,0:0:0:0:
456,192,105203,2,0,L|352:192,1,104,4|0,0:0|0:0,0:0:0:0:
208,272,105536,2,0,P|240:296|304:288,1,104,4|0,0:0|0:0,0:0:0:0:
256,192,105869,5,0,0:0:0:0:
160,192,106036,1,0,0:0:0:0:
104,272,106203,1,0,0:0:0:0:
48,344,106369,6,0,P|16:304|13:248,1,104
160,192,106703,2,0,P|192:232|196:290,1,104
168,360,107036,5,4,0:0:0:0:
272,368,107203,1,0,0:0:0:0:
352,304,107369,1,0,0:0:0:0:
336,200,107536,6,0,P|320:152|336:96,1,104,4|0,0:0|0:0,0:0:0:0:
512,288,107869,2,0,P|474:251|424:241,1,104,4|0,0:0|0:0,0:0:0:0:
352,304,108203,2,0,P|272:336|152:296,1,208,4|0,0:0|0:0,0:0:0:0:
88,208,108703,5,0,0:0:0:0:
176,232,108869,1,0,0:0:0:0:
32,256,109036,1,0,0:0:0:0:
144,160,109203,1,0,0:0:0:0:
208,304,109369,1,0,0:0:0:0:
104,384,109536,1,0,0:0:0:0:
72,320,109703,5,4,0:0:0:0:
336,352,110036,1,0,0:0:0:0:
208,304,110369,5,4,0:0:0:0:
472,272,110703,1,0,0:0:0:0:
336,352,111036,5,4,0:0:0:0:
512,360,111203,1,0,0:0:0:0:
424,336,111369,1,4,0:2:0:0:
512,304,111536,1,0,0:0:0:0:
472,272,111703,5,0,0:0:0:0:
500,259,111786,1,0,0:0:0:0:
511,230,111869,1,0,0:0:0:0:
495,202,111953,1,0,0:0:0:0:
464,194,112036,1,0,0:0:0:0:
436,207,112119,1,0,0:0:0:0:
427,237,112203,1,0,0:0:0:0:
442,263,112286,1,0,0:0:0:0:
