osu file format v12

[General]
AudioFilename: vallis-neria.mp3
AudioLeadIn: 1000
PreviewTime: 21991
Countdown: 0
SampleSet: Soft
StackLeniency: 0.7
Mode: 0
LetterboxInBreaks: 0

[Editor]
DistanceSpacing: 1.2
BeatDivisor: 4
GridSize: 8

[Metadata]
Title:VALLIS-NERIA
TitleUnicode:VALLIS-NERIA
Artist:DJ YOSHITAKA
ArtistUnicode:DJ YOSHITAKA
Creator:Sagisawa-Yukari
Version:Hard
Source:REFLEC BEAT limelight
Tags:konami bemani AndyRucas CSY the corrupt Flower iroseka DangYang_shushu
BeatmapID:222428
BeatmapSetID:62800

[Difficulty]
HPDrainRate:5
CircleSize:4
OverallDifficulty:6
ApproachRate:7
SliderMultiplier:1.7
SliderTickRate:1

[Events]
//Background and Video events
0,0,"VALLIS-NERIA.jpg",0,0
//Break Periods
2,11813,18497
2,79272,83362
//Storyboard Layer 0 (Background)
//Storyboard Layer 1 (Fail)
//Storyboard Layer 2 (Pass)
//Storyboard Layer 3 (Foreground)
//Storyboard Sound Samples
//Background Colour Transformations
3,100,163,162,255

[TimingPoints]
1235,324.324324324324,4,2,1,60,1,0
19316,-100,4,1,0,50,0,0
21586,-100,4,2,1,50,0,0
21910,-100,4,1,1,60,0,0
37559,-100,4,2,1,40,0,1
38775,-100,4,2,1,70,0,1
40072,-100,4,2,1,40,0,1
41370,-100,4,2,1,70,0,1
42586,-100,4,1,1,60,0,1
43640,-100,4,1,1,85,0,1
43802,-100,4,1,1,60,0,1
47856,-100,4,2,1,40,0,1
49153,-100,4,2,1,70,0,1
50451,-100,4,2,1,40,0,1
51748,-100,4,2,1,70,0,1
52964,-100,4,1,1,60,0,1
53370,-100,4,1,1,70,0,1
53532,-100,4,1,1,60,0,1
54018,-100,4,1,1,85,0,1
54180,-100,4,1,1,60,0,1
54667,-100,4,1,1,70,0,1
54829,-100,4,1,1,60,0,1
55316,-100,4,1,1,70,0,1
55478,-100,4,1,1,60,0,1
56613,-100,4,2,1,70,0,1
58316,-100,4,1,1,65,0,0
84099,-100,4,2,1,70,0,0
89451,-100,4,1,1,70,0,0
105018,-100,4,2,1,40,0,1
106234,-100,4,2,1,70,0,1
107532,-100,4,2,1,40,0,1
108829,-100,4,2,1,70,0,1
110045,-100,4,1,1,60,0,1
111099,-100,4,1,1,85,0,1
111262,-100,4,1,1,60,0,1
115316,-100,4,2,1,40,0,1
115316,-100,4,2,1,70,0,1
116613,-100,4,2,1,70,0,1
117910,-100,4,2,1,40,0,1
119207,-100,4,2,1,70,0,1
120424,-100,4,1,1,60,0,1
120829,-100,4,1,1,80,0,1
120991,-100,4,1,1,60,0,1
121478,-100,4,1,1,85,0,1
121640,-100,4,1,1,60,0,1
122126,-100,4,1,1,70,0,1
122289,-100,4,1,1,60,0,1
122775,-100,4,1,1,80,0,1
122937,-100,4,1,1,60,0,1
124072,-100,4,2,1,60,0,1
125775,-100,4,2,0,70,0,0
127072,-100,4,2,0,50,0,0
128045,-100,4,2,0,20,0,0

[Colours]
Combo1 : 81,168,255
Combo2 : 255,255,0
Combo3 : 47,255,255
Combo4 : 255,255,128
SliderBorder : 255,255,255

[HitObjects]
256,192,1235,1,6,0:0:0:0:
256,192,2532,1,0,0:0:0:0:
144,192,3829,5,0,0:0:0:0:
200,104,4153,1,0,0:0:0:0:
304,104,4478,1,0,0:0:0:0:
368,192,4802,1,0,0:0:0:0:
256,288,5126,6,0,P|184:312|88:280,1,170
256,96,5775,2,0,P|328:72|424:104,1,170
256,192,6424,5,0,0:0:0:0:
256,192,6748,1,0,0:0:0:0:
176,152,7072,2,0,P|160:184|176:240,1,85
336,232,7397,2,0,P|352:200|336:144,1,85
256,328,7883,5,0,0:0:0:0:
256,40,8207,1,0,0:0:0:0:
464,192,8532,1,0,0:0:0:0:
48,192,8856,1,0,0:0:0:0:
256,192,9018,12,6,11613,0:0:0:0:
256,192,19397,5,0,0:0:0:0:
256,192,19721,1,0,0:0:0:0:
256,192,19883,12,0,21667,0:0:0:0:
256,80,21991,5,4,0:0:0:0:
352,40,22153,2,0,P|368:80|352:120,2,85
256,80,22640,1,0,0:0:0:0:
160,40,22802,1,0,0:0:0:0:
72,88,22964,1,0,0:0:0:0:
80,192,23126,1,0,0:0:0:0:
256,80,23451,5,4,0:0:0:0:
256,280,23775,1,4,0:0:0:0:
352,320,23937,2,0,P|360:280|352:232,1,85
256,80,24262,2,0,P|248:120|256:168,1,85
344,120,24586,2,0,P|384:112|432:120,2,85,0|0|0,0:0|0:0|0:0,0:0:0:0:
272,192,25072,2,0,P|232:200|184:192,2,85,0|0|0,0:0|0:0|0:0,0:0:0:0:
273,188,25721,6,0,P|296:231|334:252,1,85,4|0,0:0|0:0,0:0:0:0:
360,152,26045,2,0,P|368:104|352:64,1,85,4|0,0:0|0:0,0:0:0:0:
256,80,26370,2,4,P|232:106|186:122,1,85,4|0,0:0|0:0,0:0:0:0:
88,160,26694,2,0,P|80:208|91:241,1,85,4|0,0:0|0:0,0:0:0:0:
192,232,27018,5,0,0:0:0:0:
144,320,27180,1,0,0:0:0:0:
240,344,27343,1,0,0:0:0:0:
258,321,27424,1,0,0:0:0:0:
276,299,27505,2,0,L|331:232,1,85,0|0,0:0|0:0,0:0:0:0:
416,296,27829,2,0,L|437:213,1,85,0|0,0:0|0:0,0:0:0:0:
496,128,28153,1,0,0:0:0:0:
432,48,28316,1,0,0:0:0:0:
232,48,28640,5,0,0:0:0:0:
232,48,28802,2,0,P|200:104|173:114,1,85
88,80,29126,2,0,P|80:112|96:160,1,85,4|0,0:0|0:0,0:0:0:0:
184,216,29451,1,0,0:0:0:0:
184,216,29613,2,0,P|151:219|111:250,1,85,4|0,0:0|0:0,0:0:0:0:
192,312,29937,1,0,0:0:0:0:
280,264,30099,2,0,P|289:182|341:114,1,170
416,184,30586,1,0,0:0:0:0:
480,304,30748,2,0,P|456:344|416:352,1,85,8|0,0:0|0:0,0:0:0:0:
320,328,31072,5,0,0:0:0:0:
224,304,31234,1,0,0:0:0:0:
144,240,31397,1,8,0:0:0:0:
112,144,31559,1,0,0:0:0:0:
184,80,31721,2,0,L|272:80,3,85,0|8|0|0,0:0|0:0|0:0|0:0,0:0:0:0:
368,104,32370,5,0,0:0:0:0:
432,184,32532,1,0,0:0:0:0:
409,201,32613,1,0,0:0:0:0:
386,219,32694,2,0,L|318:272,1,85,0|0,0:0|0:0,0:0:0:0:
232,328,33018,2,0,P|200:336|144:304,1,85
80,248,33343,1,0,0:0:0:0:
112,152,33505,1,4,0:0:0:0:
272,32,33829,5,0,0:0:0:0:
272,352,34153,1,0,0:0:0:0:
376,344,34316,2,0,L|440:280,1,85
504,208,34640,2,0,L|440:144,1,85
360,200,34964,2,0,P|280:264|200:256,1,170
248,168,35451,2,0,P|328:104|408:112,1,170
160,80,36099,5,0,0:0:0:0:
152,104,36180,1,0,0:0:0:0:
144,128,36262,2,0,L|112:216,1,85,4|0,0:0|0:0,0:0:0:0:
88,304,36586,1,0,0:0:0:0:
176,352,36748,1,0,0:0:0:0:
248,280,36910,2,0,L|280:192,1,85
312,104,37234,1,0,0:0:0:0:
400,56,37396,1,0,0:0:0:0:
472,136,37559,5,2,0:0:0:0:
472,136,37721,2,0,L|440:224,1,85,2|0,0:0|0:0,0:0:0:0:
416,304,38045,1,2,0:0:0:0:
256,360,38370,1,2,0:0:0:0:
96,312,38694,1,2,0:0:0:0:
184,264,38856,6,0,L|184:168,2,85,0|0|8,0:0|0:0|0:0,0:0:0:0:
328,112,39505,2,0,L|328:208,2,85,0|0|8,0:0|0:0|0:0,0:0:0:0:
72,64,40153,5,6,0:0:0:0:
72,64,40315,2,0,L|160:96,1,85,2|0,0:0|0:0,0:0:0:0:
232,120,40640,1,2,0:0:0:0:
392,64,40964,1,2,0:0:0:0:
472,216,41289,1,2,0:0:0:0:
376,288,41451,6,0,L|288:288,2,85,0|0|8,0:0|0:0|0:0,0:0:0:0:
400,88,42099,2,0,L|488:88,2,85,0|0|8,0:0|0:0|0:0,0:0:0:0:
336,168,42586,1,0,0:0:0:0:
248,216,42748,6,0,L|248:304,2,85,4|0|8,0:0|0:0|0:0,0:0:0:0:
208,120,43234,1,0,0:0:0:0:
296,72,43397,2,0,L|384:96,1,85,0|0,0:0|0:0,0:0:0:0:
464,152,43722,1,8,0:0:0:0:
432,248,43883,1,0,0:0:0:0:
352,312,44045,6,0,L|256:312,1,85,0|0,0:0|0:0,0:0:0:0:
112,264,44370,2,0,L|208:264,1,85,8|0,0:0|0:0,0:0:0:0:
344,192,44694,2,0,L|248:192,1,85,0|0,0:0|0:0,0:0:0:0:
120,104,45018,2,0,L|216:104,1,85,8|0,0:0|0:0,0:0:0:0:
272,24,45343,5,0,0:0:0:0:
344,96,45505,1,0,0:0:0:0:
440,72,45667,2,0,P|456:112|440:160,1,85,0|0,0:0|0:0,0:0:0:0:
456,256,45991,2,0,P|357:327|314:325,1,170,0|0,0:0|0:0,0:0:0:0:
224,280,46478,2,0,P|214:240|230:200,1,85,0|0,0:0|0:0,0:0:0:0:
328,168,46802,5,0,0:0:0:0:
309,150,46883,1,0,0:0:0:0:
291,132,46964,2,0,L|225:64,1,85,0|0,0:0|0:0,0:0:0:0:
128,80,47289,1,0,0:0:0:0:
40,136,47451,1,0,0:0:0:0:
40,240,47613,1,0,0:0:0:0:
128,296,47775,1,0,0:0:0:0:
184,208,47937,5,6,0:0:0:0:
184,208,48099,2,0,L|264:264,1,85,2|0,0:0|0:0,0:0:0:0:
336,312,48424,1,2,0:0:0:0:
488,184,48748,1,2,0:0:0:0:
360,32,49072,1,2,0:0:0:0:
256,104,49234,6,0,P|240:144|256:192,2,85,0|0|8,0:0|0:0|0:0,0:0:0:0:
352,288,49883,2,0,P|368:248|352:200,2,85,0|0|8,0:0|0:0|0:0,0:0:0:0:
160,344,50532,5,2,0:0:0:0:
160,344,50694,2,0,L|116:269,1,85,2|0,0:0|0:0,0:0:0:0:
56,192,51018,1,2,0:0:0:0:
184,80,51343,1,2,0:0:0:0:
312,192,51667,1,2,0:0:0:0:
296,72,51829,6,0,L|384:56,2,85,0|0|8,0:0|0:0|0:0,0:0:0:0:
328,304,52478,2,0,L|240:320,2,85,0|0|8,0:0|0:0|0:0,0:0:0:0:
312,192,52964,5,0,0:0:0:0:
224,136,53126,2,0,L|136:152,2,85,4|0|8,0:0|0:0|0:0,0:0:0:0:
200,232,53613,1,0,0:0:0:0:
168,328,53775,2,0,L|256:312,1,85,0|0,0:0|0:0,0:0:0:0:
352,344,54099,1,8,0:0:0:0:
432,280,54262,1,0,0:0:0:0:
472,192,54424,6,0,P|488:152|472:104,1,85,0|0,0:0|0:0,0:0:0:0:
368,40,54748,2,0,P|352:80|368:128,1,85,8|0,0:0|0:0,0:0:0:0:
288,272,55072,2,0,P|304:232|288:184,1,85,0|0,0:0|0:0,0:0:0:0:
224,64,55397,2,0,P|208:104|224:152,1,85,8|0,0:0|0:0,0:0:0:0:
104,128,55721,6,0,P|88:168|120:288,1,170,0|0,0:0|0:0,0:0:0:0:
288,272,56370,1,0,0:0:0:0:
256,104,56694,1,0,0:0:0:0:
256,104,56856,2,0,L|344:80,1,85,0|2,0:0|0:0,0:0:0:0:
432,160,57180,1,0,0:0:0:0:
432,160,57343,2,0,P|441:199|425:239,1,85,8|0,0:0|0:0,0:0:0:0:
360,320,57667,2,0,L|272:344,3,85
368,240,58316,5,0,0:0:0:0:
448,288,58478,2,0,P|464:248|448:208,2,85
352,144,59126,1,0,0:0:0:0:
280,96,59289,1,0,0:0:0:0:
200,120,59451,1,0,0:0:0:0:
176,136,59532,1,0,0:0:0:0:
152,152,59613,6,0,L|80:200,1,85,0|0,0:0|0:0,0:0:0:0:
0,216,59937,1,0,0:0:0:0:
56,280,60099,1,0,0:0:0:0:
136,304,60262,2,0,P|160:344|216:344,1,85,0|0,0:0|0:0,0:0:0:0:
280,328,60586,2,0,P|320:304|320:248,1,85,0|0,0:0|0:0,0:0:0:0:
328,184,60910,5,0,0:0:0:0:
408,152,61072,1,0,0:0:0:0:
392,128,61153,1,0,0:0:0:0:
376,104,61234,2,0,L|320:24,1,85,0|0,0:0|0:0,0:0:0:0:
216,184,61721,1,0,0:0:0:0:
216,88,61883,1,0,0:0:0:0:
32,48,62207,5,0,0:0:0:0:
32,144,62370,1,0,0:0:0:0:
216,184,62694,2,0,L|144:232,1,85,0|0,0:0|0:0,0:0:0:0:
64,280,63018,1,0,0:0:0:0:
144,336,63180,2,0,L|216:288,1,85,0|0,0:0|0:0,0:0:0:0:
288,240,63505,5,0,0:0:0:0:
352,184,63667,1,0,0:0:0:0:
384,208,63748,1,0,0:0:0:0:
416,232,63829,2,0,L|488:288,1,85,0|0,0:0|0:0,0:0:0:0:
456,112,64316,2,0,L|384:56,1,85,0|0,0:0|0:0,0:0:0:0:
216,48,64802,5,0,0:0:0:0:
144,96,64964,1,0,0:0:0:0:
72,48,65126,1,0,0:0:0:0:
72,48,65207,1,0,0:0:0:0:
72,48,65289,2,0,P|56:88|64:136,1,85,0|0,0:0|0:0,0:0:0:0:
120,192,65613,1,0,0:0:0:0:
120,192,65694,1,0,0:0:0:0:
120,192,65776,2,0,P|136:232|128:280,1,85,0|0,0:0|0:0,0:0:0:0:
96,352,66099,5,0,0:0:0:0:
184,336,66262,1,0,0:0:0:0:
184,336,66343,1,0,0:0:0:0:
184,336,66424,2,0,L|264:304,1,85,0|0,0:0|0:0,0:0:0:0:
424,240,66910,2,0,L|344:272,1,85,0|0,0:0|0:0,0:0:0:0:
256,128,67397,5,0,0:0:0:0:
200,64,67559,1,0,0:0:0:0:
120,80,67721,1,0,0:0:0:0:
96,88,67802,1,0,0:0:0:0:
72,96,67883,2,0,L|-8:128,1,85,0|0,0:0|0:0,0:0:0:0:
56,208,68207,1,0,0:0:0:0:
80,200,68288,1,0,0:0:0:0:
104,192,68369,2,0,L|184:160,1,85,0|0,0:0|0:0,0:0:0:0:
256,232,68694,5,4,0:0:0:0:
320,312,68856,2,0,L|240:344,2,85,0|0|0,0:0|0:0|0:0,0:0:0:0:
456,160,69505,2,0,L|376:192,1,85,0|0,0:0|0:0,0:0:0:0:
256,32,69991,5,0,0:0:0:0:
256,32,70153,1,0,0:0:0:0:
256,136,70316,1,0,0:0:0:0:
256,136,70397,1,0,0:0:0:0:
256,136,70478,2,0,L|256:232,1,85,0|4,0:0|0:0,0:0:0:0:
256,328,70964,1,4,0:0:0:0:
104,192,71289,5,4,0:0:0:0:
176,264,71451,2,0,P|168:312|176:352,2,85,0|0|0,0:0|0:0|0:0,0:0:0:0:
304,104,72099,2,0,P|312:152|304:192,1,85,0|0,0:0|0:0,0:0:0:0:
152,112,72586,5,0,0:0:0:0:
216,56,72748,1,0,0:0:0:0:
304,72,72910,1,0,0:0:0:0:
304,72,72991,1,0,0:0:0:0:
304,72,73072,2,0,L|392:88,1,85,0|0,0:0|0:0,0:0:0:0:
464,128,73397,1,0,0:0:0:0:
464,128,73478,1,0,0:0:0:0:
464,128,73559,2,0,L|448:216,1,85,0|0,0:0|0:0,0:0:0:0:
432,296,73883,5,0,0:0:0:0:
368,240,74045,1,0,0:0:0:0:
342,236,74126,1,0,0:0:0:0:
316,231,74207,2,0,L|228:215,1,85,0|0,0:0|0:0,0:0:0:0:
152,64,74694,1,0,0:0:0:0:
112,136,74856,1,0,0:0:0:0:
56,296,75180,5,0,0:0:0:0:
128,336,75342,1,0,0:0:0:0:
208,296,75505,2,0,P|232:256|224:216,1,85,0|0,0:0|0:0,0:0:0:0:
200,136,75829,1,4,0:0:0:0:
352,64,76153,1,4,0:0:0:0:
456,192,76478,5,0,0:0:0:0:
312,192,76640,1,0,0:0:0:0:
384,264,76802,1,0,0:0:0:0:
384,120,76964,1,0,0:0:0:0:
384,264,77126,1,0,0:0:0:0:
280,280,77289,2,0,L|232:296,2,42.5
224,200,77613,2,0,L|208:152,2,42.5
256,192,77856,12,4,79072,0:0:0:0:
256,192,84262,5,0,0:0:0:0:
256,192,84910,1,0,0:0:0:0:
256,192,85559,12,0,87829,0:0:0:0:
256,192,88153,12,0,89126,0:0:0:0:
168,112,89451,5,0,0:0:0:0:
88,176,89613,2,0,P|72:224|96:264,2,85,0|0|0,0:0|0:0|0:0,0:0:0:0:
168,112,90099,1,0,0:0:0:0:
240,184,90262,1,0,0:0:0:0:
312,112,90424,1,0,0:0:0:0:
384,184,90586,1,4,0:0:0:0:
256,344,90910,5,4,0:0:0:0:
256,40,91234,1,4,0:0:0:0:
176,72,91397,2,0,P|160:112|184:160,1,85
272,168,91721,2,0,P|285:208|334:230,1,85
408,280,92045,6,0,P|424:240|400:192,1,85,0|0,0:0|0:0,0:0:0:0:
384,104,92370,1,0,0:0:0:0:
288,80,92532,2,0,L|204:55,2,85,0|0|0,0:0|0:0|0:0,0:0:0:0:
384,104,93018,1,0,0:0:0:0:
384,208,93180,6,0,L|384:296,1,85,4|0,0:0|0:0,0:0:0:0:
288,328,93505,2,0,L|288:240,1,85,4|0,0:0|0:0,0:0:0:0:
200,120,93829,2,0,L|200:208,1,85,4|0,0:0|0:0,0:0:0:0:
112,256,94153,2,0,L|112:168,1,85,4|0,0:0|0:0,0:0:0:0:
104,72,94478,5,0,0:0:0:0:
192,24,94640,1,4,0:0:0:0:
280,72,94802,1,0,0:0:0:0:
280,72,94883,1,0,0:0:0:0:
280,72,94964,2,0,L|368:48,1,85,0|0,0:0|0:0,0:0:0:0:
424,136,95289,2,0,L|336:160,1,85,0|0,0:0|0:0,0:0:0:0:
264,224,95613,1,0,0:0:0:0:
336,296,95775,1,4,0:0:0:0:
136,288,96099,5,0,0:0:0:0:
136,288,96262,2,0,P|156:317|212:330,1,85,0|0,0:0|0:0,0:0:0:0:
200,232,96586,2,0,P|216:200|200:144,1,85,4|0,0:0|0:0,0:0:0:0:
144,72,96910,5,0,0:0:0:0:
144,72,97072,2,0,L|232:40,1,85,0|0,0:0|0:0,0:0:0:0:
320,72,97397,1,0,0:0:0:0:
408,24,97559,2,0,P|440:88|400:184,1,170,8|0,0:0|0:0,0:0:0:0:
352,264,98045,5,0,0:0:0:0:
272,320,98207,2,0,L|184:320,1,85,8|0,0:0|0:0,0:0:0:0:
104,256,98532,1,0,0:0:0:0:
24,192,98694,1,0,0:0:0:0:
24,88,98856,1,8,0:0:0:0:
104,24,99018,1,0,0:0:0:0:
160,112,99180,2,0,P|183:163|228:172,3,85,0|0|8|0,0:0|0:0|0:0|0:0,0:0:0:0:
256,80,99829,5,0,0:0:0:0:
344,32,99991,1,0,0:0:0:0:
344,32,100072,1,0,0:0:0:0:
344,32,100153,2,0,P|352:88|320:120,1,85,0|0,0:0|0:0,0:0:0:0:
280,192,100478,2,0,P|272:248|304:280,1,85,0|0,0:0|0:0,0:0:0:0:
384,240,100802,1,0,0:0:0:0:
368,344,100964,1,4,0:0:0:0:
168,312,101289,5,0,0:0:0:0:
56,184,101613,1,0,0:0:0:0:
56,184,101775,2,0,P|48:144|64:96,1,85,4|0,0:0|0:0,0:0:0:0:
144,160,102099,2,0,P|177:187|217:196,1,85,4|0,0:0|0:0,0:0:0:0:
296,264,102424,2,0,P|344:288|480:296,1,170
488,200,102910,2,0,P|444:168|312:136,1,170
272,24,103559,5,0,0:0:0:0:
248,32,103640,1,0,0:0:0:0:
224,40,103721,2,0,L|144:72,1,85,4|0,0:0|0:0,0:0:0:0:
64,136,104045,1,0,0:0:0:0:
128,216,104207,1,0,0:0:0:0:
112,320,104370,2,0,L|200:288,1,85
288,256,104694,1,0,0:0:0:0:
376,304,104856,1,0,0:0:0:0:
400,208,105018,5,2,0:0:0:0:
400,208,105180,2,0,L|432:128,1,85,2|0,0:0|0:0,0:0:0:0:
464,48,105505,1,2,0:0:0:0:
304,112,105829,1,2,0:0:0:0:
144,48,106153,1,2,0:0:0:0:
192,160,106316,6,0,P|184:200|192:248,2,85,0|0|8,0:0|0:0|0:0,0:0:0:0:
320,320,106964,2,0,P|328:280|320:232,2,85,0|0|8,0:0|0:0|0:0,0:0:0:0:
120,288,107613,5,6,0:0:0:0:
120,288,107775,2,0,L|83:210,1,85,2|0,0:0|0:0,0:0:0:0:
56,112,108099,1,2,0:0:0:0:
200,208,108424,1,2,0:0:0:0:
256,48,108748,1,2,0:0:0:0:
344,112,108910,6,0,L|432:112,2,85,0|0|8,0:0|0:0|0:0,0:0:0:0:
384,328,109559,2,0,L|461:293,2,85,0|0|8,0:0|0:0|0:0,0:0:0:0:
288,288,110045,1,0,0:0:0:0:
192,248,110207,6,0,P|184:288|200:344,2,85,4|0|8,0:0|0:0|0:0,0:0:0:0:
224,152,110694,1,0,0:0:0:0:
296,80,110856,2,0,P|338:70|378:78,1,85,0|0,0:0|0:0,0:0:0:0:
456,144,111180,1,8,0:0:0:0:
496,240,111343,1,0,0:0:0:0:
408,288,111505,6,0,L|320:288,1,85,0|0,0:0|0:0,0:0:0:0:
272,200,111829,2,0,L|272:112,1,85,8|0,0:0|0:0,0:0:0:0:
176,144,112153,2,0,L|176:229,1,85,8|0,0:0|0:0,0:0:0:0:
227,317,112477,2,0,L|312:317,1,85,8|0,0:0|0:0,0:0:0:0:
368,232,112802,5,0,0:0:0:0:
400,328,112964,1,0,0:0:0:0:
464,248,113126,2,0,P|472:216|464:160,1,85,0|0,0:0|0:0,0:0:0:0:
368,128,113451,2,0,P|239:87|213:67,1,170,0|0,0:0|0:0,0:0:0:0:
184,160,113937,2,0,P|192:192|176:248,1,85
96,184,114262,5,0,0:0:0:0:
104,160,114343,1,0,0:0:0:0:
112,136,114424,2,0,L|144:48,1,85,0|0,0:0|0:0,0:0:0:0:
240,64,114748,1,0,0:0:0:0:
224,168,114910,1,0,0:0:0:0:
312,224,115072,1,0,0:0:0:0:
328,328,115234,1,0,0:0:0:0:
424,288,115397,5,6,0:0:0:0:
424,288,115559,2,0,P|432:264|424:200,1,85,2|0,0:0|0:0,0:0:0:0:
400,128,115883,1,2,0:0:0:0:
272,240,116207,1,2,0:0:0:0:
248,88,116532,1,2,0:0:0:0:
160,40,116694,6,0,P|144:80|160:128,2,85,0|0|8,0:0|0:0|0:0,0:0:0:0:
240,224,117343,2,0,P|256:184|240:136,2,85,0|0|8,0:0|0:0|0:0,0:0:0:0:
40,256,117991,5,6,0:0:0:0:
40,256,118153,2,0,L|96:184,1,85,2|0,0:0|0:0,0:0:0:0:
152,104,118478,1,2,0:0:0:0:
320,64,118802,1,2,0:0:0:0:
400,216,119126,1,2,0:0:0:0:
368,296,119289,6,0,L|280:296,2,85,0|0|8,0:0|0:0|0:0,0:0:0:0:
392,96,119937,2,0,L|480:96,2,85,0|0|8,0:0|0:0|0:0,0:0:0:0:
288,80,120424,1,0,0:0:0:0:
248,176,120586,6,0,L|160:176,2,85,4|0|8,0:0|0:0|0:0,0:0:0:0:
320,248,121072,1,0,0:0:0:0:
320,352,121234,2,0,L|232:352,1,85,0|0,0:0|0:0,0:0:0:0:
152,296,121559,1,8,0:0:0:0:
64,344,121721,1,0,0:0:0:0:
40,248,121883,6,0,P|32:216|48:160,1,85,0|0,0:0|0:0,0:0:0:0:
128,112,122207,2,0,P|136:144|120:200,1,85,8|0,0:0|0:0,0:0:0:0:
152,296,122532,2,0,P|184:304|240:288,1,85,0|0,0:0|0:0,0:0:0:0:
336,320,122856,2,0,P|344:288|328:232,1,85,8|0,0:0|0:0,0:0:0:0:
240,200,123180,6,0,P|232:168|264:32,1,170,0|0,0:0|0:0,0:0:0:0:
328,112,123667,2,0,B|392:104|400:64|400:64|496:48,1,170
488,104,124072,2,0,P|496:160|448:224,1,127.5,2|2,0:0|0:0,0:0:0:0:
376,272,124478,2,0,P|402:303|488:328,2,127.5,4|0|0,0:0|0:0|0:0,0:0:0:0:
280,248,125126,2,0,L|193:306,3,85
256,192,125775,12,0,128207,0:0:0:0:
