osu file format v13

[General]
AudioFilename: SEED.mp3
AudioLeadIn: 0
PreviewTime: 78465
Countdown: 1
SampleSet: Soft
StackLeniency: 0.7
Mode: 3
LetterboxInBreaks: 1
SpecialStyle: 0
WidescreenStoryboard: 0

[Editor]
DistanceSpacing: 1.8
BeatDivisor: 4
GridSize: 8
TimelineZoom: 0.8000002

[Metadata]
Title:SEED
TitleUnicode:SEED
Artist:DJ YOSHITAKA
ArtistUnicode:DJ YOSHITAKA
Creator:ImYhime
Version:Easy
Source:Jubeat saucer ORIGINAL SOUNDTRACK - Smith -
Tags:Jubeat BMS Y.Hime
BeatmapID:458233
BeatmapSetID:192731

[Difficulty]
HPDrainRate:5
CircleSize:7
OverallDifficulty:5
ApproachRate:5
SliderMultiplier:1.4
SliderTickRate:1

[Events]
//Background and Video events
0,0,"Seed.jpg",0,0
//Break Periods
2,63904,75136
//Storyboard Layer 0 (Background)
//Storyboard Layer 1 (Fail)
//Storyboard Layer 2 (Pass)
//Storyboard Layer 3 (Foreground)
//Storyboard Sound Samples
//Background Colour Transformations
3,100,163,162,255

[TimingPoints]
-1032,394.736842105263,4,2,0,5,1,0

[HitObjects]
36,192,744,5,0,0:0:0:0:
182,192,1139,1,0,0:0:0:0:
475,192,1533,1,0,0:0:0:0:
329,192,1928,1,0,0:0:0:0:
109,192,2323,1,0,0:0:0:0:
182,192,2717,1,0,0:0:0:0:
402,192,3112,1,0,0:0:0:0:
329,192,3507,1,0,0:0:0:0:
36,192,3902,1,0,0:0:0:0:
475,192,4296,1,0,0:0:0:0:
109,192,4691,1,0,0:0:0:0:
402,192,5086,1,0,0:0:0:0:
182,192,5481,1,0,0:0:0:0:
329,192,5875,5,0,0:0:0:0:
182,192,6270,1,0,0:0:0:0:
475,192,6665,1,0,0:0:0:0:
402,192,6764,1,0,0:0:0:0:
329,192,6862,5,0,0:0:0:0:
109,192,6862,1,0,0:0:0:0:
256,192,7257,1,0,0:0:0:0:
402,192,7652,1,0,0:0:0:0:
256,192,8046,1,0,0:0:0:0:
36,192,8441,1,0,0:0:0:0:
256,192,8836,1,0,0:0:0:0:
475,192,9231,1,0,0:0:0:0:
182,192,9625,1,0,0:0:0:0:
329,192,9823,1,0,0:0:0:0:
182,192,10020,1,0,0:0:0:0:
402,192,10415,1,0,0:0:0:0:
109,192,10810,1,0,0:0:0:0:
329,192,11204,1,0,0:0:0:0:
475,192,11402,1,0,0:0:0:0:
329,192,11599,1,0,0:0:0:0:
36,192,11599,128,0,12389:0:0:0:0:
475,192,12389,128,0,13178:0:0:0:0:
36,192,13178,1,0,0:0:0:0:
182,192,13375,1,0,0:0:0:0:
402,192,13770,1,0,0:0:0:0:
109,192,13869,1,0,0:0:0:0:
329,192,14165,1,0,0:0:0:0:
109,192,14560,1,0,0:0:0:0:
402,192,14658,1,0,0:0:0:0:
182,192,14954,1,0,0:0:0:0:
402,192,15349,1,0,0:0:0:0:
109,192,15448,1,0,0:0:0:0:
329,192,15744,1,0,0:0:0:0:
182,192,16139,1,0,0:0:0:0:
329,192,16237,1,0,0:0:0:0:
109,192,16533,1,0,0:0:0:0:
329,192,16928,1,0,0:0:0:0:
182,192,17027,1,0,0:0:0:0:
402,192,17323,1,0,0:0:0:0:
36,192,17717,1,0,0:0:0:0:
109,192,17816,1,0,0:0:0:0:
182,192,17915,1,0,0:0:0:0:
329,192,18310,1,0,0:0:0:0:
182,192,18704,1,0,0:0:0:0:
402,192,19099,1,0,0:0:0:0:
109,192,19296,1,0,0:0:0:0:
402,192,19494,1,0,0:0:0:0:
182,192,19691,1,0,0:0:0:0:
402,192,20086,1,0,0:0:0:0:
256,192,20185,1,0,0:0:0:0:
329,192,20481,1,0,0:0:0:0:
109,192,20875,1,0,0:0:0:0:
256,192,20974,1,0,0:0:0:0:
402,192,21270,1,0,0:0:0:0:
36,192,21665,1,0,0:0:0:0:
182,192,21764,1,0,0:0:0:0:
109,192,22060,1,0,0:0:0:0:
475,192,22454,1,0,0:0:0:0:
329,192,22553,1,0,0:0:0:0:
109,192,22849,1,0,0:0:0:0:
182,192,23244,1,0,0:0:0:0:
329,192,23342,1,0,0:0:0:0:
402,192,23639,1,0,0:0:0:0:
36,192,24033,1,0,0:0:0:0:
109,192,24132,1,0,0:0:0:0:
182,192,24231,1,0,0:0:0:0:
329,192,24625,1,0,0:0:0:0:
182,192,25020,1,0,0:0:0:0:
402,192,25415,1,0,0:0:0:0:
109,192,25612,1,0,0:0:0:0:
402,192,25810,1,0,0:0:0:0:
182,192,26007,1,0,0:0:0:0:
402,192,26402,1,0,0:0:0:0:
109,192,26500,1,0,0:0:0:0:
329,192,26796,1,0,0:0:0:0:
109,192,27191,1,0,0:0:0:0:
402,192,27290,1,0,0:0:0:0:
109,192,27586,1,0,0:0:0:0:
329,192,27981,1,0,0:0:0:0:
475,192,28079,1,0,0:0:0:0:
402,192,28375,1,0,0:0:0:0:
182,192,28770,1,0,0:0:0:0:
36,192,28869,1,0,0:0:0:0:
329,192,29165,1,0,0:0:0:0:
109,192,29560,1,0,0:0:0:0:
402,192,29658,1,0,0:0:0:0:
182,192,29954,1,0,0:0:0:0:
475,192,30349,1,0,0:0:0:0:
402,192,30448,1,0,0:0:0:0:
329,192,30546,1,0,0:0:0:0:
182,192,30941,1,0,0:0:0:0:
329,192,31336,1,0,0:0:0:0:
109,192,31731,1,0,0:0:0:0:
402,192,31928,1,0,0:0:0:0:
109,192,32125,1,0,0:0:0:0:
329,192,32323,1,0,0:0:0:0:
36,192,32717,1,0,0:0:0:0:
182,192,32816,1,0,0:0:0:0:
329,192,33112,1,0,0:0:0:0:
109,192,33310,1,0,0:0:0:0:
402,192,33507,1,0,0:0:0:0:
109,192,33704,1,0,0:0:0:0:
329,192,33902,1,0,0:0:0:0:
109,192,34296,1,0,0:0:0:0:
402,192,34395,1,0,0:0:0:0:
182,192,34691,1,0,0:0:0:0:
402,192,34889,1,0,0:0:0:0:
109,192,35086,1,0,0:0:0:0:
402,192,35283,1,0,0:0:0:0:
182,192,35481,1,0,0:0:0:0:
36,192,35875,1,0,0:0:0:0:
109,192,35974,1,0,0:0:0:0:
182,192,36073,1,0,0:0:0:0:
475,192,36073,128,0,36467:0:0:0:0:
329,192,36467,1,0,0:0:0:0:
182,192,36665,1,0,0:0:0:0:
329,192,36862,1,0,0:0:0:0:
36,192,36862,128,0,37652:0:0:0:0:
475,192,37652,128,0,38441:0:0:0:0:
182,192,38441,128,0,42783:0:0:0:0:
329,192,42981,1,0,0:0:0:0:
182,192,43178,1,0,0:0:0:0:
36,192,43375,1,0,0:0:0:0:
182,192,43770,1,0,0:0:0:0:
329,192,44362,1,0,0:0:0:0:
109,192,44757,1,0,0:0:0:0:
402,192,45349,1,0,0:0:0:0:
182,192,45941,1,0,0:0:0:0:
402,192,46336,1,0,0:0:0:0:
109,192,46928,1,0,0:0:0:0:
329,192,47520,1,0,0:0:0:0:
182,192,47915,128,0,51073:0:0:0:0:
475,192,51073,5,0,0:0:0:0:
182,192,51369,1,0,0:0:0:0:
329,192,51467,1,0,0:0:0:0:
36,192,51665,1,0,0:0:0:0:
36,192,51961,1,0,0:0:0:0:
329,192,52257,1,0,0:0:0:0:
109,192,52652,1,0,0:0:0:0:
402,192,53046,1,0,0:0:0:0:
182,192,53342,1,0,0:0:0:0:
36,192,53441,1,0,0:0:0:0:
182,192,53639,1,0,0:0:0:0:
402,192,53836,1,0,0:0:0:0:
109,192,53935,1,0,0:0:0:0:
329,192,54231,1,0,0:0:0:0:
36,192,54527,1,0,0:0:0:0:
182,192,54625,1,0,0:0:0:0:
402,192,54823,1,0,0:0:0:0:
402,192,55119,1,0,0:0:0:0:
182,192,55415,1,0,0:0:0:0:
402,192,55810,1,0,0:0:0:0:
182,192,56204,1,0,0:0:0:0:
109,192,56500,1,0,0:0:0:0:
402,192,56599,1,0,0:0:0:0:
109,192,56796,1,0,0:0:0:0:
329,192,56994,1,0,0:0:0:0:
109,192,57092,1,0,0:0:0:0:
475,192,57389,1,0,0:0:0:0:
402,192,57981,1,0,0:0:0:0:
329,192,58573,1,0,0:0:0:0:
182,192,58967,1,0,0:0:0:0:
329,192,59560,1,0,0:0:0:0:
475,192,60152,1,0,0:0:0:0:
475,192,60546,128,0,61928:0:0:0:0:
109,192,61928,1,0,0:0:0:0:
36,192,62323,1,0,0:0:0:0:
109,192,62717,5,0,0:0:0:0:
182,192,63112,1,0,0:0:0:0:
109,192,63507,1,0,0:0:0:0:
329,192,63704,5,0,0:0:0:0:
475,192,63704,1,0,0:0:0:0:
256,192,76336,132,0,78507:0:0:0:0:
36,192,76336,1,0,0:0:0:0:
475,192,76336,1,0,0:0:0:0:
36,192,78507,1,0,0:0:0:0:
475,192,78704,1,0,0:0:0:0:
109,192,78902,1,0,0:0:0:0:
402,192,79099,1,0,0:0:0:0:
109,192,79296,1,0,0:0:0:0:
329,192,79494,1,0,0:0:0:0:
475,192,79494,1,0,0:0:0:0:
182,192,79790,1,0,0:0:0:0:
402,192,80086,1,0,0:0:0:0:
182,192,80382,1,0,0:0:0:0:
36,192,80678,1,0,0:0:0:0:
109,192,80875,1,0,0:0:0:0:
182,192,81073,1,0,0:0:0:0:
402,192,81369,1,0,0:0:0:0:
182,192,81665,1,0,0:0:0:0:
402,192,81961,1,0,0:0:0:0:
475,192,82257,1,0,0:0:0:0:
402,192,82454,1,0,0:0:0:0:
329,192,82652,1,0,0:0:0:0:
109,192,82948,1,0,0:0:0:0:
329,192,83244,1,0,0:0:0:0:
329,192,83540,1,0,0:0:0:0:
182,192,83836,1,0,0:0:0:0:
256,192,84033,1,0,0:0:0:0:
329,192,84231,1,0,0:0:0:0:
109,192,84527,1,0,0:0:0:0:
329,192,84823,1,0,0:0:0:0:
329,192,85119,1,0,0:0:0:0:
182,192,85415,1,0,0:0:0:0:
329,192,85612,1,0,0:0:0:0:
36,192,85810,5,0,0:0:0:0:
475,192,85810,1,0,0:0:0:0:
182,192,86106,1,0,0:0:0:0:
402,192,86402,1,0,0:0:0:0:
182,192,86698,1,0,0:0:0:0:
475,192,86994,1,0,0:0:0:0:
329,192,87191,1,0,0:0:0:0:
182,192,87389,1,0,0:0:0:0:
402,192,87685,1,0,0:0:0:0:
182,192,87981,1,0,0:0:0:0:
402,192,88277,1,0,0:0:0:0:
182,192,88573,1,0,0:0:0:0:
329,192,88770,1,0,0:0:0:0:
475,192,88967,1,0,0:0:0:0:
475,192,89264,1,0,0:0:0:0:
109,192,89560,1,0,0:0:0:0:
329,192,89856,1,0,0:0:0:0:
109,192,90152,1,0,0:0:0:0:
402,192,90349,1,0,0:0:0:0:
182,192,90546,1,0,0:0:0:0:
182,192,90842,1,0,0:0:0:0:
402,192,91139,5,0,0:0:0:0:
109,192,91435,1,0,0:0:0:0:
329,192,91731,1,0,0:0:0:0:
256,192,91928,1,0,0:0:0:0:
36,192,92125,128,0,92520:0:0:0:0:
182,192,92125,128,0,92520:0:0:0:0:
402,192,92717,1,0,0:0:0:0:
109,192,93014,1,0,0:0:0:0:
329,192,93310,1,0,0:0:0:0:
182,192,93507,1,0,0:0:0:0:
329,192,93704,128,0,94099:0:0:0:0:
475,192,93704,128,0,94099:0:0:0:0:
109,192,94296,1,0,0:0:0:0:
402,192,94592,1,0,0:0:0:0:
182,192,94889,1,0,0:0:0:0:
329,192,95086,1,0,0:0:0:0:
475,192,95283,1,0,0:0:0:0:
109,192,95579,1,0,0:0:0:0:
329,192,95875,1,0,0:0:0:0:
329,192,96171,1,0,0:0:0:0:
402,192,96467,1,0,0:0:0:0:
256,192,96665,1,0,0:0:0:0:
109,192,96862,1,0,0:0:0:0:
329,192,97158,1,0,0:0:0:0:
109,192,97454,5,0,0:0:0:0:
109,192,97750,1,0,0:0:0:0:
329,192,98046,1,0,0:0:0:0:
182,192,98244,1,0,0:0:0:0:
329,192,98441,5,0,0:0:0:0:
475,192,98441,1,0,0:0:0:0:
109,192,98639,1,0,0:0:0:0:
109,192,98836,1,0,0:0:0:0:
402,192,99033,1,0,0:0:0:0:
182,192,99329,1,0,0:0:0:0:
329,192,99625,1,0,0:0:0:0:
256,192,99823,1,0,0:0:0:0:
182,192,100020,1,0,0:0:0:0:
36,192,100020,1,0,0:0:0:0:
402,192,100217,1,0,0:0:0:0:
402,192,100415,1,0,0:0:0:0:
109,192,100612,1,0,0:0:0:0:
402,192,100908,1,0,0:0:0:0:
182,192,101204,1,0,0:0:0:0:
329,192,101402,1,0,0:0:0:0:
109,192,101599,1,0,0:0:0:0:
109,192,101895,1,0,0:0:0:0:
329,192,102191,1,0,0:0:0:0:
182,192,102487,1,0,0:0:0:0:
402,192,102783,1,0,0:0:0:0:
109,192,102981,1,0,0:0:0:0:
329,192,103178,1,0,0:0:0:0:
329,192,103474,1,0,0:0:0:0:
109,192,103770,5,0,0:0:0:0:
402,192,104066,1,0,0:0:0:0:
182,192,104362,1,0,0:0:0:0:
329,192,104560,1,0,0:0:0:0:
36,192,104757,5,0,0:0:0:0:
182,192,104757,1,0,0:0:0:0:
