osu file format v12

[General]
AudioFilename: 02. MANA.mp3
AudioLeadIn: 1500
PreviewTime: 60021
Countdown: 0
SampleSet: Normal
StackLeniency: 0.7
Mode: 0
LetterboxInBreaks: 0
WidescreenStoryboard: 0

[Editor]
DistanceSpacing: 0.8
BeatDivisor: 2
GridSize: 8
TimelineZoom: 1

[Metadata]
Title:MANA
TitleUnicode:MANA
Artist:DJ YOSHITAKA
ArtistUnicode:DJ YOSHITAKA
Creator:EvilElvis
Version:Standard
Source:pop'n music 20 fantasia
Tags:eri konami reflec beat colette plus super splash tune rhythmin Kloyd Vass_Bass Kiiwa
BeatmapID:367663
BeatmapSetID:136144

[Difficulty]
HPDrainRate:4
CircleSize:4
OverallDifficulty:4
ApproachRate:5
SliderMultiplier:1.2
SliderTickRate:1

[Events]
//Background and Video events
0,0,"BG (1).jpg",0,0
//Break Periods
2,20836,29283
//Storyboard Layer 0 (Background)
//Storyboard Layer 1 (Fail)
//Storyboard Layer 2 (Pass)
//Storyboard Layer 3 (Foreground)
//Storyboard Sound Samples
//Background Colour Transformations
3,100,163,162,255

[TimingPoints]
945,307.692307692308,4,1,2,60,1,0
3098,-100,4,1,1,60,0,0
3406,-100,4,1,2,60,0,0
12945,-100,4,1,1,60,0,0
13252,-100,4,1,2,60,0,0
20329,-100,4,1,1,60,0,0
20637,-100,4,2,2,35,0,0
20791,-100,4,2,2,50,0,0
30483,-100,4,2,1,57,0,0
30791,-100,4,2,1,35,0,0
30868,-100,4,2,1,50,0,0
31406,-100,4,2,1,35,0,0
31483,-100,4,2,1,50,0,0
32022,-100,4,2,1,35,0,0
32098,-100,4,2,1,50,0,0
32637,-100,4,2,1,35,0,0
32714,-100,4,2,1,50,0,0
33252,-100,4,2,1,35,0,0
33329,-100,4,2,1,50,0,0
33868,-100,4,2,1,35,0,0
33945,-100,4,2,1,50,0,0
34483,-100,4,2,1,35,0,0
34560,-100,4,2,1,50,0,0
35098,-100,4,2,1,35,0,0
35175,-100,4,2,1,50,0,0
35714,-100,4,2,1,35,0,0
35791,-100,4,2,1,50,0,0
36329,-100,4,2,1,35,0,0
36406,-100,4,2,1,50,0,0
36945,-100,4,2,1,35,0,0
37021,-100,4,2,1,50,0,0
38175,-100,4,2,1,35,0,0
38252,-100,4,2,1,50,0,0
38791,-100,4,2,1,35,0,0
38868,-100,4,2,1,50,0,0
39406,-100,4,2,1,35,0,0
39483,-100,4,2,1,50,0,0
40329,-100,4,1,1,60,0,0
40636,-100,4,2,1,60,0,0
60021,-100,4,1,1,60,0,0
60483,-100,4,1,1,60,0,0
60945,-100,4,1,1,60,0,0
61560,-100,4,1,1,60,0,0
62483,-100,4,1,1,60,0,0
62945,-100,4,1,1,60,0,0
63560,-100,4,1,1,60,0,0
64021,-100,4,1,1,60,0,0
64945,-100,4,1,1,60,0,0
65406,-100,4,1,1,60,0,0
65868,-100,4,1,1,60,0,0
66329,-100,4,1,1,60,0,0
67252,-100,4,1,1,60,0,0
68945,-100,4,1,1,60,0,0
69252,-100,4,1,1,60,0,0
69560,-100,4,1,1,60,0,0
70483,307.692307692308,4,1,2,60,1,0
70483,-100,4,1,1,60,0,1
70791,-100,4,1,1,60,0,1
79868,-100,4,1,1,60,0,0
80329,-100,4,1,1,60,0,1
80637,-100,4,1,1,60,0,1
81406,-100,4,1,1,60,0,1
81560,-100,4,1,1,60,0,1
84791,-100,4,1,1,60,0,0
85252,-100,4,1,1,60,0,1
85560,-100,4,1,1,60,0,1
86329,-100,4,1,1,60,0,1
86791,-100,4,1,1,60,0,1
87714,-100,4,1,1,60,0,1
88175,-100,4,1,1,60,0,1
88791,-100,4,1,1,60,0,0
90791,307.692307692308,4,1,2,60,1,0
90791,-100,4,1,1,60,0,1
90868,-100,4,1,1,60,0,0
95714,-100,4,1,2,60,0,0
96175,-100,4,1,2,60,0,0
97714,-100,4,1,2,60,0,0
98175,-100,4,1,2,60,0,0
98483,-100,4,1,2,40,0,0
99098,-100,4,1,2,50,0,0
99868,-100,4,1,2,60,0,0
100329,-100,4,1,2,60,0,0
100637,-100,4,1,2,60,0,1
109868,-100,4,1,2,60,0,1
110483,-100,4,1,2,10,0,0

[Colours]
Combo1 : 213,0,0
Combo2 : 66,160,255
Combo3 : 0,242,242
Combo4 : 0,118,174
Combo5 : 79,255,167
Combo6 : 218,218,218

[HitObjects]
61,187,945,6,0,B|131:170|104:201|194:175,1,120,4|8,0:0|0:0,0:0:0:0:
247,110,1560,2,0,P|286:160|265:220,1,120,0|8,0:0|0:0,0:0:0:0:
198,270,2175,1,0,0:0:0:0:
119,324,2483,1,8,0:0:0:0:
23,311,2791,1,0,0:0:0:0:
80,234,3098,6,0,L|222:217,1,120,4|4,2:0|0:0,0:0:0:0:
290,250,3714,2,0,L|430:234,1,120,8|0,0:0|0:0,0:0:0:0:
503,253,4329,1,8,0:0:0:0:
447,334,4637,1,0,0:0:0:0:
351,343,4945,1,8,0:0:0:0:
255,353,5252,2,0,B|214:347|214:347|181:361|181:361|120:349,2,120,4|12|4,0:0|0:0|0:0,0:0:0:0:
292,264,6175,6,0,P|323:198|266:101,2,180,8|0|0,0:0|0:0|0:0,0:0:0:0:
221,198,7406,2,0,B|143:187|179:213|93:197,2,120,8|8|4,0:0|0:0|2:0,0:0:0:0:
316,185,8329,5,12,0:0:0:0:
393,242,8637,2,0,L|524:222,1,120,8|0,0:0|0:0,0:0:0:0:
510,319,9252,2,0,L|374:341,1,120,8|4,0:0|0:0,0:0:0:0:
298,312,9868,2,0,P|279:256|304:203,1,120,8|8,0:0|0:0,0:0:0:0:
391,243,10483,1,4,2:0:0:0:
486,230,10791,38,0,P|504:187|474:116,2,120,4|8|0,0:0|0:0|0:0,0:0:0:0:
390,242,11714,1,8,0:0:0:0:
305,196,12021,2,0,P|288:163|320:82,1,120,0|8,0:0|0:0,0:0:0:0:
387,27,12637,1,0,0:0:0:0:
291,19,12945,6,0,L|152:32,2,120,4|4|8,2:0|0:0|0:0,0:0:0:0:
251,106,13868,1,0,0:0:0:0:
281,196,14175,1,8,0:0:0:0:
240,284,14483,1,0,0:0:0:0:
312,347,14791,1,8,0:0:0:0:
216,369,15098,2,0,B|174:363|174:363|78:379,2,120,4|8|4,0:0|0:0|0:0,0:0:0:0:
302,327,16021,6,0,P|330:255|272:159,2,180,8|0|0,0:0|0:0|0:0,0:0:0:0:
233,259,17252,1,8,0:0:0:0:
152,311,17560,2,0,B|106:305|106:305|83:312|83:312|9:305,1,120,8|8,0:0|0:0,0:0:0:0:
34,211,18175,5,12,0:0:0:0:
112,155,18483,1,8,0:0:0:0:
139,142,18637,2,0,P|156:99|127:31,2,120,12|8|8,0:0|0:0|0:0,0:0:0:0:
220,193,19560,1,4,0:0:0:0:
297,136,19868,1,4,0:0:0:0:
370,197,20175,1,0,0:0:0:0:
390,219,20329,2,0,L|525:210,1,120,8|4,2:0|1:0,0:0:0:0:
83,98,30483,38,0,P|45:156|58:214,2,120,4|8|0,1:0|0:0|0:0,0:0:0:0:
148,168,31406,1,8,0:0:0:0:
228,220,31714,2,0,B|265:214|265:214|308:222|308:222|362:215,1,120,0|8,0:0|0:0,0:0:0:0:
429,260,32329,2,0,P|447:207|391:147,2,120,0|8|0,0:0|0:0|0:0,0:0:0:0:
353,320,33252,5,8,0:0:0:0:
264,356,33560,2,0,L|117:348,1,120,0|8,1:0|0:0,0:0:0:0:
207,277,34175,2,0,P|212:218|176:172,1,120,0|8,0:0|0:0,0:0:0:0:
108,104,34791,1,0,0:0:0:0:
88,197,35098,1,0,0:0:0:0:
20,129,35406,6,0,L|-3:-2,2,120,4|8|0,0:0|0:0|0:0,0:0:0:0:
111,98,36329,1,8,0:0:0:0:
196,141,36637,2,0,P|241:123|325:140,1,120,0|8,1:0|0:0,0:0:0:0:
399,169,37252,1,0,0:0:0:0:
467,235,37560,1,0,0:0:0:0:
458,330,37868,6,0,L|329:342,1,120,4|8,0:0|0:0,0:0:0:0:
250,348,38483,1,0,1:0:0:0:
221,338,38637,1,0,1:0:0:0:
126,352,38945,1,0,0:0:0:0:
98,341,39098,2,0,P|73:296|103:214,1,120,4|8,0:0|0:0,0:0:0:0:
175,194,39714,2,0,B|209:183|209:183|244:190|244:190|302:170,1,120,12|4,0:0|0:0,0:0:0:0:
341,255,40329,1,4,1:0:0:0:
436,246,40637,38,0,P|456:200|419:127,2,120,0|0|0,0:0|0:0|0:0,0:0:0:0:
382,325,41560,2,0,B|327:314|327:314|267:332|267:332|186:322,2,180,0|0|0,1:0|0:0|0:0,0:0:0:0:
384,228,42791,2,0,P|422:243|510:212,1,120,0|0,1:0|0:0,0:0:0:0:
504,126,43406,1,0,0:0:0:0:
430,64,43714,1,0,0:0:0:0:
353,122,44021,2,0,B|266:89|274:150|164:111,1,180,0|0,0:0|1:0,0:0:0:0:
94,165,44791,1,0,0:0:0:0:
115,186,44945,2,0,L|111:326,1,120,0|0,1:0|1:0,0:0:0:0:
205,327,45560,5,0,0:0:0:0:
300,312,45868,1,0,0:0:0:0:
395,302,46175,1,0,0:0:0:0:
490,289,46483,2,0,P|509:218|445:121,2,180,0|0|0,1:0|0:0|0:0,0:0:0:0:
399,257,47714,6,0,L|265:240,1,120,0|4,1:0|0:0,0:0:0:0:
210,308,48329,1,0,0:0:0:0:
116,285,48637,1,0,1:0:0:0:
140,192,48945,2,0,P|192:170|377:191,1,240,4|0,0:0|1:0,0:0:0:0:
466,181,49868,2,0,P|484:158|462:72,1,120,0|4,0:0|1:0,0:0:0:0:
373,100,50483,5,0,0:0:0:0:
307,29,50791,2,0,P|249:13|66:71,1,240,0|0,0:0|1:0,0:0:0:0:
152,122,51714,2,0,B|107:150|107:150|31:138,2,120,0|0|0,0:0|0:0|0:0,0:0:0:0:
228,184,52637,38,0,L|240:329,1,120,0|0,1:0|0:0,0:0:0:0:
93,311,53406,1,0,1:0:0:0:
117,328,53560,1,0,0:0:0:0:
209,353,53868,6,0,B|276:344|276:344|312:355|312:355|398:342,2,180,0|0|0,1:0|1:0|1:0,0:0:0:0:
204,257,55098,6,0,B|116:271|116:271|105:265|105:265|16:281,2,180,4|0|0,1:0|0:0|0:0,0:0:0:0:
297,233,56329,2,0,P|333:125|237:67,1,240,0|0,1:0|0:0,0:0:0:0:
147,89,57252,1,0,0:0:0:0:
89,165,57560,6,0,B|148:177|148:177|275:144,1,180,0|0,1:0|0:0,0:0:0:0:
302,234,58329,1,0,1:0:0:0:
289,261,58483,1,0,1:0:0:0:
369,313,58791,2,0,L|496:300,1,120,4|0,1:0|0:0,0:0:0:0:
495,204,59406,2,0,P|517:140|471:95,1,120,0|4,0:0|0:0,0:0:0:0:
411,159,60021,38,0,B|342:171|342:171|304:156|304:156|220:175,1,180,4|4,0:0|0:0,0:0:0:0:
165,236,60791,2,0,P|140:192|169:104,2,120,4|4|0,0:0|0:0|0:0,0:0:0:0:
190,251,61560,1,0,0:0:0:0:
258,318,61868,2,0,B|294:288|294:288|287:206,1,120,0|0,0:0|0:0,0:0:0:0:
240,131,62483,6,0,P|189:83|78:62,1,180,4|4,0:0|0:0,0:0:0:0:
18,131,63252,2,0,L|46:272,2,120,4|4|0,0:0|0:0|0:0,0:0:0:0:
28,102,64021,1,0,0:0:0:0:
100,165,64329,2,0,P|160:152|234:173,1,120,0|0,0:0|0:0,0:0:0:0:
289,227,64945,6,0,L|486:212,1,180,4|4,0:0|0:0,0:0:0:0:
492,120,65714,2,0,L|369:129,2,120,4|4|0,0:0|0:0|0:0,0:0:0:0:
506,93,66483,1,0,0:0:0:0:
414,32,66791,2,0,B|376:48|376:48|230:26,1,180,0|4,0:0|0:0,0:0:0:0:
155,145,67714,6,0,P|133:179|164:263,2,120,0|0|0,0:0|0:0|0:0,0:0:0:0:
181,131,68483,1,4,0:0:0:0:
264,178,68791,1,0,0:0:0:0:
286,197,68945,2,0,L|405:208,2,120,4|4|4,0:0|0:0|2:0,0:0:0:0:
19,330,70483,38,0,B|58:319|58:319|156:336,1,120,4|0,0:0|0:0,0:0:0:0:
225,368,71098,2,0,L|360:359,1,120,0|0,0:0|0:0,0:0:0:0:
428,312,71714,1,4,0:0:0:0:
466,224,72021,1,0,0:0:0:0:
370,234,72329,6,0,P|326:247|232:230,2,120,4|0|4,0:0|0:0|2:0,0:0:0:0:
411,148,73252,1,0,0:0:0:0:
374,58,73560,1,0,0:0:0:0:
283,25,73868,1,0,0:0:0:0:
198,69,74175,2,0,L|55:79,1,120,4|0,2:0|0:0,0:0:0:0:
13,149,74791,2,0,L|156:159,1,120,4|0,2:0|0:0,0:0:0:0:
195,230,75406,6,0,L|52:240,1,120,4|0,0:0|0:0,0:0:0:0:
9,308,76021,2,0,L|152:318,1,120,0|0,0:0|0:0,0:0:0:0:
226,327,76637,1,0,0:0:0:0:
321,332,76945,1,8,0:0:0:0:
416,336,77252,1,8,0:0:0:0:
444,328,77406,2,0,P|473:258|400:170,1,180,0|4,0:0|0:0,0:0:0:0:
368,261,78175,5,0,0:0:0:0:
339,270,78329,1,4,0:0:0:0:
284,191,78637,1,4,0:0:0:0:
313,195,78791,1,0,0:0:0:0:
386,133,79098,2,0,L|405:0,2,120,4|12|12,0:0|0:0|0:0,0:0:0:0:
402,227,80021,1,0,1:0:0:0:
350,308,80329,38,0,B|302:303|302:303|284:309|284:309|217:299,1,120,4|0,0:0|0:0,0:0:0:0:
152,356,80945,2,0,P|118:344|11:341,1,120,4|0,2:0|0:0,0:0:0:0:
2,246,81560,2,0,P|38:255|231:182,1,240,4|8,2:0|0:0,0:0:0:0:
257,102,82483,2,0,P|199:96|139:151,1,120,0|4,0:0|0:0,0:0:0:0:
222,192,83098,2,0,L|351:188,1,120,0|0,0:0|0:0,0:0:0:0:
425,235,83714,1,4,0:0:0:0:
504,181,84021,6,0,P|517:137|382:18,2,240,4|4|4,2:0|2:0|0:0,0:0:0:0:
430,239,85560,1,0,0:0:0:0:
336,218,85868,2,0,B|273:205|273:205|177:225|177:225|96:207,1,240,0|0,0:0|0:0,0:0:0:0:
30,142,86791,1,8,2:0:0:0:
123,121,87098,1,4,2:0:0:0:
217,104,87406,1,8,0:0:0:0:
312,89,87714,2,0,L|451:66,1,120,4|0,0:0|0:0,0:0:0:0:
395,158,88329,6,0,L|256:181,1,120,0|0,0:0|0:0,0:0:0:0:
250,193,88791,1,4,0:0:0:0:
211,280,89098,1,4,0:0:0:0:
297,321,89406,1,4,2:0:0:0:
324,333,89560,2,0,P|367:320|452:342,1,120,4|8,0:0|2:0,0:0:0:0:
298,317,90791,6,0,B|256:301|256:301|233:326|233:326|185:294|65:340,1,240,4|0,2:0|0:0,0:0:0:0:
3,274,91714,1,0,0:0:0:0:
87,228,92021,2,0,P|106:172|72:115,2,120,4|0|0,0:0|0:0|0:0,0:0:0:0:
5,176,92945,1,2,0:0:0:0:
0,78,93252,38,0,P|23:49|201:93,1,240,4|2,0:0|0:0,0:0:0:0:
246,162,94175,1,0,0:0:0:0:
330,208,94483,6,0,L|470:220,2,120,2|2|2,0:0|0:0|0:0,0:0:0:0:
246,170,95406,1,2,0:0:0:0:
160,213,95714,5,4,0:0:0:0:
163,117,96021,1,2,0:0:0:0:
246,170,96329,2,0,P|264:202|245:302,1,120,2|2,0:0|0:0,0:0:0:0:
167,315,96945,1,6,0:0:0:0:
84,267,97252,1,2,0:0:0:0:
83,170,97560,6,0,B|95:127|95:127|93:101|93:101|106:34,2,120,0|0|6,0:0|0:0|0:0,0:0:0:0:
1,217,98483,2,0,L|13:351,1,120,10|2,0:0|0:0,0:0:0:0:
101,302,99098,2,0,P|143:284|231:281,1,120,10|2,0:0|0:0,0:0:0:0:
314,260,99714,1,10,0:0:0:0:
337,278,99868,2,0,B|429:232|422:308|538:250,1,180,6|10,0:0|0:0,0:0:0:0:
460,180,100637,38,0,P|346:102|147:199,1,360,4|10,0:0|0:0,0:0:0:0:
86,246,101868,22,0,L|100:387,2,120,2|8|2,0:0|0:0|0:0,0:0:0:0:
178,273,102791,2,0,B|239:259|239:259|324:283|324:283|424:255,1,240,10|10,0:0|0:0,0:0:0:0:
439,167,103714,1,2,0:0:0:0:
386,87,104021,1,10,0:0:0:0:
295,54,104329,2,0,P|261:63|204:131,1,120,2|10,0:0|0:0,0:0:0:0:
132,186,104945,2,0,P|114:229|134:310,1,120,2|10,0:0|0:0,0:0:0:0:
217,330,105560,6,0,B|254:320|254:320|288:334|288:334|355:317,1,120,6|10,0:0|0:0,0:0:0:0:
416,278,106175,1,2,0:0:0:0:
463,194,106483,1,10,0:0:0:0:
445,169,106637,1,2,0:0:0:0:
391,89,106945,1,2,0:0:0:0:
312,34,107252,2,0,L|168:42,2,120,10|2|10,0:0|0:0|0:0,0:0:0:0:
341,37,108021,53,4,0:0:0:0:
425,83,108329,1,10,0:0:0:0:
447,176,108637,2,0,L|429:315,1,120,2|10,0:0|0:0,0:0:0:0:
347,337,109252,2,0,P|301:337|222:328,2,120,2|10|2,0:0|0:0|0:0,0:0:0:0:
296,255,110175,2,0,L|268:112,1,120,2|0,0:0|0:0,0:0:0:0:
