osu file format v11

[General]
AudioFilename: jomanda.mp3
AudioLeadIn: 0
PreviewTime: 60888
Countdown: 1
SampleSet: Normal
StackLeniency: 0.7
Mode: 0
LetterboxInBreaks: 1

[Editor]
DistanceSpacing: 0.8
BeatDivisor: 4
GridSize: 16

[Metadata]
Title:JOMANDA
TitleUnicode:JOMANDA
Artist:DJ YOSHITAKA
ArtistUnicode:DJ YOSHITAKA
Creator:ignorethis
Version:Another
Source:jubeat copious APPEND
Tags:beatmania iidx 20 tricoro hard renaissance limit burst
BeatmapID:145955
BeatmapSetID:46963

[Difficulty]
HPDrainRate:8
CircleSize:5
OverallDifficulty:8
ApproachRate:9
SliderMultiplier:1.6
SliderTickRate:1

[Events]
//Background and Video events
0,0,"nimabe.jpg"
//Break Periods
//Storyboard Layer 0 (Background)
//Storyboard Layer 1 (Fail)
//Storyboard Layer 2 (Pass)
//Storyboard Layer 3 (Foreground)
//Storyboard Sound Samples
//Background Colour Transformations
3,100,0,0,0

[TimingPoints]
595,307.692307692308,4,1,0,70,1,0
39979,375,4,1,0,70,1,0
41479,428.571428571429,4,1,0,70,1,0
42336,500,4,1,0,70,1,0
43336,666.666666666667,4,1,0,70,1,0
46336,631.578947368421,4,1,0,70,1,0
46493,600,4,1,0,70,1,0
46643,545.454545454546,4,1,0,70,1,0
47188,500,4,1,0,70,1,0
48188,461.538461538462,4,1,0,70,1,0
49111,428.571428571429,4,1,0,70,1,0
49968,400,4,1,0,70,1,0
50768,352.941176470588,4,1,0,70,1,0
51473,333.333333333333,4,1,0,70,1,0
51639,315.789473684211,4,1,0,70,1,0
52428,285.714285714286,4,1,0,70,1,0
53285,272.727272727273,4,1,0,70,1,0
53557,250,4,1,0,70,1,0
53807,240,4,1,0,70,1,0
54767,222.222222222222,4,1,0,70,1,0
55655,200,4,1,0,70,1,0
59658,307.692307692308,4,1,0,70,1,0

[Colours]
Combo1 : 0,159,0
Combo2 : 255,255,255
Combo3 : 5,5,240

[HitObjects]
75,62,595,2,0,P|76:104|76:104|98:139,1,80
126,199,902,1,0,0:0:0
172,147,1056,1,0,0:0:0
251,235,1210,2,0,P|255:277|258:328,1,80
321,362,1518,1,0,0:0:0
379,147,1671,6,0,P|388:226|389:315,1,160
137,359,2287,2,0,P|132:312|136:267,1,80
141,252,2518,1,0,0:0:0
150,225,2595,2,0,P|62:220,1,80
28,147,2902,1,0,0:0:0
128,30,3056,22,0,P|124:76|124:118,1,80
288,169,3364,2,0,P|292:123|292:81,1,80
208,120,3671,1,0,0:0:0
292,89,3825,2,0,P|356:94|398:94,1,80
208,39,4133,2,0,P|280:19|386:32,1,160
353,237,4748,2,0,P|316:250|269:246,1,80
248,239,4979,1,0,0:0:0
221,228,5056,1,0,0:0:0
194,217,5133,1,0,0:0:0
176,195,5210,2,0,P|108:260,1,80
66,304,5518,5,0,0:0:0
19,207,5671,1,0,0:0:0
50,106,5825,2,0,P|76:156|93:190,1,80
143,318,6133,1,0,0:0:0
249,360,6287,2,0,P|260:324|260:324|246:279,1,80
327,369,6595,22,0,P|344:292|296:213,1,160
84,227,7210,2,0,P|67:304|115:383,1,160
144,294,7671,1,0,0:0:0
452,53,7979,5,0,0:0:0
356,42,8133,1,0,0:0:0
295,116,8287,1,0,0:0:0
390,125,8441,1,0,0:0:0
432,210,8595,2,0,P|436:257|440:300,1,80
315,379,8902,2,0,P|311:332|307:289,1,80
301,230,9210,21,0,0:0:0
214,288,9364,1,0,0:0:0
134,219,9518,2,0,P|131:166|131:121,1,80
96,56,9825,2,0,P|132:60|186:67,1,80
333,110,10133,2,0,P|297:106|243:99,1,80
253,100,10441,6,0,P|248:58|271:-4,1,80
415,126,10748,2,0,P|420:168|397:230,1,80
373,267,11056,1,0,0:0:0
220,251,11210,2,0,P|264:257|320:265,1,80
173,341,11518,22,0,P|261:336|360:332,1,160
306,175,12133,2,0,P|258:177|208:181,1,80
203,182,12364,1,0,0:0:0
177,185,12441,2,0,P|166:142|174:102,1,80
256,17,12748,1,0,0:0:0
382,126,12902,6,0,P|393:169|385:209,1,80
107,211,13210,2,0,P|96:168|104:128,1,80,0|0,0:0|0:0,0:0:0
231,120,13518,1,0,0:0:0
259,231,13671,2,0,P|252:279|247:330,1,80
349,197,13979,22,0,P|340:274|323:367,1,160
72,212,14595,2,0,P|81:168|91:110,1,80
94,102,14825,1,0,0:0:0
115,78,14902,1,0,0:0:0
144,66,14979,1,0,0:0:0
175,61,15056,1,0,0:0:0
184,182,15210,1,0,0:0:0
251,338,15364,6,0,P|252:286|257:237,1,80
381,166,15671,2,0,P|380:218|375:267,1,80
489,326,15979,2,0,P|437:325|388:320,1,80
184,181,16286,2,0,P|236:182|285:187,1,80
