osu file format v11

[General]
AudioFilename: virtual
AudioLeadIn: 0
PreviewTime: 0
Countdown: 0
SampleSet: 0
StackLeniency: 0.4
Mode: 3
SpecialStyle:0

[Metadata]
Title:FLOWER
TitleUnicode:FLOWER
Artist:DJ YOSHITAKA
ArtistUnicode:DJ YOSHITAKA
Creator:chonicle
Version:Piano
Source:Jubeat
Tags:
BeatmapID:0
BeatmapSetID:72041

[Difficulty]
HPDrainRate: 7
CircleSize: 7
OverallDifficulty: 7
ApproachRate: 7
SliderMultiplier: 0.4
SliderTickRate:1

[Events]

[TimingPoints]
0,346.820809248555,4,0,2,70,1,0

[HitObjects]
109,192,1387,128,1,5549:2:0:8
256,192,1387,128,2,5549:2:0:10
475,192,1387,128,1,5549:1:0:6
36,192,1560,1,2,1:0:6
182,192,1734,1,2,2:0:8
402,192,1907,1,2,2:0:5
36,192,2254,1,2,1:0:6
182,192,2427,1,2,2:0:8
402,192,2601,1,2,2:0:5
36,192,2947,1,2,1:0:6
182,192,3121,1,2,2:0:8
402,192,3294,1,2,2:0:5
36,192,3641,1,2,1:0:6
182,192,3815,1,2,2:0:8
402,192,3988,1,2,2:0:5
36,192,4335,1,2,1:0:6
182,192,4508,1,2,2:0:8
402,192,4682,1,2,2:0:5
36,192,5028,1,2,1:0:6
182,192,5202,1,2,2:0:8
402,192,5375,1,2,2:0:5
36,192,5549,128,4,5895:1:0:7
182,192,5549,128,8,5895:2:0:9
329,192,5549,128,1,5895:1:0:4
109,192,5722,1,1,1:0:4
256,192,5895,1,8,1:0:7
475,192,6069,1,2,1:0:4
109,192,6242,128,8,6589:2:0:7
182,192,6242,128,8,6589:2:0:9
329,192,6242,128,1,6589:1:0:4
256,192,6416,1,1,1:0:4
402,192,6589,1,1,1:0:8
475,192,6763,1,2,1:0:4
109,192,6936,128,1,9710:2:0:8
256,192,6936,128,2,9710:2:0:10
402,192,6936,128,1,9710:2:0:5
36,192,7109,1,1,2:0:5
182,192,7283,1,2,2:0:8
475,192,7456,1,2,2:0:5
36,192,7803,1,1,2:0:5
182,192,7976,1,2,2:0:8
475,192,8150,1,2,2:0:5
36,192,8497,1,1,2:0:5
182,192,8670,1,2,2:0:8
475,192,8843,1,2,2:0:5
36,192,9190,1,1,2:0:5
182,192,9364,1,2,2:0:8
475,192,9537,1,2,2:0:5
36,192,9710,128,4,10404:1:0:7
182,192,9710,128,8,10404:2:0:9
329,192,9710,128,1,10404:1:0:4
475,192,9710,1,8,1:0:7
256,192,9884,1,1,1:0:4
475,192,10057,1,8,1:0:7
256,192,10231,1,2,1:0:4
36,192,10578,1,4,1:0:4
475,192,10578,1,2,1:0:4
109,192,10751,1,8,2:0:10
402,192,10751,1,4,2:0:10
109,192,10924,128,8,11271:2:0:10
402,192,10924,128,1,11271:1:0:10
36,192,11098,128,4,11791:1:0:7
475,192,11098,128,2,11791:2:0:10
182,192,11271,128,8,11618:2:0:10
329,192,11271,128,4,11618:2:0:10
109,192,11618,1,1,2:0:7
402,192,11618,1,8,1:0:7
256,192,11791,1,1,1:0:11
475,192,12442,1,8,2:0:5
36,192,12485,128,1,13699:1:0:6
109,192,12658,1,8,1:0:7
329,192,12658,1,2,2:0:10
109,192,12919,1,8,1:0:7
329,192,12919,1,2,2:0:10
109,192,13179,1,8,1:0:7
329,192,13179,1,2,2:0:10
109,192,13439,1,8,1:0:7
256,192,13439,1,8,2:0:9
109,192,13699,1,8,1:0:7
329,192,13699,1,2,2:0:10
36,192,13872,128,1,15086:1:0:6
109,192,14046,1,8,1:0:7
329,192,14046,1,2,2:0:10
109,192,14306,1,8,1:0:7
329,192,14306,1,2,2:0:10
109,192,14566,1,8,1:0:7
329,192,14566,1,2,2:0:10
109,192,14826,1,8,1:0:7
256,192,14826,1,8,2:0:9
109,192,15086,1,8,1:0:7
329,192,15086,1,2,2:0:10
36,192,15260,128,1,16473:1:0:6
109,192,15433,1,8,1:0:7
329,192,15433,1,2,2:0:10
109,192,15693,1,8,1:0:7
329,192,15693,1,2,2:0:10
109,192,15953,1,8,1:0:7
329,192,15953,1,2,2:0:10
109,192,16213,1,8,1:0:7
256,192,16213,1,8,2:0:9
109,192,16473,1,8,1:0:7
329,192,16473,1,2,2:0:10
109,192,16647,128,4,17341:1:0:7
256,192,16820,1,8,1:0:7
475,192,16820,1,1,1:0:4
256,192,17080,1,8,1:0:7
475,192,17080,1,1,1:0:4
182,192,17341,128,8,18034:2:0:7
329,192,17341,1,2,1:0:6
475,192,17341,1,1,1:0:4
402,192,17601,1,1,2:0:5
475,192,17601,1,1,1:0:4
329,192,17861,1,2,1:0:6
475,192,17861,1,1,1:0:4
36,192,18034,1,1,2:0:5
256,192,18034,128,1,19248:2:0:8
475,192,18034,1,4,2:0:10
36,192,18208,1,1,2:0:5
109,192,18208,1,2,2:0:10
329,192,18208,1,2,2:0:8
475,192,18208,1,4,2:0:10
402,192,18294,1,1,1:0:10
36,192,18468,1,1,2:0:5
109,192,18468,1,2,2:0:10
402,192,18468,1,1,1:0:10
182,192,18554,1,8,1:0:7
36,192,18728,1,1,2:0:5
109,192,18728,1,2,2:0:10
182,192,18815,1,8,1:0:7
36,192,18988,1,1,2:0:5
182,192,18988,1,8,1:0:7
402,192,18988,1,8,2:0:9
329,192,19075,1,2,2:0:8
36,192,19248,1,1,2:0:5
109,192,19248,1,2,2:0:10
182,192,19248,1,8,1:0:7
36,192,19421,1,1,2:0:5
256,192,19421,128,1,20635:2:0:8
475,192,19421,1,4,2:0:10
36,192,19595,1,1,2:0:5
109,192,19595,1,2,2:0:10
329,192,19595,1,2,2:0:8
475,192,19595,1,4,2:0:10
402,192,19682,1,1,1:0:10
36,192,19855,1,1,2:0:5
109,192,19855,1,2,2:0:10
402,192,19855,1,1,1:0:10
182,192,19942,1,8,1:0:7
36,192,20115,1,1,2:0:5
109,192,20115,1,2,2:0:10
182,192,20202,1,8,1:0:7
36,192,20375,1,1,2:0:5
182,192,20375,1,8,1:0:7
402,192,20375,1,8,2:0:9
329,192,20462,1,2,2:0:8
36,192,20635,1,1,2:0:5
109,192,20635,1,2,2:0:10
182,192,20635,1,8,1:0:7
36,192,20809,1,1,2:0:5
256,192,20809,128,1,22023:2:0:8
475,192,20809,1,4,2:0:10
36,192,20982,1,1,2:0:5
109,192,20982,1,2,2:0:10
329,192,20982,1,2,2:0:8
475,192,20982,1,4,2:0:10
402,192,21069,1,1,1:0:10
36,192,21242,1,1,2:0:5
109,192,21242,1,2,2:0:10
402,192,21242,1,1,1:0:10
182,192,21329,1,8,1:0:7
36,192,21502,1,1,2:0:5
109,192,21502,1,2,2:0:10
182,192,21589,1,8,1:0:7
36,192,21763,1,1,2:0:5
182,192,21763,1,8,1:0:7
402,192,21763,1,8,2:0:9
329,192,21849,1,2,2:0:8
36,192,22023,1,1,2:0:5
109,192,22023,1,2,2:0:10
182,192,22023,1,8,1:0:7
36,192,22196,1,2,1:0:4
109,192,22196,1,8,1:0:7
182,192,22196,128,4,23583:1:0:7
402,192,22196,1,1,1:0:10
36,192,22369,1,2,1:0:4
256,192,22369,1,1,1:0:4
402,192,22369,1,8,2:0:9
109,192,22456,1,8,1:0:7
109,192,22630,1,8,1:0:7
256,192,22630,1,1,1:0:4
402,192,22630,1,8,2:0:9
36,192,22716,1,2,1:0:4
36,192,22890,1,1,2:0:5
109,192,22890,1,8,1:0:7
329,192,22890,1,2,2:0:10
475,192,22890,1,4,2:0:10
475,192,22976,1,4,2:0:10
256,192,23150,1,1,1:0:4
402,192,23150,1,8,2:0:9
475,192,23150,1,4,2:0:10
36,192,23236,1,2,1:0:4
36,192,23410,1,1,2:0:5
109,192,23410,1,2,2:0:5
402,192,23410,1,8,2:0:9
36,192,23583,1,4,2:0:10
109,192,23583,128,1,24797:1:0:6
256,192,23583,1,8,2:0:5
475,192,23583,1,1,2:0:5
36,192,23757,1,4,2:0:10
402,192,23757,1,1,2:0:8
475,192,23757,1,2,2:0:10
182,192,23843,1,1,1:0:10
182,192,24017,1,1,1:0:10
402,192,24017,1,1,2:0:8
475,192,24017,1,2,2:0:10
329,192,24104,1,8,1:0:7
402,192,24277,1,1,2:0:8
475,192,24277,1,2,2:0:10
329,192,24364,1,8,1:0:7
182,192,24537,1,8,2:0:9
329,192,24537,1,8,1:0:7
402,192,24537,1,1,2:0:8
256,192,24624,1,2,2:0:8
329,192,24797,1,8,1:0:7
402,192,24797,1,1,2:0:8
475,192,24797,1,2,2:0:10
36,192,24971,1,4,2:0:10
109,192,24971,128,1,26184:1:0:6
475,192,24971,1,1,2:0:5
36,192,25144,1,4,2:0:10
402,192,25144,1,1,2:0:8
475,192,25144,1,2,2:0:10
182,192,25231,1,1,1:0:10
182,192,25404,1,1,1:0:10
402,192,25404,1,1,2:0:8
475,192,25404,1,2,2:0:10
329,192,25491,1,8,1:0:7
402,192,25664,1,1,2:0:8
475,192,25664,1,2,2:0:10
329,192,25751,1,8,1:0:7
182,192,25924,1,8,2:0:9
329,192,25924,1,8,1:0:7
402,192,25924,1,1,2:0:8
256,192,26011,1,2,2:0:8
329,192,26184,1,8,1:0:7
402,192,26184,1,1,2:0:8
475,192,26184,1,2,2:0:10
36,192,26358,1,4,2:0:10
109,192,26358,128,1,27572:1:0:6
475,192,26358,1,1,2:0:5
36,192,26531,1,4,2:0:10
402,192,26531,1,1,2:0:8
475,192,26531,1,2,2:0:10
182,192,26618,1,1,1:0:10
182,192,26791,1,1,1:0:10
402,192,26791,1,1,2:0:8
475,192,26791,1,2,2:0:10
329,192,26878,1,8,1:0:7
402,192,27052,1,1,2:0:8
475,192,27052,1,2,2:0:10
329,192,27138,1,8,1:0:7
182,192,27312,1,8,2:0:9
329,192,27312,1,8,1:0:7
402,192,27312,1,1,2:0:8
256,192,27398,1,2,2:0:8
329,192,27572,1,8,1:0:7
402,192,27572,1,1,2:0:8
475,192,27572,1,2,2:0:10
36,192,27745,1,8,1:0:7
109,192,27745,128,4,28439:1:0:7
256,192,27745,1,1,1:0:10
329,192,27745,1,2,1:0:4
256,192,27919,1,8,2:0:9
329,192,27919,1,2,1:0:4
402,192,27919,1,1,1:0:4
36,192,28005,1,8,1:0:7
36,192,28179,1,8,1:0:7
256,192,28179,1,8,2:0:9
402,192,28179,1,1,1:0:4
329,192,28265,1,2,1:0:4
36,192,28439,1,2,1:0:6
182,192,28439,128,8,29132:2:0:7
256,192,28439,1,1,1:0:8
402,192,28439,1,1,1:0:4
475,192,28526,1,4,1:0:6
256,192,28699,1,1,1:0:8
475,192,28699,1,1,2:0:5
402,192,28786,1,2,2:0:5
329,192,28959,1,2,1:0:4
402,192,28959,1,1,1:0:4
36,192,29132,1,1,2:0:5
256,192,29132,128,1,30346:2:0:8
475,192,29132,1,4,2:0:10
36,192,29306,1,1,2:0:5
109,192,29306,1,2,2:0:10
329,192,29306,1,2,2:0:8
475,192,29306,1,4,2:0:10
402,192,29393,1,1,1:0:10
36,192,29566,1,1,2:0:5
109,192,29566,1,2,2:0:10
402,192,29566,1,1,1:0:10
182,192,29653,1,8,1:0:7
36,192,29826,1,1,2:0:5
109,192,29826,1,2,2:0:10
182,192,29913,1,8,1:0:7
36,192,30086,1,1,2:0:5
182,192,30086,1,8,1:0:7
402,192,30086,1,8,2:0:9
329,192,30173,1,2,2:0:8
36,192,30346,1,1,2:0:5
109,192,30346,1,2,2:0:10
182,192,30346,1,8,1:0:7
36,192,30520,1,1,2:0:5
256,192,30520,128,1,31734:2:0:8
475,192,30520,1,4,2:0:10
36,192,30693,1,1,2:0:5
109,192,30693,1,2,2:0:10
329,192,30693,1,2,2:0:8
475,192,30693,1,4,2:0:10
402,192,30780,1,1,1:0:10
36,192,30953,1,1,2:0:5
109,192,30953,1,2,2:0:10
402,192,30953,1,1,1:0:10
182,192,31040,1,8,1:0:7
36,192,31213,1,1,2:0:5
109,192,31213,1,2,2:0:10
182,192,31300,1,8,1:0:7
36,192,31473,1,1,2:0:5
182,192,31473,1,8,1:0:7
402,192,31473,1,8,2:0:9
329,192,31560,1,2,2:0:8
36,192,31734,1,1,2:0:5
109,192,31734,1,2,2:0:10
182,192,31734,1,8,1:0:7
36,192,31907,1,1,2:0:5
256,192,31907,128,1,33121:2:0:8
475,192,31907,1,4,2:0:10
36,192,32080,1,1,2:0:5
109,192,32080,1,2,2:0:10
329,192,32080,1,2,2:0:8
475,192,32080,1,4,2:0:10
402,192,32167,1,1,1:0:10
36,192,32341,1,1,2:0:5
109,192,32341,1,2,2:0:10
402,192,32341,1,1,1:0:10
182,192,32427,1,8,1:0:7
36,192,32601,1,1,2:0:5
109,192,32601,1,2,2:0:10
182,192,32687,1,8,1:0:7
36,192,32861,1,1,2:0:5
182,192,32861,1,8,1:0:7
402,192,32861,1,8,2:0:9
329,192,32947,1,2,2:0:8
36,192,33121,1,1,2:0:5
109,192,33121,1,2,2:0:10
182,192,33121,1,8,1:0:7
36,192,33294,1,2,1:0:4
109,192,33294,1,8,1:0:7
182,192,33294,128,4,34682:1:0:7
402,192,33294,1,1,1:0:10
36,192,33468,1,2,1:0:4
256,192,33468,1,1,1:0:4
402,192,33468,1,8,2:0:9
109,192,33554,1,8,1:0:7
109,192,33728,1,8,1:0:7
256,192,33728,1,1,1:0:4
402,192,33728,1,8,2:0:9
36,192,33815,1,2,1:0:4
36,192,33988,1,1,2:0:5
109,192,33988,1,8,1:0:7
329,192,33988,1,2,2:0:10
475,192,33988,1,4,2:0:10
475,192,34075,1,4,2:0:10
256,192,34248,1,1,1:0:4
402,192,34248,1,8,2:0:9
475,192,34248,1,4,2:0:10
36,192,34335,1,2,1:0:4
36,192,34508,1,1,2:0:5
109,192,34508,1,2,2:0:5
402,192,34508,1,8,2:0:9
36,192,34682,1,4,2:0:10
109,192,34682,128,1,35895:1:0:6
256,192,34682,1,8,2:0:5
475,192,34682,1,1,2:0:5
36,192,34855,1,4,2:0:10
402,192,34855,1,1,2:0:8
475,192,34855,1,2,2:0:10
182,192,34942,1,1,1:0:10
182,192,35115,1,1,1:0:10
402,192,35115,1,1,2:0:8
475,192,35115,1,2,2:0:10
329,192,35202,1,8,1:0:7
402,192,35375,1,1,2:0:8
475,192,35375,1,2,2:0:10
329,192,35462,1,8,1:0:7
182,192,35635,1,8,2:0:9
329,192,35635,1,8,1:0:7
402,192,35635,1,1,2:0:8
256,192,35722,1,2,2:0:8
329,192,35895,1,8,1:0:7
402,192,35895,1,1,2:0:8
475,192,35895,1,2,2:0:10
36,192,36069,1,4,2:0:10
109,192,36069,128,1,37283:1:0:6
256,192,36069,1,8,2:0:5
475,192,36069,1,1,2:0:5
36,192,36242,1,4,2:0:10
402,192,36242,1,1,2:0:8
475,192,36242,1,2,2:0:10
182,192,36329,1,1,1:0:10
182,192,36502,1,1,1:0:10
402,192,36502,1,1,2:0:8
475,192,36502,1,2,2:0:10
329,192,36589,1,8,1:0:7
402,192,36763,1,1,2:0:8
475,192,36763,1,2,2:0:10
329,192,36849,1,8,1:0:7
182,192,37023,1,8,2:0:9
329,192,37023,1,8,1:0:7
402,192,37023,1,1,2:0:8
256,192,37109,1,2,2:0:8
329,192,37283,1,8,1:0:7
402,192,37283,1,1,2:0:8
475,192,37283,1,2,2:0:10
36,192,37456,1,4,2:0:10
109,192,37456,128,1,38670:1:0:6
256,192,37456,1,8,2:0:5
475,192,37456,1,1,2:0:5
36,192,37630,1,4,2:0:10
402,192,37630,1,1,2:0:8
475,192,37630,1,2,2:0:10
182,192,37716,1,1,1:0:10
182,192,37890,1,1,1:0:10
402,192,37890,1,1,2:0:8
475,192,37890,1,2,2:0:10
329,192,37976,1,8,1:0:7
402,192,38150,1,1,2:0:8
475,192,38150,1,2,2:0:10
329,192,38236,1,8,1:0:7
182,192,38410,1,8,2:0:9
329,192,38410,1,8,1:0:7
402,192,38410,1,1,2:0:8
256,192,38497,1,2,2:0:8
329,192,38670,1,8,1:0:7
402,192,38670,1,1,2:0:8
475,192,38670,1,2,2:0:10
36,192,38843,1,4,2:0:10
109,192,38843,128,1,40057:1:0:6
256,192,38843,1,8,2:0:5
475,192,38843,1,1,2:0:5
36,192,39017,1,4,2:0:10
402,192,39017,1,1,2:0:8
475,192,39017,1,2,2:0:10
182,192,39104,1,1,1:0:10
182,192,39277,1,1,1:0:10
402,192,39277,1,1,2:0:8
475,192,39277,1,2,2:0:10
329,192,39364,1,8,1:0:7
402,192,39537,1,1,2:0:8
475,192,39537,1,2,2:0:10
329,192,39624,1,8,1:0:7
182,192,39797,1,8,2:0:9
329,192,39797,1,8,1:0:7
402,192,39797,1,1,2:0:8
256,192,39884,1,2,2:0:8
329,192,40057,1,8,1:0:7
402,192,40057,1,1,2:0:8
475,192,40057,1,2,2:0:10
36,192,40231,1,1,1:0:6
109,192,40231,1,2,1:0:6
256,192,40231,1,2,2:0:8
402,192,40231,1,4,2:0:10
475,192,40231,1,8,2:0:5
402,192,40404,1,4,2:0:10
329,192,40491,1,1,1:0:10
329,192,40664,1,1,1:0:10
182,192,40751,1,8,1:0:7
36,192,40924,1,1,1:0:6
402,192,40924,1,4,2:0:10
475,192,40924,1,8,2:0:5
402,192,41098,1,4,2:0:10
329,192,41184,1,1,1:0:10
329,192,41358,1,1,1:0:10
182,192,41445,1,8,1:0:7
36,192,41618,1,1,1:0:6
109,192,41618,1,2,1:0:6
256,192,41618,1,2,2:0:8
402,192,41618,1,4,2:0:10
475,192,41618,1,8,2:0:5
402,192,41791,1,4,2:0:10
329,192,41878,1,1,1:0:10
329,192,42052,1,1,1:0:10
182,192,42138,1,8,1:0:7
36,192,42312,1,1,1:0:6
402,192,42312,1,4,2:0:10
475,192,42312,1,8,2:0:5
402,192,42485,1,4,2:0:10
329,192,42572,1,1,1:0:10
329,192,42745,1,1,1:0:10
182,192,42832,1,8,1:0:7
36,192,43005,1,1,1:0:6
329,192,43005,1,2,2:0:8
402,192,43005,1,4,2:0:10
475,192,43005,1,8,2:0:5
109,192,43092,1,2,2:0:10
36,192,43179,1,1,1:0:6
329,192,43179,1,2,2:0:8
402,192,43179,1,4,2:0:10
475,192,43179,1,8,2:0:5
109,192,43265,1,2,2:0:10
36,192,43352,1,1,1:0:6
329,192,43352,1,2,2:0:8
402,192,43352,1,4,2:0:10
475,192,43352,1,8,2:0:5
109,192,43439,1,2,2:0:10
36,192,43526,1,1,1:0:6
329,192,43526,1,2,2:0:8
402,192,43526,1,4,2:0:10
475,192,43526,1,8,2:0:5
109,192,43612,1,2,2:0:10
36,192,43699,1,1,1:0:6
329,192,43699,1,2,2:0:8
402,192,43699,1,4,2:0:10
475,192,43699,1,8,2:0:5
109,192,43786,1,2,2:0:10
36,192,43872,1,1,1:0:6
329,192,43872,1,2,2:0:8
402,192,43872,1,4,2:0:10
475,192,43872,1,8,2:0:5
109,192,43959,1,2,2:0:10
256,192,44046,1,8,2:0:5
36,192,44393,1,1,2:0:8
182,192,44393,1,8,2:0:10
256,192,44393,1,8,1:0:5
329,192,44393,1,4,2:0:10
402,192,44393,1,4,2:0:8
475,192,44393,1,8,1:0:8
109,192,44653,1,2,1:0:10
182,192,44653,1,1,2:0:8
256,192,44653,1,8,1:0:5
329,192,44653,1,1,1:0:10
475,192,44653,1,8,1:0:8
36,192,44913,1,1,2:0:8
182,192,44913,1,8,2:0:10
256,192,44913,1,8,1:0:5
329,192,44913,1,4,2:0:10
402,192,44913,1,4,2:0:8
475,192,44913,1,8,1:0:8
109,192,45173,1,2,1:0:4
256,192,45173,1,4,1:0:4
402,192,45173,1,4,2:0:8
36,192,45433,1,1,2:0:8
109,192,45433,1,2,2:0:5
182,192,45433,1,8,1:0:5
329,192,45433,1,4,2:0:5
475,192,45433,1,8,1:0:8
36,192,45606,1,1,2:0:8
182,192,45606,1,1,2:0:7
256,192,45606,1,8,1:0:5
329,192,45606,1,2,2:0:7
475,192,45606,1,8,1:0:8
36,192,45780,1,8,2:0:5
256,192,45780,1,2,2:0:5
329,192,45780,1,4,2:0:8
475,192,45780,1,8,2:0:10
109,192,45953,1,1,1:0:6
182,192,45953,1,1,2:0:8
475,192,45953,1,8,2:0:10
329,192,46040,1,1,2:0:7
402,192,46040,1,2,1:0:10
36,192,46127,1,8,2:0:5
402,192,46213,1,2,1:0:10
109,192,46300,1,1,1:0:6
182,192,46300,1,1,2:0:8
329,192,46300,1,1,2:0:7
256,192,46387,1,2,2:0:5
36,192,46473,1,8,2:0:5
329,192,46560,1,1,2:0:7
109,192,46647,1,1,1:0:6
182,192,46647,1,1,2:0:8
329,192,46734,1,1,2:0:7
36,192,46820,1,8,2:0:5
402,192,46820,1,4,2:0:8
329,192,46907,1,1,2:0:7
109,192,46994,1,1,1:0:6
182,192,46994,1,1,2:0:8
475,192,46994,1,8,2:0:10
36,192,47080,1,2,2:0:7
109,192,47167,1,2,1:0:7
256,192,47167,1,1,2:0:7
329,192,47167,1,4,2:0:5
402,192,47167,1,2,1:0:10
36,192,47341,1,8,2:0:9
182,192,47341,1,4,1:0:7
329,192,47341,1,4,2:0:5
256,192,47427,1,1,2:0:7
402,192,47427,1,2,1:0:10
109,192,47514,1,2,1:0:7
402,192,47601,1,2,1:0:10
36,192,47687,1,8,2:0:9
182,192,47687,1,4,1:0:7
256,192,47687,1,1,2:0:7
475,192,47774,1,2,1:0:4
182,192,47861,1,4,2:0:7
329,192,47861,1,4,1:0:6
256,192,47947,1,1,2:0:7
36,192,48034,1,8,2:0:9
109,192,48034,1,8,2:0:7
329,192,48034,1,4,1:0:6
475,192,48121,1,4,1:0:4
182,192,48208,1,4,2:0:7
402,192,48208,1,2,1:0:10
256,192,48294,1,2,1:0:8
36,192,48381,1,8,2:0:9
109,192,48381,1,8,2:0:7
402,192,48381,1,2,1:0:10
475,192,48468,1,4,1:0:4
109,192,48554,1,8,1:0:8
256,192,48554,1,2,2:0:5
329,192,48554,1,4,2:0:8
475,192,48554,1,8,2:0:10
36,192,48728,1,2,2:0:10
182,192,48728,1,1,2:0:8
475,192,48728,1,8,2:0:10
329,192,48815,1,1,2:0:7
402,192,48815,1,2,1:0:10
109,192,48901,1,8,1:0:8
402,192,48988,1,2,1:0:10
36,192,49075,1,2,2:0:10
182,192,49075,1,1,2:0:8
329,192,49075,1,1,2:0:7
256,192,49161,1,2,2:0:5
109,192,49248,1,8,1:0:8
329,192,49335,1,1,2:0:7
36,192,49421,1,2,2:0:10
182,192,49421,1,1,2:0:8
329,192,49508,1,1,2:0:7
109,192,49595,1,8,1:0:8
402,192,49595,1,4,2:0:8
36,192,49768,1,2,2:0:10
182,192,49768,1,1,2:0:8
329,192,49768,1,1,2:0:7
36,192,49942,1,2,1:0:7
402,192,49942,1,2,1:0:10
475,192,49942,1,4,1:0:4
256,192,50028,1,2,1:0:4
109,192,50115,1,4,1:0:7
182,192,50115,1,8,2:0:9
329,192,50115,1,1,2:0:7
475,192,50202,1,4,1:0:4
36,192,50289,1,2,1:0:7
329,192,50375,1,1,2:0:7
109,192,50462,1,4,1:0:7
182,192,50462,1,8,2:0:9
475,192,50462,1,4,1:0:4
329,192,50549,1,1,2:0:7
182,192,50635,1,1,2:0:10
402,192,50635,1,8,2:0:10
256,192,50722,1,2,2:0:5
36,192,50809,1,1,2:0:5
109,192,50809,1,2,2:0:10
329,192,50809,1,1,2:0:7
402,192,50895,1,8,2:0:10
182,192,50982,1,1,2:0:10
329,192,51069,1,1,2:0:7
36,192,51156,1,1,2:0:5
109,192,51156,1,2,2:0:10
256,192,51156,1,2,2:0:5
402,192,51242,1,4,2:0:10
36,192,51329,1,8,2:0:10
182,192,51329,1,4,2:0:8
256,192,51329,1,2,2:0:5
475,192,51329,1,8,2:0:5
36,192,51502,1,8,2:0:10
329,192,51502,1,1,2:0:8
402,192,51502,1,1,1:0:6
109,192,51589,1,2,1:0:10
182,192,51589,1,1,2:0:7
475,192,51676,1,8,2:0:5
109,192,51763,1,2,1:0:10
182,192,51849,1,1,2:0:7
329,192,51849,1,1,2:0:8
402,192,51849,1,1,1:0:6
256,192,51936,1,2,2:0:5
475,192,52023,1,8,2:0:5
182,192,52109,1,1,2:0:7
329,192,52196,1,1,2:0:8
402,192,52196,1,1,1:0:6
182,192,52283,1,1,2:0:7
109,192,52369,1,4,2:0:8
475,192,52369,1,8,2:0:5
182,192,52456,1,1,2:0:7
36,192,52543,1,8,2:0:10
329,192,52543,1,1,2:0:8
402,192,52543,1,1,1:0:6
475,192,52630,1,2,2:0:7
109,192,52716,1,2,1:0:10
182,192,52716,1,4,2:0:5
256,192,52716,1,1,2:0:7
402,192,52716,1,2,1:0:7
182,192,52890,1,4,2:0:5
329,192,52890,1,4,1:0:7
475,192,52890,1,8,2:0:9
109,192,52976,1,2,1:0:10
256,192,52976,1,1,2:0:7
402,192,53063,1,2,1:0:7
109,192,53150,1,2,1:0:10
256,192,53236,1,1,2:0:7
329,192,53236,1,4,1:0:7
475,192,53236,1,8,2:0:9
36,192,53323,1,2,1:0:4
182,192,53410,1,4,1:0:6
329,192,53410,1,4,2:0:7
256,192,53497,1,1,2:0:7
182,192,53583,1,4,1:0:6
402,192,53583,1,8,2:0:7
475,192,53583,1,8,2:0:9
36,192,53670,1,4,1:0:4
109,192,53757,1,2,1:0:10
329,192,53757,1,4,2:0:7
256,192,53843,1,2,1:0:8
109,192,53930,1,2,1:0:10
402,192,53930,1,8,2:0:7
475,192,53930,1,8,2:0:9
36,192,54017,1,4,1:0:4
36,192,54104,1,8,2:0:10
182,192,54104,1,4,2:0:8
256,192,54104,1,2,2:0:5
402,192,54104,1,8,1:0:8
36,192,54277,1,8,2:0:10
329,192,54277,1,1,2:0:8
475,192,54277,1,2,2:0:10
109,192,54364,1,2,1:0:10
182,192,54364,1,1,2:0:7
402,192,54450,1,8,1:0:8
109,192,54537,1,2,1:0:10
182,192,54624,1,1,2:0:7
329,192,54624,1,1,2:0:8
475,192,54624,1,2,2:0:10
256,192,54710,1,2,2:0:5
402,192,54797,1,8,1:0:8
182,192,54884,1,1,2:0:7
329,192,54971,1,1,2:0:8
475,192,54971,1,2,2:0:10
182,192,55057,1,1,2:0:7
109,192,55144,1,4,2:0:8
402,192,55144,1,8,1:0:8
182,192,55317,1,1,2:0:7
329,192,55317,1,1,2:0:8
475,192,55317,1,2,2:0:10
36,192,55491,1,4,1:0:4
109,192,55491,1,2,1:0:10
475,192,55491,1,2,1:0:7
256,192,55578,1,2,1:0:4
182,192,55664,1,1,2:0:7
329,192,55664,1,8,2:0:9
402,192,55664,1,4,1:0:7
36,192,55751,1,4,1:0:4
475,192,55838,1,2,1:0:7
182,192,55924,1,1,2:0:7
36,192,56011,1,4,1:0:4
329,192,56011,1,8,2:0:9
402,192,56011,1,4,1:0:7
182,192,56098,1,1,2:0:7
109,192,56184,1,8,2:0:10
329,192,56184,1,1,2:0:10
256,192,56271,1,2,2:0:5
182,192,56358,1,1,2:0:7
402,192,56358,1,2,2:0:10
475,192,56358,1,1,2:0:5
109,192,56445,1,8,2:0:10
329,192,56531,1,1,2:0:10
182,192,56618,1,1,2:0:7
256,192,56705,1,2,2:0:5
402,192,56705,1,2,2:0:10
475,192,56705,1,1,2:0:5
109,192,56791,1,4,2:0:10
36,192,56878,1,8,2:0:5
256,192,56878,1,2,2:0:5
329,192,56878,1,4,2:0:8
475,192,56878,1,8,2:0:10
109,192,57052,1,1,1:0:6
182,192,57052,1,1,2:0:8
475,192,57052,1,8,2:0:10
329,192,57138,1,1,2:0:7
402,192,57138,1,2,1:0:10
36,192,57225,1,8,2:0:5
402,192,57312,1,2,1:0:10
109,192,57398,1,1,1:0:6
182,192,57398,1,1,2:0:8
329,192,57398,1,1,2:0:7
256,192,57485,1,2,2:0:5
36,192,57572,1,8,2:0:5
329,192,57658,1,1,2:0:7
109,192,57745,1,1,1:0:6
182,192,57745,1,1,2:0:8
329,192,57832,1,1,2:0:7
36,192,57919,1,8,2:0:5
402,192,57919,1,4,2:0:8
329,192,58005,1,1,2:0:7
109,192,58092,1,1,1:0:6
182,192,58092,1,1,2:0:8
475,192,58092,1,8,2:0:10
36,192,58179,1,2,2:0:7
109,192,58265,1,2,1:0:7
256,192,58265,1,1,2:0:7
329,192,58265,1,4,2:0:5
402,192,58265,1,2,1:0:10
36,192,58439,1,8,2:0:9
182,192,58439,1,4,1:0:7
329,192,58439,1,4,2:0:5
256,192,58526,1,1,2:0:7
402,192,58526,1,2,1:0:10
109,192,58612,1,2,1:0:7
402,192,58699,1,2,1:0:10
36,192,58786,1,8,2:0:9
182,192,58786,1,4,1:0:7
256,192,58786,1,1,2:0:7
475,192,58872,1,2,1:0:4
182,192,58959,1,4,2:0:7
329,192,58959,1,4,1:0:6
256,192,59046,1,1,2:0:7
36,192,59132,1,8,2:0:9
109,192,59132,1,8,2:0:7
329,192,59132,1,4,1:0:6
475,192,59219,1,4,1:0:4
182,192,59306,1,4,2:0:7
402,192,59306,1,2,1:0:10
256,192,59393,1,2,1:0:8
36,192,59479,1,8,2:0:9
109,192,59479,1,8,2:0:7
402,192,59479,1,2,1:0:10
475,192,59566,1,4,1:0:4
109,192,59653,1,8,1:0:8
256,192,59653,1,2,2:0:5
329,192,59653,1,4,2:0:8
475,192,59653,1,8,2:0:10
36,192,59826,1,2,2:0:10
182,192,59826,1,1,2:0:8
475,192,59826,1,8,2:0:10
329,192,59913,1,1,2:0:7
402,192,59913,1,2,1:0:10
109,192,60000,1,8,1:0:8
402,192,60086,1,2,1:0:10
36,192,60173,1,2,2:0:10
182,192,60173,1,1,2:0:8
329,192,60173,1,1,2:0:7
256,192,60260,1,2,2:0:5
109,192,60346,1,8,1:0:8
329,192,60433,1,1,2:0:7
36,192,60520,1,2,2:0:10
182,192,60520,1,1,2:0:8
329,192,60606,1,1,2:0:7
109,192,60693,1,8,1:0:8
402,192,60693,1,4,2:0:8
36,192,60867,1,2,2:0:10
182,192,60867,1,1,2:0:8
329,192,60867,1,1,2:0:7
36,192,61040,1,2,1:0:7
402,192,61040,1,2,1:0:10
475,192,61040,1,4,1:0:4
256,192,61127,1,2,1:0:4
109,192,61213,1,4,1:0:7
182,192,61213,1,8,2:0:9
329,192,61213,1,1,2:0:7
475,192,61300,1,4,1:0:4
36,192,61387,1,2,1:0:7
329,192,61473,1,1,2:0:7
109,192,61560,1,4,1:0:7
182,192,61560,1,8,2:0:9
475,192,61560,1,4,1:0:4
329,192,61647,1,1,2:0:7
182,192,61734,1,1,2:0:10
402,192,61734,1,8,2:0:10
256,192,61820,1,2,2:0:5
36,192,61907,1,1,2:0:5
109,192,61907,1,2,2:0:10
329,192,61907,1,1,2:0:7
402,192,61994,1,8,2:0:10
182,192,62080,1,1,2:0:10
329,192,62167,1,1,2:0:7
36,192,62254,1,1,2:0:5
109,192,62254,1,2,2:0:10
256,192,62254,1,2,2:0:5
402,192,62341,1,4,2:0:10
36,192,62427,1,8,2:0:10
182,192,62427,1,4,2:0:8
256,192,62427,1,2,2:0:5
475,192,62427,1,8,2:0:5
36,192,62601,1,8,2:0:10
329,192,62601,1,1,2:0:8
402,192,62601,1,1,1:0:6
109,192,62687,1,2,1:0:10
182,192,62687,1,1,2:0:7
475,192,62774,1,8,2:0:5
109,192,62861,1,2,1:0:10
182,192,62947,1,1,2:0:7
329,192,62947,1,1,2:0:8
402,192,62947,1,1,1:0:6
256,192,63034,1,2,2:0:5
475,192,63121,1,8,2:0:5
182,192,63208,1,1,2:0:7
329,192,63294,1,1,2:0:8
402,192,63294,1,1,1:0:6
182,192,63381,1,1,2:0:7
109,192,63468,1,4,2:0:8
475,192,63468,1,8,2:0:5
182,192,63554,1,1,2:0:7
36,192,63641,1,8,2:0:10
329,192,63641,1,1,2:0:8
402,192,63641,1,1,1:0:6
475,192,63728,1,2,2:0:7
109,192,63815,1,2,1:0:10
182,192,63815,1,4,2:0:5
256,192,63815,1,1,2:0:7
402,192,63815,1,2,1:0:7
182,192,63988,1,4,2:0:5
329,192,63988,1,4,1:0:7
475,192,63988,1,8,2:0:9
109,192,64075,1,2,1:0:10
256,192,64075,1,1,2:0:7
402,192,64161,1,2,1:0:7
109,192,64248,1,2,1:0:10
256,192,64335,1,1,2:0:7
329,192,64335,1,4,1:0:7
475,192,64335,1,8,2:0:9
36,192,64421,1,2,1:0:4
182,192,64508,1,4,1:0:6
329,192,64508,1,4,2:0:7
256,192,64595,1,1,2:0:7
182,192,64682,1,4,1:0:6
402,192,64682,1,8,2:0:7
475,192,64682,1,8,2:0:9
36,192,64768,1,4,1:0:4
109,192,64855,1,2,1:0:10
329,192,64855,1,4,2:0:7
256,192,64942,1,2,1:0:8
109,192,65028,1,2,1:0:10
402,192,65028,1,8,2:0:7
475,192,65028,1,8,2:0:9
36,192,65115,1,4,1:0:4
36,192,65202,1,8,2:0:10
182,192,65202,1,4,2:0:8
256,192,65202,1,2,2:0:5
402,192,65202,1,8,1:0:8
36,192,65375,1,8,2:0:10
329,192,65375,1,1,2:0:8
475,192,65375,1,2,2:0:10
109,192,65462,1,2,1:0:10
182,192,65462,1,1,2:0:7
402,192,65549,1,8,1:0:8
109,192,65635,1,2,1:0:10
182,192,65722,1,1,2:0:7
329,192,65722,1,1,2:0:8
475,192,65722,1,2,2:0:10
256,192,65809,1,2,2:0:5
402,192,65895,1,8,1:0:8
182,192,65982,1,1,2:0:7
329,192,66069,1,1,2:0:8
475,192,66069,1,2,2:0:10
182,192,66156,1,1,2:0:7
109,192,66242,1,4,2:0:8
402,192,66242,1,8,1:0:8
182,192,66416,1,1,2:0:7
329,192,66416,1,1,2:0:8
475,192,66416,1,2,2:0:10
36,192,66589,1,4,1:0:4
109,192,66589,1,2,1:0:10
475,192,66589,1,2,1:0:7
256,192,66676,1,2,1:0:4
182,192,66763,1,1,2:0:7
329,192,66763,1,8,2:0:9
402,192,66763,1,4,1:0:7
36,192,66849,1,4,1:0:4
475,192,66936,1,2,1:0:7
182,192,67023,1,1,2:0:7
36,192,67109,1,4,1:0:4
329,192,67109,1,8,2:0:9
402,192,67109,1,4,1:0:7
182,192,67196,1,1,2:0:7
109,192,67283,1,8,2:0:10
329,192,67283,1,1,2:0:10
256,192,67369,1,2,2:0:5
182,192,67456,1,1,2:0:7
402,192,67456,1,2,2:0:10
475,192,67456,1,1,2:0:5
109,192,67543,1,8,2:0:10
329,192,67630,1,1,2:0:10
182,192,67716,1,1,2:0:7
256,192,67803,1,2,2:0:5
402,192,67803,1,2,2:0:10
475,192,67803,1,1,2:0:5
109,192,67890,1,4,2:0:10
36,192,67976,1,8,2:0:5
182,192,67976,1,4,2:0:10
256,192,67976,1,2,2:0:8
402,192,67976,1,1,2:0:7
475,192,67976,1,1,1:0:6
36,192,68236,1,8,2:0:5
182,192,68236,1,4,2:0:10
256,192,68236,1,2,2:0:8
402,192,68236,1,1,2:0:7
475,192,68236,1,1,1:0:6
36,192,68497,1,8,2:0:5
109,192,68497,1,8,1:0:7
256,192,68497,1,1,1:0:10
402,192,68497,1,1,2:0:7
475,192,68497,1,1,1:0:6
36,192,68757,1,8,2:0:5
109,192,68757,1,8,1:0:7
256,192,68757,1,1,1:0:10
402,192,68757,1,1,2:0:7
475,192,68757,1,1,1:0:6
36,192,69017,1,8,2:0:5
109,192,69017,1,8,1:0:7
182,192,69017,1,4,2:0:10
329,192,69017,1,4,1:0:6
475,192,69017,1,1,1:0:6
36,192,69190,1,8,2:0:5
109,192,69190,1,8,1:0:7
182,192,69190,1,4,2:0:10
256,192,69190,1,2,2:0:5
475,192,69190,1,1,1:0:6
109,192,69364,1,1,2:0:8
329,192,69537,1,2,2:0:10
475,192,69537,1,8,1:0:7
109,192,69710,1,1,2:0:8
329,192,69797,1,2,2:0:10
475,192,69797,1,8,1:0:7
109,192,69884,1,1,2:0:8
109,192,70057,1,1,2:0:8
329,192,70057,1,2,2:0:10
475,192,70057,1,8,1:0:7
329,192,70144,1,2,2:0:10
475,192,70144,1,8,1:0:7
109,192,70231,1,1,2:0:8
256,192,70317,1,8,2:0:9
475,192,70317,1,8,1:0:7
109,192,70491,1,1,2:0:8
329,192,70578,1,2,2:0:10
475,192,70578,1,8,1:0:7
36,192,70751,1,1,1:0:6
109,192,70751,1,1,2:0:7
256,192,70751,1,2,2:0:8
329,192,70751,1,4,2:0:10
475,192,70751,1,8,2:0:5
36,192,71011,1,1,1:0:6
109,192,71011,1,1,2:0:7
256,192,71011,1,2,2:0:8
329,192,71011,1,4,2:0:10
475,192,71011,1,8,2:0:5
36,192,71271,1,1,1:0:6
109,192,71271,1,1,2:0:7
256,192,71271,1,1,1:0:10
402,192,71271,1,8,1:0:7
475,192,71271,1,8,2:0:5
36,192,71531,1,1,1:0:6
109,192,71531,1,1,2:0:7
256,192,71531,1,1,1:0:10
402,192,71531,1,8,1:0:7
475,192,71531,1,8,2:0:5
36,192,71791,1,1,1:0:6
182,192,71791,1,4,1:0:6
329,192,71791,1,4,2:0:10
402,192,71791,1,8,1:0:7
475,192,71791,1,8,2:0:5
36,192,71965,1,1,1:0:6
256,192,71965,1,2,2:0:5
329,192,71965,1,4,2:0:10
402,192,71965,1,8,1:0:7
475,192,71965,1,8,2:0:5
402,192,72138,1,1,2:0:8
36,192,72312,1,8,1:0:7
182,192,72312,1,2,2:0:10
402,192,72485,1,1,2:0:8
36,192,72572,1,8,1:0:7
182,192,72572,1,2,2:0:10
402,192,72658,1,1,2:0:8
36,192,72832,1,8,1:0:7
182,192,72832,1,2,2:0:10
402,192,72832,1,1,2:0:8
36,192,72919,1,8,1:0:7
182,192,72919,1,2,2:0:10
402,192,73005,1,1,2:0:8
36,192,73092,1,8,1:0:7
256,192,73092,1,8,2:0:9
402,192,73265,1,1,2:0:8
36,192,73352,1,8,1:0:7
182,192,73352,1,2,2:0:10
36,192,73526,1,8,2:0:5
182,192,73526,1,4,2:0:10
256,192,73526,1,2,2:0:8
402,192,73526,1,1,2:0:7
475,192,73526,1,1,1:0:6
36,192,73786,1,8,2:0:5
182,192,73786,1,4,2:0:10
256,192,73786,1,2,2:0:8
402,192,73786,1,1,2:0:7
475,192,73786,1,1,1:0:6
36,192,74046,1,8,2:0:5
109,192,74046,1,8,1:0:7
256,192,74046,1,1,1:0:10
402,192,74046,1,1,2:0:7
475,192,74046,1,1,1:0:6
36,192,74306,1,8,2:0:5
109,192,74306,1,8,1:0:7
256,192,74306,1,1,1:0:10
402,192,74306,1,1,2:0:7
475,192,74306,1,1,1:0:6
36,192,74566,1,8,2:0:5
109,192,74566,1,8,1:0:7
182,192,74566,1,4,2:0:10
329,192,74566,1,4,1:0:6
475,192,74566,1,1,1:0:6
36,192,74739,1,8,2:0:5
109,192,74739,1,8,1:0:7
182,192,74739,1,4,2:0:10
256,192,74739,1,2,2:0:5
475,192,74739,1,1,1:0:6
109,192,74913,1,1,2:0:8
329,192,75086,1,2,2:0:10
475,192,75086,1,8,1:0:7
109,192,75260,1,1,2:0:8
329,192,75346,1,2,2:0:10
475,192,75346,1,8,1:0:7
109,192,75433,1,1,2:0:8
109,192,75606,1,1,2:0:8
329,192,75606,1,2,2:0:10
475,192,75606,1,8,1:0:7
329,192,75693,1,2,2:0:10
475,192,75693,1,8,1:0:7
109,192,75780,1,1,2:0:8
256,192,75867,1,8,2:0:9
475,192,75867,1,8,1:0:7
109,192,76040,1,1,2:0:8
329,192,76127,1,2,2:0:10
475,192,76127,1,8,1:0:7
36,192,76300,1,1,1:0:6
109,192,76300,1,1,2:0:7
256,192,76300,1,2,2:0:8
329,192,76300,1,4,2:0:10
475,192,76300,1,8,2:0:5
36,192,76560,1,1,1:0:6
109,192,76560,1,1,2:0:7
256,192,76560,1,2,2:0:8
329,192,76560,1,4,2:0:10
475,192,76560,1,8,2:0:5
36,192,76820,1,1,1:0:6
109,192,76820,1,1,2:0:7
256,192,76820,1,1,1:0:10
402,192,76820,1,8,1:0:7
475,192,76820,1,8,2:0:5
36,192,77080,1,1,1:0:6
109,192,77080,1,1,2:0:7
256,192,77080,1,1,1:0:10
402,192,77080,1,8,1:0:7
475,192,77080,1,8,2:0:5
36,192,77341,1,1,1:0:6
182,192,77341,1,4,1:0:6
329,192,77341,1,4,2:0:10
402,192,77341,1,8,1:0:7
475,192,77341,1,8,2:0:5
36,192,77514,1,1,1:0:6
256,192,77514,1,2,2:0:5
329,192,77514,1,4,2:0:10
402,192,77514,1,8,1:0:7
475,192,77514,1,8,2:0:5
402,192,77687,1,1,2:0:8
36,192,77861,1,8,1:0:7
182,192,77861,1,2,2:0:10
402,192,78034,1,1,2:0:8
36,192,78121,1,8,1:0:7
182,192,78121,1,2,2:0:10
402,192,78208,1,1,2:0:8
36,192,78381,1,8,1:0:7
182,192,78381,1,2,2:0:10
402,192,78381,1,1,2:0:8
36,192,78468,1,8,1:0:7
182,192,78468,1,2,2:0:10
402,192,78554,1,1,2:0:8
36,192,78641,1,8,1:0:7
256,192,78641,1,8,2:0:9
402,192,78815,1,1,2:0:8
36,192,78901,1,8,1:0:7
182,192,78901,1,2,2:0:10
109,192,79075,128,2,80462:1:0:7
402,192,79075,128,8,80462:1:0:4
475,192,81763,1,2,1:0:4
36,192,81849,128,1,83236:1:0:6
109,192,81849,1,1,2:0:5
256,192,81849,1,2,2:0:8
402,192,81849,1,4,2:0:10
402,192,82023,1,4,2:0:10
329,192,82109,1,1,1:0:10
329,192,82283,1,1,1:0:10
182,192,82369,1,8,1:0:7
109,192,82456,1,1,2:0:5
182,192,82630,1,8,1:0:7
182,192,82803,1,8,1:0:7
256,192,82890,1,2,2:0:8
182,192,82976,1,8,1:0:7
402,192,83063,1,4,2:0:10
475,192,83150,1,1,2:0:7
109,192,83236,128,4,83930:1:0:7
182,192,83236,1,2,2:0:5
329,192,83236,1,8,1:0:7
402,192,83236,1,1,1:0:10
182,192,83410,1,2,2:0:5
329,192,83497,1,8,1:0:7
402,192,83497,1,1,1:0:10
402,192,83670,1,1,1:0:10
329,192,83757,1,8,1:0:7
36,192,83843,1,1,1:0:4
182,192,83930,128,8,84624:2:0:7
256,192,83930,1,2,1:0:6
329,192,84017,1,8,1:0:7
256,192,84104,1,2,1:0:6
475,192,84190,1,2,1:0:4
402,192,84277,1,1,1:0:10
329,192,84364,1,1,1:0:8
402,192,84450,1,1,1:0:10
475,192,84537,1,2,1:0:4
36,192,84624,1,2,2:0:8
109,192,84624,1,1,2:0:5
256,192,84624,128,1,86011:2:0:8
402,192,84624,1,4,2:0:10
402,192,84797,1,4,2:0:10
329,192,84884,1,1,1:0:10
329,192,85057,1,1,1:0:10
182,192,85144,1,8,1:0:7
109,192,85231,1,1,2:0:5
182,192,85404,1,8,1:0:7
182,192,85578,1,8,1:0:7
36,192,85664,1,2,2:0:8
182,192,85838,1,8,1:0:7
182,192,86011,128,4,86705:1:0:7
329,192,86011,1,1,1:0:10
475,192,86011,1,2,1:0:4
36,192,86098,1,1,1:0:4
256,192,86184,1,8,1:0:7
475,192,86271,1,2,1:0:4
256,192,86445,1,8,1:0:7
475,192,86531,1,2,1:0:4
256,192,86618,1,8,1:0:7
329,192,86705,1,4,2:0:10
402,192,86705,128,2,87398:2:0:10
109,192,86791,1,1,2:0:5
182,192,86878,1,8,1:0:7
329,192,86965,1,4,2:0:10
182,192,87138,1,8,1:0:7
109,192,87225,1,1,2:0:5
36,192,87312,1,2,2:0:10
36,192,87398,128,1,88786:1:0:6
109,192,87398,1,1,2:0:5
182,192,87398,1,8,2:0:5
256,192,87398,1,2,2:0:8
475,192,87398,1,4,2:0:10
475,192,87572,1,4,2:0:10
329,192,87658,1,1,1:0:10
329,192,87832,1,1,1:0:10
182,192,87919,1,8,1:0:7
109,192,88005,1,1,2:0:5
182,192,88179,1,8,1:0:7
182,192,88352,1,8,1:0:7
256,192,88439,1,2,2:0:8
182,192,88526,1,8,1:0:7
402,192,88612,1,4,2:0:10
475,192,88699,1,1,2:0:7
109,192,88786,128,4,89479:1:0:7
182,192,88786,1,2,2:0:5
256,192,88786,1,2,1:0:7
329,192,88786,1,8,1:0:7
402,192,88786,1,1,1:0:10
182,192,88959,1,2,2:0:5
329,192,89046,1,8,1:0:7
402,192,89046,1,1,1:0:10
402,192,89219,1,1,1:0:10
329,192,89306,1,8,1:0:7
36,192,89393,1,1,1:0:4
182,192,89479,128,8,90173:2:0:7
256,192,89479,1,2,1:0:6
475,192,89479,1,4,2:0:7
329,192,89566,1,8,1:0:7
256,192,89653,1,2,1:0:6
475,192,89739,1,2,1:0:4
402,192,89826,1,1,1:0:10
329,192,89913,1,1,1:0:8
402,192,90000,1,1,1:0:10
475,192,90086,1,2,1:0:4
36,192,90173,1,2,2:0:8
109,192,90173,1,1,2:0:5
256,192,90173,128,1,91560:2:0:8
329,192,90173,1,8,1:0:8
402,192,90173,1,4,2:0:10
402,192,90346,1,4,2:0:10
329,192,90433,1,1,1:0:10
329,192,90606,1,1,1:0:10
182,192,90693,1,8,1:0:7
109,192,90780,1,1,2:0:5
182,192,90953,1,8,1:0:7
182,192,91127,1,8,1:0:7
36,192,91213,1,2,2:0:8
182,192,91387,1,8,1:0:7
109,192,91560,1,2,1:0:7
182,192,91560,1,4,1:0:7
329,192,91560,1,1,1:0:10
475,192,91560,1,2,1:0:4
36,192,91647,1,1,1:0:4
256,192,91734,1,8,1:0:7
109,192,91820,1,2,1:0:7
182,192,91820,1,4,1:0:7
475,192,91820,1,2,1:0:4
256,192,91994,1,8,1:0:7
109,192,92080,1,2,1:0:7
182,192,92080,1,4,1:0:7
475,192,92080,1,2,1:0:4
256,192,92167,1,8,1:0:7
36,192,92254,1,1,2:0:10
329,192,92254,1,4,2:0:10
402,192,92254,1,2,2:0:10
109,192,92341,1,1,2:0:5
182,192,92427,1,8,1:0:7
36,192,92514,1,1,2:0:10
329,192,92514,1,4,2:0:10
402,192,92514,1,2,2:0:10
256,192,92601,1,1,1:0:11
36,192,92774,1,1,2:0:10
402,192,92774,1,2,2:0:10
109,192,92947,1,8,2:0:5
182,192,92947,1,8,2:0:10
402,192,92947,1,2,2:0:7
36,192,93034,1,1,2:0:7
329,192,93121,1,1,1:0:6
402,192,93121,1,2,2:0:7
475,192,93121,1,1,2:0:8
256,192,93208,1,4,2:0:5
36,192,93294,1,4,1:0:6
109,192,93294,1,8,2:0:5
256,192,93381,1,4,2:0:5
182,192,93468,1,4,1:0:4
329,192,93468,1,1,1:0:6
475,192,93468,1,1,2:0:8
402,192,93554,1,4,2:0:8
36,192,93641,1,4,1:0:6
109,192,93641,1,8,2:0:5
402,192,93728,1,4,2:0:8
182,192,93815,1,1,2:0:7
329,192,93815,1,1,1:0:6
475,192,93815,1,1,2:0:8
402,192,93901,1,4,2:0:8
109,192,93988,1,8,2:0:5
256,192,93988,1,8,2:0:10
182,192,94075,1,2,1:0:10
36,192,94161,1,1,2:0:7
329,192,94161,1,1,1:0:6
475,192,94161,1,1,2:0:8
256,192,94248,1,4,2:0:10
36,192,94335,128,4,94508:1:0:4
109,192,94335,1,2,2:0:7
182,192,94335,128,2,94508:1:0:10
402,192,94335,1,2,1:0:7
256,192,94508,1,1,2:0:7
329,192,94508,1,8,2:0:9
475,192,94508,1,4,1:0:7
109,192,94595,1,4,1:0:4
256,192,94682,1,1,2:0:7
402,192,94682,1,2,1:0:7
182,192,94768,1,2,1:0:10
256,192,94855,1,1,2:0:7
329,192,94855,1,8,2:0:9
475,192,94855,1,4,1:0:7
36,192,94942,1,2,1:0:4
256,192,95028,1,4,2:0:7
402,192,95028,1,2,1:0:8
109,192,95115,1,2,1:0:10
182,192,95202,1,8,2:0:7
329,192,95202,1,8,2:0:9
402,192,95202,1,2,1:0:8
36,192,95289,1,4,1:0:4
109,192,95375,1,2,1:0:10
256,192,95375,1,4,2:0:7
402,192,95462,1,2,1:0:8
109,192,95549,1,4,1:0:4
182,192,95549,1,8,2:0:7
329,192,95549,1,8,2:0:9
475,192,95635,1,8,1:0:6
36,192,95722,1,8,1:0:8
256,192,95722,1,8,2:0:10
402,192,95722,1,4,2:0:5
109,192,95809,1,4,2:0:8
329,192,95895,1,1,2:0:8
402,192,95895,1,4,2:0:5
475,192,95895,1,2,2:0:10
256,192,95982,1,4,1:0:4
36,192,96069,1,8,1:0:8
109,192,96069,1,4,2:0:8
256,192,96156,1,4,1:0:4
182,192,96242,1,8,2:0:10
329,192,96242,1,1,2:0:8
475,192,96242,1,2,2:0:10
402,192,96329,1,1,2:0:7
36,192,96416,1,8,1:0:8
109,192,96416,1,2,2:0:8
402,192,96502,1,1,2:0:7
109,192,96589,1,2,2:0:8
329,192,96589,1,1,2:0:8
475,192,96589,1,2,2:0:10
256,192,96676,1,4,1:0:6
36,192,96763,1,8,1:0:8
109,192,96763,1,4,2:0:8
329,192,96936,1,1,2:0:8
402,192,96936,1,1,2:0:7
475,192,96936,1,2,2:0:10
182,192,97023,1,2,2:0:7
36,192,97109,1,4,1:0:4
109,192,97109,1,2,1:0:7
256,192,97109,1,2,1:0:10
329,192,97196,1,2,1:0:4
256,192,97283,1,1,2:0:7
402,192,97283,1,8,2:0:9
475,192,97283,1,4,1:0:7
36,192,97369,1,4,1:0:4
109,192,97456,1,2,1:0:7
256,192,97543,1,1,2:0:7
36,192,97630,1,4,1:0:4
402,192,97630,1,8,2:0:9
475,192,97630,1,4,1:0:7
256,192,97716,1,1,2:0:7
109,192,97803,1,8,2:0:10
182,192,97803,1,1,2:0:10
329,192,97803,1,8,2:0:10
36,192,97890,1,2,2:0:5
109,192,97976,1,1,2:0:7
329,192,97976,1,2,2:0:10
402,192,97976,1,1,2:0:5
475,192,98063,1,8,2:0:10
182,192,98150,1,1,2:0:10
109,192,98236,1,1,2:0:7
36,192,98323,1,2,2:0:5
329,192,98323,1,2,2:0:10
402,192,98323,1,1,2:0:5
475,192,98410,1,4,2:0:10
109,192,98497,128,8,98670:2:0:5
182,192,98497,1,8,2:0:10
402,192,98497,1,2,2:0:7
36,192,98583,1,1,2:0:7
329,192,98670,128,1,98843:1:0:6
402,192,98670,1,2,2:0:7
475,192,98670,128,1,98843:2:0:8
256,192,98757,1,4,2:0:5
36,192,98843,1,4,1:0:6
109,192,98843,128,8,99017:2:0:5
256,192,98930,1,4,2:0:5
182,192,99017,1,4,1:0:4
329,192,99017,128,1,99190:1:0:6
475,192,99017,128,1,99190:2:0:8
402,192,99104,1,4,2:0:8
36,192,99190,1,4,1:0:6
109,192,99190,128,8,99364:2:0:5
402,192,99277,1,4,2:0:8
182,192,99364,1,1,2:0:7
329,192,99364,128,1,99537:1:0:6
475,192,99364,128,1,99537:2:0:8
402,192,99450,1,4,2:0:8
109,192,99537,128,8,99710:2:0:5
256,192,99537,1,8,2:0:10
182,192,99624,1,2,1:0:10
36,192,99710,1,1,2:0:7
329,192,99710,128,1,99884:1:0:6
475,192,99710,128,1,99884:2:0:8
256,192,99797,1,4,2:0:10
36,192,99884,128,4,100057:1:0:4
109,192,99884,1,2,2:0:7
182,192,99884,128,2,100057:1:0:10
402,192,99884,128,2,100057:1:0:7
256,192,100057,1,1,2:0:7
329,192,100057,128,8,100231:2:0:9
475,192,100057,128,4,100231:1:0:7
109,192,100144,1,4,1:0:4
256,192,100231,1,1,2:0:7
402,192,100231,128,2,100404:1:0:7
182,192,100317,1,2,1:0:10
256,192,100404,1,1,2:0:7
329,192,100404,128,8,100578:2:0:9
475,192,100404,128,4,100578:1:0:7
36,192,100491,1,2,1:0:4
256,192,100578,128,4,100751:2:0:7
402,192,100578,1,2,1:0:8
109,192,100664,1,2,1:0:10
182,192,100751,128,8,100924:2:0:7
329,192,100751,128,8,100924:2:0:9
402,192,100751,1,2,1:0:8
36,192,100838,1,4,1:0:4
109,192,100924,1,2,1:0:10
256,192,100924,128,4,101098:2:0:7
402,192,101011,1,2,1:0:8
109,192,101098,1,4,1:0:4
182,192,101098,128,8,101271:2:0:7
329,192,101098,128,8,101271:2:0:9
475,192,101184,1,8,1:0:6
36,192,101271,128,8,101445:1:0:8
256,192,101271,1,8,2:0:10
402,192,101271,1,4,2:0:5
109,192,101358,1,4,2:0:8
329,192,101445,128,1,101618:2:0:8
402,192,101445,1,4,2:0:5
475,192,101445,128,2,101618:2:0:10
256,192,101531,1,4,1:0:4
36,192,101618,128,8,101791:1:0:8
109,192,101618,1,4,2:0:8
256,192,101705,1,4,1:0:4
182,192,101791,1,8,2:0:10
329,192,101791,128,1,101965:2:0:8
475,192,101791,128,2,101965:2:0:10
402,192,101878,1,1,2:0:7
36,192,101965,128,8,102138:1:0:8
109,192,101965,1,2,2:0:8
402,192,102052,1,1,2:0:7
109,192,102138,1,2,2:0:8
329,192,102138,128,1,102312:2:0:8
475,192,102138,128,2,102312:2:0:10
256,192,102225,1,4,1:0:6
36,192,102312,128,8,102485:1:0:8
109,192,102312,1,4,2:0:8
329,192,102485,128,1,102658:2:0:8
402,192,102485,1,1,2:0:7
475,192,102485,128,2,102658:2:0:10
182,192,102572,1,2,2:0:7
36,192,102658,1,4,1:0:4
109,192,102658,128,2,102832:1:0:7
256,192,102658,1,2,1:0:10
329,192,102745,1,2,1:0:4
256,192,102832,1,1,2:0:7
402,192,102832,128,8,103005:2:0:9
475,192,102832,128,4,103005:1:0:7
36,192,102919,1,4,1:0:4
109,192,103005,128,2,103179:1:0:7
256,192,103092,1,1,2:0:7
36,192,103179,1,4,1:0:4
402,192,103179,128,8,103352:2:0:9
475,192,103179,128,4,103352:1:0:7
256,192,103265,1,1,2:0:7
109,192,103352,1,8,2:0:10
182,192,103352,128,1,103526:2:0:10
329,192,103352,1,8,2:0:10
36,192,103439,1,2,2:0:5
109,192,103526,1,1,2:0:7
329,192,103526,128,2,103699:2:0:10
402,192,103526,128,1,103699:2:0:5
475,192,103612,1,8,2:0:10
182,192,103699,128,1,103872:2:0:10
109,192,103786,1,1,2:0:7
36,192,103872,1,2,2:0:5
329,192,103872,128,2,104046:2:0:10
402,192,103872,128,1,104046:2:0:5
475,192,103959,1,4,2:0:10
36,192,104046,1,8,2:0:5
109,192,104046,1,1,2:0:7
182,192,104046,1,4,2:0:10
256,192,104046,1,2,2:0:8
475,192,104046,1,1,1:0:6
36,192,104306,1,8,2:0:5
109,192,104306,1,1,2:0:7
182,192,104306,1,4,2:0:10
256,192,104306,1,2,2:0:8
475,192,104306,1,1,1:0:6
36,192,104566,1,8,2:0:5
109,192,104566,1,8,1:0:7
256,192,104566,1,1,1:0:10
402,192,104566,1,1,2:0:7
475,192,104566,1,1,1:0:6
36,192,104826,1,8,2:0:5
109,192,104826,1,8,1:0:7
256,192,104826,1,1,1:0:10
402,192,104826,1,1,2:0:7
475,192,104826,1,1,1:0:6
36,192,105086,1,8,2:0:5
109,192,105086,1,8,1:0:7
182,192,105086,1,4,2:0:10
329,192,105086,1,4,1:0:6
475,192,105086,1,1,1:0:6
36,192,105260,1,8,2:0:5
109,192,105260,1,8,1:0:7
182,192,105260,1,4,2:0:10
256,192,105260,1,2,2:0:5
475,192,105260,1,1,1:0:6
109,192,105433,1,1,2:0:8
329,192,105606,1,2,2:0:10
475,192,105606,1,8,1:0:7
109,192,105780,1,1,2:0:8
329,192,105867,1,2,2:0:10
475,192,105867,1,8,1:0:7
109,192,105953,1,1,2:0:8
109,192,106127,1,1,2:0:8
329,192,106127,1,2,2:0:10
475,192,106127,1,8,1:0:7
329,192,106213,1,2,2:0:10
475,192,106213,1,8,1:0:7
109,192,106300,1,1,2:0:8
256,192,106387,1,8,2:0:9
475,192,106387,1,8,1:0:7
109,192,106560,1,1,2:0:8
329,192,106647,1,2,2:0:10
475,192,106647,1,8,1:0:7
36,192,106820,1,1,1:0:6
256,192,106820,1,2,2:0:8
329,192,106820,1,4,2:0:10
402,192,106820,1,1,2:0:7
475,192,106820,1,8,2:0:5
36,192,107080,1,1,1:0:6
256,192,107080,1,2,2:0:8
329,192,107080,1,4,2:0:10
402,192,107080,1,1,2:0:7
475,192,107080,1,8,2:0:5
36,192,107341,1,1,1:0:6
109,192,107341,1,1,2:0:7
256,192,107341,1,1,1:0:10
402,192,107341,1,8,1:0:7
475,192,107341,1,8,2:0:5
36,192,107601,1,1,1:0:6
109,192,107601,1,1,2:0:7
256,192,107601,1,1,1:0:10
402,192,107601,1,8,1:0:7
475,192,107601,1,8,2:0:5
36,192,107861,1,1,1:0:6
182,192,107861,1,4,1:0:6
329,192,107861,1,4,2:0:10
402,192,107861,1,8,1:0:7
475,192,107861,1,8,2:0:5
36,192,108034,1,1,1:0:6
256,192,108034,1,2,2:0:5
329,192,108034,1,4,2:0:10
402,192,108034,1,8,1:0:7
475,192,108034,1,8,2:0:5
402,192,108208,1,1,2:0:8
36,192,108381,1,8,1:0:7
182,192,108381,1,2,2:0:10
402,192,108554,1,1,2:0:8
36,192,108641,1,8,1:0:7
182,192,108641,1,2,2:0:10
402,192,108728,1,1,2:0:8
36,192,108901,1,8,1:0:7
182,192,108901,1,2,2:0:10
402,192,108901,1,1,2:0:8
36,192,108988,1,8,1:0:7
182,192,108988,1,2,2:0:10
402,192,109075,1,1,2:0:8
36,192,109161,1,8,1:0:7
256,192,109161,1,8,2:0:9
402,192,109335,1,1,2:0:8
36,192,109421,1,8,1:0:7
182,192,109421,1,2,2:0:10
36,192,109595,1,8,2:0:5
182,192,109595,1,4,2:0:10
256,192,109595,1,2,2:0:8
402,192,109595,128,1,109855:2:0:7
475,192,109595,1,1,1:0:6
36,192,109855,1,8,2:0:5
109,192,109855,128,1,110115:2:0:7
182,192,109855,1,4,2:0:10
256,192,109855,1,2,2:0:8
475,192,109855,1,1,1:0:6
36,192,110115,1,8,2:0:5
256,192,110115,1,1,1:0:10
329,192,110115,1,8,1:0:7
402,192,110115,128,1,110375:2:0:7
475,192,110115,1,1,1:0:6
36,192,110375,1,8,2:0:5
109,192,110375,128,1,110635:2:0:7
256,192,110375,1,1,1:0:10
329,192,110375,1,8,1:0:7
475,192,110375,1,1,1:0:6
36,192,110635,1,8,2:0:5
182,192,110635,1,4,2:0:10
329,192,110635,128,4,110809:1:0:6
402,192,110635,1,8,1:0:7
475,192,110635,1,1,1:0:6
36,192,110809,1,8,2:0:5
182,192,110809,1,4,2:0:10
256,192,110809,128,2,110982:2:0:5
402,192,110809,1,8,1:0:7
475,192,110809,1,1,1:0:6
109,192,110982,1,1,2:0:8
329,192,111156,1,2,2:0:10
475,192,111156,1,8,1:0:7
109,192,111329,1,1,2:0:8
329,192,111416,1,2,2:0:10
475,192,111416,1,8,1:0:7
109,192,111502,1,1,2:0:8
109,192,111676,1,1,2:0:8
329,192,111676,1,2,2:0:10
475,192,111676,1,8,1:0:7
329,192,111763,1,2,2:0:10
475,192,111763,1,8,1:0:7
109,192,111849,1,1,2:0:8
256,192,111936,1,8,2:0:9
475,192,111936,1,8,1:0:7
109,192,112109,1,1,2:0:8
329,192,112196,1,2,2:0:10
475,192,112196,1,8,1:0:7
36,192,112369,1,1,1:0:6
109,192,112369,128,1,112630:2:0:7
256,192,112369,1,2,2:0:8
329,192,112369,1,4,2:0:10
475,192,112369,1,8,2:0:5
36,192,112630,1,1,1:0:6
256,192,112630,1,2,2:0:8
329,192,112630,1,4,2:0:10
402,192,112630,128,1,112890:2:0:7
475,192,112630,1,8,2:0:5
36,192,112890,1,1,1:0:6
109,192,112890,128,1,113150:2:0:7
182,192,112890,1,8,1:0:7
256,192,112890,1,1,1:0:10
475,192,112890,1,8,2:0:5
36,192,113150,1,1,1:0:6
182,192,113150,1,8,1:0:7
256,192,113150,1,1,1:0:10
402,192,113150,128,1,113410:2:0:7
475,192,113150,1,8,2:0:5
36,192,113410,1,1,1:0:6
109,192,113410,1,8,1:0:7
182,192,113410,128,4,113583:1:0:6
329,192,113410,1,4,2:0:10
475,192,113410,1,8,2:0:5
36,192,113583,1,1,1:0:6
109,192,113583,1,8,1:0:7
256,192,113583,128,2,113757:2:0:5
329,192,113583,1,4,2:0:10
475,192,113583,1,8,2:0:5
402,192,113757,1,1,2:0:8
36,192,113930,1,8,1:0:7
182,192,113930,1,2,2:0:10
402,192,114104,1,1,2:0:8
36,192,114190,1,8,1:0:7
182,192,114190,1,2,2:0:10
402,192,114277,1,1,2:0:8
36,192,114450,1,8,1:0:7
182,192,114450,1,2,2:0:10
402,192,114450,1,1,2:0:8
36,192,114537,1,8,1:0:7
182,192,114537,1,2,2:0:10
402,192,114624,1,1,2:0:8
36,192,114710,1,8,1:0:7
256,192,114710,1,8,2:0:9
402,192,114884,1,1,2:0:8
36,192,114971,1,8,1:0:7
182,192,114971,1,2,2:0:10
