osu file format v9

[General]
AudioFilename: FLOWER.mp3
AudioLeadIn: 1500
PreviewTime: 38983
Countdown: 0
SampleSet: Normal
StackLeniency: 0.4
Mode: 0
LetterboxInBreaks: 1

[Editor]
DistanceSpacing: 1.2
BeatDivisor: 4
GridSize: 8

[Metadata]
Title:FLOWER
Artist:DJ YOSHITAKA
Creator:MForever
Version:EXTREME
Source:Jubeat Knit/Reflec Beat APPEND
Tags:jubeat knit reflecbeat patchouli muya Numbers 596108

[Difficulty]
HPDrainRate:7
CircleSize:4
OverallDifficulty:7
ApproachRate:8
SliderMultiplier:1.99999990463257
SliderTickRate:1

[Events]
//Background and Video events
0,0,"Black_Floral_by_Daemonika.jpg"
//Break Periods
2,86350,90950
//Storyboard Layer 0 (Background)
//Storyboard Layer 1 (Fail)
//Storyboard Layer 2 (Pass)
//Storyboard Layer 3 (Foreground)
Sprite,Foreground,Centre,"SB\Fast.png",320,240 M,0,15376,,183,94 S,0,15376,,0.7632 F,0,15376,16069,1 F,0,16069,16763,1,0
Sprite,Foreground,Centre,"SB\Fast.png",320,240 M,0,15376,,183,94 F,0,15376,16069,1,0 S,0,15376,16069,0.7632,0.9936001
Sprite,Foreground,Centre,"SB\WARNING.png",320,240 M,0,82312,,350,213 S,0,82312,,0.6480002 F,0,82312,83006,1 F,0,83006,83352,1 F,0,83352,84740,1 F,0,84740,86127,1,0
Sprite,Foreground,Centre,"SB\Slow.png",320,240 M,0,82312,,347,180 S,0,82312,,0.7183999 F,0,82312,83352,1 F,0,83352,84740,1 F,0,84740,86127,1,0
Sprite,Foreground,Centre,"SB\WARNING.png",320,240 M,0,82312,,350,213 F,0,82312,83006,0.7952001,0 S,0,82312,83006,0.6480002,0.8272002
Sprite,Foreground,Centre,"SB\Slow.png",320,240 M,0,82312,,347,180 F,0,82312,83006,0.8656,0 S,0,82312,83006,0.7183999,0.8719997
//Storyboard Sound Samples
//Background Colour Transformations
3,100,163,162,255

[TimingPoints]
140,346.820809248555,4,1,0,60,1,0
5515,-100,4,1,0,30,0,0
11151,-100,4,2,0,30,0,0
11324,-100,4,1,0,25,0,0
13926,-100,4,2,0,20,0,0
14099,-100,4,1,0,35,0,0
16007,-50,4,1,0,50,0,0
16700,-100,4,1,0,60,0,0
83250,-200,4,1,0,60,0,0
86040,-200,4,1,0,5,0,0
91487,-100,4,1,0,60,0,0

[Colours]
Combo1 : 0,255,128
Combo2 : 255,255,255
Combo3 : 255,0,128

[HitObjects]
40,64,140,2,0,B|144:64,1,99.9999952316285
184,136,486,1,8
264,136,660,2,0,B|464:136,1,200
464,216,1180,2,0,B|360:216,1,100,8|0
224,296,1527,6,0,B|328:296,1,100,8|0
324,296,1874,1,0
324,296,2047,1,8
360,224,2220,5,8
384,224,2307,1,8
400,224,2394,1,8
416,224,2481,1,8
168,328,2914,6,0,B|64:328,1,100,0|0
88,248,3261,1,8
112,168,3434,1,8
40,128,3608,5,8
256,48,3781,1,8
472,128,3955,1,8
472,128,4128,5,0
472,128,4215,1,0
472,128,4301,1,0
256,192,4475,12,4,5342
40,312,5689,1,0
40,312,5862,1,0
40,232,6035,1,0
40,152,6209,1,0
184,312,6556,5,0
184,232,6729,1,0
184,152,6903,1,0
328,312,7249,5,0
328,232,7423,1,0
328,152,7596,1,0
472,312,7943,5,0
472,232,8116,1,0
472,152,8290,1,0
40,312,8637,5,0
40,232,8810,1,0
40,152,8983,1,0
184,312,9330,5,0
184,232,9504,1,0
184,152,9677,1,0
328,312,10024,5,0
328,232,10197,1,0
328,152,10371,1,0
472,312,10718,5,0
472,232,10891,1,0
472,152,11064,1,0
472,72,11238,5,4
400,104,11411,1,0
328,72,11585,1,0
256,104,11758,1,0
112,280,12105,5,0
184,312,12278,1,0
256,280,12452,1,0
168,48,12798,5,0
136,120,12972,1,0
168,192,13145,1,0
344,336,13492,5,0
376,264,13666,1,0
344,192,13839,1,0
376,120,14012,1,4
256,96,14879,5,2
256,176,15053,1,2
256,256,15226,1,2
144,264,15573,6,2,B|80:232|80:232|80:88,1,200
224,32,16093,6,0,B|392:32|392:32|392:208|392:208|224:208|224:208|224:112,1,599.999971389771
144,120,16787,2,0,B|88:88|40:128,1,99.9999952316284,4|0
48,200,17134,1,0
48,200,17220,1,0
48,200,17307,1,0
96,264,17481,1,0
136,256,17567,2,0,B|248:256,2,99.9999952316284,0|0|0
96,264,18001,1,0
144,328,18174,6,0,B|256:328,1,99.9999952316284
320,344,18521,1,0
320,344,18608,1,0
320,344,18694,1,0
376,288,18868,1,0
392,256,18955,2,0,B|392:152,2,99.9999952316284
376,288,19388,1,0
312,240,19561,6,0,B|312:120,1,99.9999952316284
256,80,19908,2,0,B|256:24,2,49.9999976158142
192,128,20255,1,0
152,120,20342,2,0,B|48:120,2,99.9999952316284
192,128,20775,1,0
176,208,20949,5,0
200,280,21122,1,0
272,312,21296,2,0,B|320:312,2,49.9999976158142
288,232,21642,1,0
320,208,21729,2,0,B|432:208,2,99.9999952316284
288,184,22163,1,0
336,120,22336,5,4
288,56,22509,1,0
248,48,22596,1,0
168,56,22770,1,0
128,64,22856,1,0
72,120,23030,1,8
56,160,23116,1,0
48,200,23203,1,0
56,240,23290,1,0
64,280,23376,1,8
120,336,23550,1,0
120,336,23723,5,0
184,288,23897,2,0,B|200:240,1,49.9999976158143
256,184,24157,2,0,B|272:136,1,49.9999976158143
328,80,24417,6,0,B|344:32,4,49.9999976158143,8|0|0|0|8
256,40,24937,1,0
184,80,25111,1,0
104,88,25284,1,0
80,120,25371,1,0
72,200,25544,1,0
88,240,25631,1,0
144,296,25804,1,8
184,288,25891,1,0
224,288,25978,1,0
264,288,26064,1,0
304,296,26151,1,8
376,328,26324,1,0
440,280,26498,6,0,B|464:232|440:176,1,99.9999952316285
400,184,26758,2,0,B|352:200|288:176|288:176,1,99.9999952316285
264,192,27018,1,0
264,112,27192,5,8
264,272,27365,1,8
264,32,27538,1,8
264,352,27712,1,8
344,328,27885,5,4
416,288,28059,2,0,B|408:232,1,49.9999976158143
456,176,28319,2,0,B|448:120,1,49.9999976158143
384,80,28579,2,0,B|376:24,1,49.9999976158143
256,72,28926,5,8
256,256,29099,1,8
168,328,29272,5,0
96,288,29446,2,0,B|104:232,1,49.9999976158143
56,176,29706,2,0,B|64:120,1,49.9999976158143
128,80,29966,2,0,B|136:24,1,49.9999976158143
256,48,30313,5,8
256,256,30486,1,8
256,176,30660,5,0
328,136,30833,2,0,B|328:80,1,49.9999976158143
176,144,31093,2,0,B|176:200,1,49.9999976158143
328,240,31353,2,0,B|328:192,1,49.9999976158143
88,192,31700,5,8
256,192,31874,1,8
416,192,32047,1,8
472,136,32220,6,0,B|472:80,1,49.9999976158143
344,184,32481,2,0,B|344:120,1,49.9999976158143
296,72,32741,1,0
256,56,32827,2,0,B|104:40,1,149.999992847443
32,72,33261,1,0
56,152,33434,5,4
104,216,33608,1,0
112,256,33694,1,0
168,312,33868,1,0
200,336,33955,1,0
272,296,34128,1,8
264,256,34215,1,0
264,216,34301,1,0
272,176,34388,1,0
296,144,34475,2,0,B|400:144,1,99.9999952316285,8|0
448,80,34822,5,0
384,32,34995,2,0,B|336:40,1,49.9999976158143
256,64,35255,2,0,B|208:72,1,49.9999976158143
144,120,35515,2,0,B|88:128,4,49.9999976158143,8|0|0|0|8
144,200,36035,1,0
120,280,36209,6,0,B|248:280,1,99.9999952316285
248,304,36469,2,0,B|304:280|352:312,1,99.9999952316285
384,320,36729,1,0
448,264,36903,1,8
448,264,36989,1,0
448,264,37076,1,0
448,264,37163,1,0
448,264,37249,1,8
448,184,37423,1,0
368,160,37596,6,0,B|320:136|264:160,1,99.9999952316285
256,192,37856,2,0,B|208:208|144:184|144:184,1,99.9999952316285
120,168,38116,1,0
48,128,38290,5,8
184,40,38463,1,8
344,40,38637,1,8
480,120,38810,1,8
480,120,38983,5,4
480,200,39157,2,0,B|424:200|424:200,1,49.9999976158143
464,272,39417,2,0,B|416:272,1,49.9999976158143
336,304,39677,1,8
296,312,39764,1,0
256,312,39850,1,0
216,304,39937,1,0
184,288,40024,1,8
152,216,40197,5,8
112,328,40371,1,8
56,272,40544,5,0
48,232,40631,1,0
56,152,40804,2,0,B|48:96,1,49.9999976158143
120,48,41064,5,8
160,48,41151,1,0
200,48,41238,1,0
240,48,41324,1,0
280,48,41411,1,8
280,48,41585,1,8
256,128,41758,5,8
168,176,41931,2,0,B|128:208|120:208,1,49.9999976158143
344,176,42192,2,0,B|392:200,1,49.9999976158143
256,232,42452,5,8
256,264,42538,1,0
256,296,42625,1,0
256,328,42712,1,0
256,360,42798,1,8
256,360,42972,1,8
256,128,43145,5,8
152,72,43319,2,0,B|104:112,1,49.9999976158143,0|0
360,72,43579,2,0,B|408:112,1,49.9999976158143,0|0
256,168,43839,5,8
256,200,43926,1,0
256,232,44012,1,0
256,264,44099,1,0
256,296,44186,1,8
256,296,44359,1,8
256,72,44533,5,12
144,160,44706,2,0,B|96:192,1,49.9999976158143,8|0
368,160,44966,2,0,B|416:192,1,49.9999976158143,8|0
256,144,45226,5,12
144,232,45400,2,8,B|96:264,1,49.9999976158143
368,232,45660,2,0,B|416:264,1,49.9999976158143,8|0
256,32,45920,5,12
144,120,46093,2,0,B|96:152,1,49.9999976158143,8|0
368,120,46353,2,0,B|416:152,1,49.9999976158143,8|0
256,216,46613,5,12
144,304,46787,2,0,B|96:336,1,49.9999976158143,8|0
368,304,47047,2,0,B|416:336,1,49.9999976158143,8|0
464,272,47307,5,12
472,248,47394,1,0
480,216,47481,1,0
472,184,47567,1,0
456,160,47654,1,8
440,136,47741,1,0
440,104,47827,1,0
448,80,47914,1,0
464,56,48001,1,8
440,40,48087,1,0
408,32,48174,1,0
376,32,48261,1,0
344,32,48348,1,8
184,40,48694,5,4
64,176,48955,1,4
176,312,49215,1,4
352,272,49475,1,4
344,96,49735,5,4
264,184,49908,1,4
144,176,50082,5,6
168,152,50168,1,0
192,128,50255,1,0
216,112,50342,1,0
240,96,50429,1,2
264,88,50515,1,0
296,80,50602,1,0
328,80,50689,1,0
360,80,50775,1,2
392,88,50862,1,0
416,104,50949,1,0
440,128,51035,1,0
456,152,51122,2,0,B|472:200,3,49.9999976158143,2|0|2|0
480,232,51469,1,2
432,296,51642,6,0,B|384:312,1,49.9999976158143,8|0
304,320,51903,2,0,B|256:312,1,49.9999976158143,8|0
176,312,52163,1,0
144,296,52249,2,0,B|80:216,1,99.9999952316285,8|0
56,192,52509,5,2
64,160,52596,1,2
64,128,52683,1,0
56,96,52770,1,2
56,64,52856,2,0,B|160:56,1,99.9999952316285,2|0
168,88,53116,2,0,B|272:80,1,99.9999952316285,2|0
296,80,53376,5,0
328,88,53463,1,0
360,96,53550,1,0
392,104,53637,2,0,B|496:88,1,99.9999952316285,2|0
496,120,53897,2,0,B|488:224,1,99.9999952316285,2|0
440,288,54244,1,0
368,320,54417,2,0,B|312:320,1,49.9999976158143,8|0
144,320,54677,2,0,B|200:320,1,49.9999976158143,8|0
200,240,54937,5,2
200,208,55024,1,2
200,176,55111,1,2
200,144,55197,1,2
264,88,55371,1,2
264,56,55457,1,2
344,32,55631,1,4
408,80,55804,5,0
408,112,55891,1,0
416,144,55978,1,2
424,176,56064,1,0
432,208,56151,1,0
416,232,56238,1,0
392,248,56324,1,2
360,248,56411,1,0
328,240,56498,1,0
296,248,56585,1,0
280,272,56671,1,2
280,304,56758,1,0
272,336,56845,2,2,B|200:344,1,49.9999976158143
192,344,57018,6,2,B|144:256,1,99.9999952316285,0|0
120,240,57278,2,2,B|72:144,1,99.9999952316285
64,120,57538,1,8
104,48,57712,1,0
136,56,57798,2,0,B|248:56,1,99.9999952316285,8|0
264,56,58059,1,2
296,56,58145,1,2
328,56,58232,1,0
360,56,58319,1,2
392,56,58405,5,2
432,120,58579,2,0,B|432:192,1,49.9999976158143,8|0
376,320,58839,2,0,B|376:256,1,49.9999976158143,8|0
320,120,59099,1,0
288,136,59186,2,0,B|184:136,1,99.9999952316285,8|0
152,160,59446,2,0,B|40:160|48:160,1,99.9999952316285,8|0
48,240,59793,5,0
104,296,59966,1,8
128,312,60053,1,0
208,312,60226,1,8
232,296,60313,1,0
312,272,60486,6,2,B|336:224,3,49.9999976158143
408,200,60920,5,2
448,208,61007,1,0
480,136,61180,2,0,B|392:48,1,99.9999952316285,6|0
384,48,61440,5,0
352,40,61527,1,2
320,40,61613,1,0
288,40,61700,1,0
256,40,61787,1,0
224,40,61874,1,2
192,48,61960,1,0
168,64,62047,1,0
144,80,62134,1,0
136,104,62220,2,0,B|144:216,1,99.9999952316285,2|2
144,232,62481,5,0
144,264,62567,1,2
200,320,62741,1,8
224,328,62827,1,0
304,304,63001,2,8,B|376:296,1,49.9999976158143
424,256,63261,2,0,B|448:208,3,49.9999976158143,0|0|0|0
448,184,63608,5,2
440,152,63694,1,2
440,120,63781,1,0
440,88,63868,1,2
448,56,63955,2,0,B|344:32,1,99.9999952316285,2|0
312,48,64215,2,0,B|192:24,1,99.9999952316285,2|0
176,40,64475,1,0
136,40,64561,2,8,B|48:88,2,99.9999952316285
176,40,64995,5,0
240,88,65168,1,0
240,168,65342,1,2
176,216,65515,5,2
144,232,65602,1,2
304,216,65775,1,2
336,232,65862,1,2
240,168,66035,6,2,B|240:112,3,49.9999976158143
240,304,66469,5,2
240,272,66556,1,0
160,288,66729,2,0,B|64:248,1,99.9999952316285,6|0
48,232,66989,5,0
40,200,67076,1,2
40,168,67163,1,0
48,136,67249,1,0
64,112,67336,1,0
80,88,67423,1,2
104,72,67509,1,0
128,64,67596,1,0
160,64,67683,1,0
192,72,67770,2,0,B|312:72,1,99.9999952316285,2|2
320,72,68030,1,0
352,72,68116,1,6
392,144,68290,6,0,B|344:160,1,49.9999976158143,8|0
280,208,68550,2,0,B|232:200,1,49.9999976158143,8|0
160,160,68810,1,0
120,176,68897,2,0,B|88:272,1,99.9999952316285,8|0
104,304,69157,5,2
144,304,69244,1,2
184,312,69330,1,0
224,328,69417,1,2
256,344,69504,2,0,B|360:336,1,99.9999952316285,6|0
376,296,69764,2,2,B|480:288,1,99.9999952316285
488,248,70024,5,2
488,208,70111,1,0
480,168,70197,1,6
464,136,70284,2,0,B|360:120,1,99.9999952316285,10|0
328,120,70544,2,0,B|224:104,1,99.9999952316285,8|0
152,88,70891,1,4
88,136,71064,2,0,B|32:136,1,49.9999976158143,8|0
136,264,71324,2,0,B|192:264,1,49.9999976158143,8|0
248,216,71585,5,2
280,216,71671,1,2
312,216,71758,1,2
344,216,71845,1,2
400,280,72018,1,2
432,280,72105,1,2
480,216,72278,5,4
256,136,72538,1,4
496,136,72798,1,4
272,56,73059,1,4
48,136,73319,5,4
200,80,73492,1,4
256,136,73666,2,0,B|256:240,1,99.9999952316285
256,312,74012,1,0
256,312,74099,1,0
256,312,74186,1,0
328,344,74359,1,0
352,312,74446,2,0,B|352:208,2,99.9999952316285
376,344,74879,1,0
448,304,75053,5,4
224,224,75313,1,4
464,224,75573,1,4
240,144,75833,1,4
16,224,76093,5,4
168,168,76267,1,4
224,224,76440,2,0,B|328:224,1,99.9999952316285
400,224,76787,1,0
400,224,76874,1,0
400,224,76960,1,0
456,160,77134,1,0
440,128,77220,2,0,B|440:16,2,99.9999952316285
456,160,77654,1,0
480,240,77827,5,4
256,336,78087,1,4
40,240,78348,1,4
256,336,78608,1,4
256,96,78868,5,4
256,256,79041,1,4
192,208,79215,1,0
192,208,79388,1,0
136,152,79561,2,0,B|80:152,2,49.9999976158143
136,72,79908,1,0
168,56,79995,2,0,B|288:56,2,99.9999952316285
136,72,80429,1,0
56,72,80602,5,4
296,72,80862,1,4
176,280,81122,1,4
56,72,81382,1,4
296,72,81642,5,4
416,184,81816,1,4
352,232,81989,2,0,B|240:232,1,99.9999952316285
184,192,82336,1,0
168,192,82423,1,0
152,192,82509,1,0
80,152,82683,1,0
88,112,82770,2,0,B|200:112,2,99.9999952316285
80,72,83203,1,0
152,32,83376,6,2,B|400:32|400:32|400:264|400:264|152:264|152:264|152:184|152:184,1,799.999961853028
192,144,91700,6,0,B|176:96|200:40,1,99.9999952316285,4|0
320,240,92047,2,0,B|336:288|312:344,1,99.9999952316285
152,144,92394,6,0,B|136:96|160:40,1,99.9999952316285
360,240,92741,2,0,B|376:288|352:344,1,99.9999952316285
208,256,93087,6,0,B|160:272|104:248,1,99.9999952316285,4|0
304,128,93434,2,0,B|352:112|408:136,1,99.9999952316285
208,296,93781,6,0,B|160:312|104:288,1,99.9999952316285
304,88,94128,2,0,B|352:72|408:96,1,99.9999952316285
432,168,94475,2,0,B|432:272,1,99.9999952316285,4|0
384,336,94822,1,0
384,336,94995,1,0
256,240,95168,6,0,B|256:128,1,99.9999952316285,4|0
256,56,95515,1,0
256,56,95689,1,0
184,32,95862,5,4
112,264,96122,1,4
344,336,96382,1,4
416,104,96642,1,4
304,144,96903,5,0
264,152,96989,1,0
224,144,97076,1,0
184,128,97163,1,0
152,104,97249,2,0,B|56:80,1,99.9999952316285,4|0
24,104,97509,2,0,B|48:152|24:208,1,99.9999952316285
40,240,97770,5,0
56,272,97856,1,0
88,296,97943,2,0,B|136:320,3,49.9999976158143
176,320,98290,5,0
216,304,98376,1,0
256,304,98463,1,0
296,312,98550,1,0
336,328,98637,2,0,B|384:344,2,49.9999976158143
344,288,98897,2,0,B|376:192,1,99.9999952316285
400,160,99157,5,0
392,112,99244,1,0
360,80,99330,2,0,B|328:32,3,49.9999976158143
296,32,99677,5,0
256,40,99764,1,0
216,40,99850,1,0
176,40,99937,1,0
136,32,100024,2,0,B|88:128,1,99.9999952316285,4|0
128,144,100284,2,0,B|88:240,1,99.9999952316285
120,256,100544,1,0
160,264,100631,2,0,B|248:360,2,99.9999952316285
176,232,101064,2,0,B|248:152,1,99.9999952316285
312,120,101411,1,0
376,72,101585,6,0,B|448:56,1,49.9999976158143
376,312,101845,2,0,B|448:328,1,49.9999976158143
464,192,102105,5,0
432,192,102192,1,0
392,192,102278,1,0
352,192,102365,1,0
272,192,102538,5,0
232,192,102625,1,0
184,256,102798,6,0,B|88:288,1,99.9999952316285,4|0
56,256,103059,2,0,B|16:160,1,99.9999952316285
32,128,103319,1,0
48,88,103405,1,0
64,48,103492,2,0,B|120:32,3,49.9999976158143
152,32,103839,5,0
192,40,103926,1,0
232,48,104012,1,0
272,40,104099,1,0
312,40,104186,2,0,B|360:24,2,49.9999976158143,4|0|0
312,80,104446,2,0,B|424:112,1,99.9999952316285
440,136,104706,5,0
464,168,104793,1,0
448,208,104879,1,0
432,240,104966,2,0,B|432:352,1,99.9999952316285
392,344,105226,5,0
352,344,105313,1,0
312,352,105400,1,0
272,352,105486,1,0
232,352,105573,2,0,B|128:344,1,99.9999952316285,4|0
112,312,105833,2,0,B|120:200,1,99.9999952316285
152,184,106093,5,0
184,160,106180,1,0
216,136,106267,1,4
248,112,106353,2,0,B|256:8,1,99.9999952316285
288,32,106613,2,0,B|392:40,1,99.9999952316285
432,112,106960,1,4
368,168,107134,6,0,B|312:168,1,49.9999976158143
144,216,107394,2,0,B|200:216,1,49.9999976158143
256,272,107654,5,0
296,272,107741,1,0
336,272,107827,1,0
376,272,107914,1,0
256,112,108087,5,0
216,112,108174,1,0
144,72,108348,5,4
368,152,108608,1,4
128,152,108868,1,4
352,232,109128,1,4
112,256,109388,5,4
256,320,109561,1,4
312,264,109735,2,0,B|312:160,1,99.9999952316285
272,96,110082,1,0
272,96,110168,1,0
272,96,110255,1,0
192,72,110429,1,0
168,104,110515,2,0,B|168:208,2,99.9999952316285
144,72,110949,1,0
64,80,111122,5,4
288,160,111382,1,4
48,160,111642,1,4
272,240,111903,1,4
496,160,112163,5,4
344,216,112336,1,4
288,160,112509,2,0,B|184:160,1,99.9999952316285
112,160,112856,1,0
112,160,112943,1,0
112,160,113030,1,0
56,224,113203,1,0
72,256,113290,2,0,B|72:368,2,99.9999952316285
56,224,113723,1,0
32,144,113897,5,4
256,48,114157,1,4
472,144,114417,1,4
256,48,114677,1,4
256,288,114937,5,4
256,128,115111,1,4
320,176,115284,1,0
320,176,115457,1,0
376,232,115631,2,0,B|432:232,2,49.9999976158143
376,312,115978,1,0
344,328,116064,2,0,B|224:328,2,99.9999952316285
376,312,116498,1,0
456,312,116671,5,4
216,312,116931,1,4
336,104,117192,1,4
456,312,117452,1,4
216,312,117712,5,4
96,200,117885,1,4
160,152,118059,2,0,B|272:152,1,99.9999952316285
328,192,118405,1,0
344,192,118492,1,0
360,192,118579,1,0
432,232,118752,1,0
424,272,118839,2,0,B|312:272,2,99.9999952316285,0|0|0
432,312,119272,1,0
