osu file format v9

[General]
AudioFilename: FLOWER.mp3
AudioLeadIn: 1500
PreviewTime: 38983
Countdown: 0
SampleSet: Normal
StackLeniency: 0.4
Mode: 0
LetterboxInBreaks: 1

[Editor]
DistanceSpacing: 1
BeatDivisor: 4
GridSize: 4

[Metadata]
Title:FLOWER
Artist:DJ YOSHITAKA
Creator:MForever
Version:ADVANCED
Source:Jubeat Knit/Reflec Beat APPEND
Tags:jubeat knit reflecbeat patchoul muya Numbers 596108

[Difficulty]
HPDrainRate:5
CircleSize:4
OverallDifficulty:7
ApproachRate:8
SliderMultiplier:1.6
SliderTickRate:0.5

[Events]
//Background and Video events
0,0,"Black_Floral_by_Daemonika.jpg"
//Break Periods
2,5689,16037
2,86350,90950
//Storyboard Layer 0 (Background)
//Storyboard Layer 1 (Fail)
//Storyboard Layer 2 (Pass)
//Storyboard Layer 3 (Foreground)
//Storyboard Sound Samples
//Background Colour Transformations
3,100,163,162,255

[TimingPoints]
140,346.820809248555,4,1,1,60,1,0
5342,-100,4,1,1,100,0,0
5689,-100,4,2,1,60,0,0
47307,-100,4,1,1,10,0,0
47481,-100,4,1,1,15,0,0
47654,-100,4,1,1,20,0,0
47827,-100,4,1,1,25,0,0
48001,-100,4,1,1,30,0,0
48174,-100,4,1,1,35,0,0
48348,-100,4,1,1,100,0,0
48694,-100,4,1,1,60,0,0
83376,-200,4,1,1,60,0,0
84070,-200,4,1,1,0,0,0
84113,-200,4,1,1,60,0,0
84764,-200,4,1,1,0,0,0
84807,-200,4,1,1,60,0,0
85457,-200,4,1,1,0,0,0
85501,-200,4,1,1,60,0,0
91700,-100,4,2,1,60,0,0
95862,-100,4,1,1,60,0,0
119099,-100,4,1,1,100,0,0

[Colours]
Combo1 : 0,255,128
Combo2 : 0,64,128
Combo3 : 255,0,128

[HitObjects]
44,49,140,2,0,B|13:138|57:240,1,160,0|8
162,357,833,2,0,B|193:268|149:166,1,160,0|8
246,26,1527,2,0,B|233:73|255:127,1,80,8|0
319,139,1874,2,0,B|332:92|310:38,1,80,0|8
390,27,2220,1,8
403,56,2307,1,0
416,85,2394,2,0,B|438:134,2,40,8|0|8
477,266,2914,6,0,B|414:329|304:312,1,160,0|8
257,280,3434,2,0,B|217:264|177:280,1,80,0|8
141,350,3781,2,0,B|181:366|221:350,2,80,0|8|0
86,290,4301,2,0,B|2:201|34:66|34:66|155:153|146:268,1,480
438,27,16787,6,0,B|451:76|434:131,1,80,4|2
368,69,17134,2,0,B|348:145|370:240,1,160,0|2
388,304,17654,2,0,B|474:304,2,80,0|2|0
332,361,18174,2,0,B|247:378|158:361,1,160,0|2
95,342,18694,1,0
152,284,18868,1,2
152,284,18955,1,0
152,284,19041,1,0
74,262,19215,2,0,B|67:217|74:160,1,80,0|2
32,112,19561,6,0,B|112:92|220:118,1,160,0|2
268,132,20082,2,0,B|359:132,2,80,0|2|0
208,185,20602,2,0,B|189:268|212:349,1,160,2|0
285,371,21122,1,2
361,346,21296,1,2
361,346,21382,1,0
361,346,21469,1,0
299,295,21642,2,0,B|289:249|302:198,1,80,2|0
348,153,21989,2,0,B|358:107|345:56,1,80,2|0
278,34,22336,6,0,B|196:34,1,80,0|2
117,34,22683,1,2
117,34,22770,1,0
117,34,22856,1,0
79,104,23030,2,0,B|0:104,2,80,2|0|2
159,106,23550,1,0
159,106,23723,2,0,B|187:192|153:285,1,160,0|2
104,322,24244,2,0,B|25:322,2,80,0|2|0
179,350,24764,2,0,B|259:366|339:350,1,160,2|0
397,296,25284,5,2
324,263,25457,1,2
324,263,25544,1,0
324,263,25631,1,0
380,205,25804,2,0,B|424:213|460:205,1,80,2|0
496,133,26151,2,0,B|452:125|416:133,1,80,2|0
361,74,26498,2,0,B|267:75,1,80,0|2
209,39,26845,2,0,B|168:39,2,40,2|0|0
182,114,27192,1,2
166,192,27365,1,0
187,268,27538,1,2
171,346,27712,1,0
94,322,27885,6,0,B|11:322,2,80,4|0|8
126,246,28405,1,0
77,182,28579,2,0,B|54:98|78:17,2,160,0|8|0
155,166,29446,1,0
221,122,29619,2,0,B|307:118,1,80,8|0
349,54,29966,2,0,B|432:37|525:61,2,160,0|8|0
384,125,30833,5,0
384,125,31007,2,0,B|376:208,1,80,8|0
321,262,31353,2,0,B|393:297|492:269,2,160,0|8|0
247,230,32220,1,0
175,193,32394,2,0,B|104:193,2,40,8|0|0
185,272,32741,2,0,B|143:339|47:354,1,160,0|8
22,163,33434,6,0,B|105:163,1,80
173,125,33781,2,0,B|215:125,2,40,8|0|0
122,62,34128,2,0,B|195:33|302:56,1,160,0|8
355,78,34648,1,0
432,58,34822,2,0,B|412:168,1,80
435,214,35168,1,8
435,214,35255,1,0
435,214,35342,1,0
356,230,35515,2,0,B|288:271|166:254,1,160,0|8
121,245,36035,1,0
169,181,36209,6,0,B|149:79,1,80
90,53,36556,2,0,B|90:12,2,40,8|0|0
28,105,36903,2,0,B|0:191|36:286,1,160,0|8
88,315,37423,1,0
167,305,37596,2,0,B|264:310,1,80
317,270,37943,1,8
317,270,38030,1,0
317,270,38116,1,0
262,210,38290,2,0,B|250:169|265:111,1,80
335,158,38637,2,0,B|347:117|332:59,1,80,8|0
270,33,38983,5,6
139,93,39244,1,0
255,177,39504,1,0
269,33,39764,1,0
139,93,40024,1,0
218,102,40197,1,0
297,109,40371,5,2
441,124,40631,1,0
357,240,40891,1,0
297,110,41151,1,0
441,124,41411,1,0
366,161,41585,1,0
294,195,41758,5,2
167,265,42018,1,0
172,121,42278,1,0
294,195,42538,1,0
167,265,42798,1,0
210,197,42972,1,0
252,126,43145,5,2
379,196,43405,1,0
374,52,43665,1,0
252,126,43925,1,0
379,196,44185,1,0
336,128,44359,1,0
292,60,44533,5,2
148,60,44793,1,0
220,180,45053,1,0
220,100,45226,5,2
364,100,45486,1,0
292,220,45746,1,0
292,140,45920,5,2
148,140,46180,1,0
220,260,46440,1,0
220,180,46613,5,2
364,180,46874,1,0
292,300,47134,1,0
257,228,47307,5,0
257,204,47394,1,0
257,180,47481,1,0
257,156,47567,1,0
257,132,47654,2,0,B|257:92,3,40
257,68,48001,2,0,B|257:28,4,40,0|0|0|0|0
408,192,48694,5,0
408,192,48955,1,0
256,304,49215,1,0
256,304,49475,1,0
104,192,49735,1,0
104,192,49908,1,0
90,112,50082,6,0,B|181:112,1,80,4|0
233,62,50429,2,0,B|363:62,1,120,8|0
390,49,50775,2,0,B|398:89|390:129,1,80,0|0
318,235,51122,2,0,B|310:195|318:155,1,80,8|0
443,183,51469,2,0,B|474:264|440:358,1,160,0|8
365,367,51989,1,0
296,312,52163,2,0,B|256:320|216:312,1,80
134,213,52509,2,0,B|174:205|214:213,1,80,8|0
193,339,52856,6,0,B|102:339,1,80
43,379,53203,2,0,B|27:319|43:259,1,120,8|0
64,226,53550,2,0,B|64:109,1,80
152,53,53897,2,0,B|136:133|152:213,1,160,8|0
280,211,54417,1,0
280,211,54590,2,0,B|296:131|280:51,1,160,8|0
216,101,55111,2,0,B|216:181,1,80,0|8
443,341,55631,6,0,B|443:250,1,80,4|0
384,206,55978,2,0,B|384:75,1,120,8|0
359,54,56324,2,0,B|319:46|279:54,1,80
184,140,56671,2,0,B|224:148|264:140,1,80,8|0
166,56,57018,2,0,B|142:141|170:222,1,160,0|8
205,284,57538,1,0
285,283,57712,2,0,B|325:291|365:283,1,80
440,179,58059,2,0,B|400:171|360:179,1,80,8|0
345,52,58405,6,0,B|425:52,1,80,0|0
503,35,58752,2,0,B|519:91|503:155,1,120,8|0
474,181,59099,2,0,B|474:271,1,80
367,333,59446,2,0,B|291:349|207:333,1,160,8|0
209,204,59966,1,0
209,204,60139,2,0,B|285:188|369:204,1,160,8|0
319,267,60660,2,0,B|241:267,1,80,0|8
45,49,61180,6,0,B|52:95|92:147,1,80,4|0
139,170,61527,2,0,B|227:198|327:158,2,160,8|0|8
67,205,62394,1,0
67,205,62567,2,0,B|82:295,1,80
156,257,62914,2,0,B|211:286|283:286,1,120,8|0
306,305,63261,2,0,B|298:256|308:198,1,80
377,119,63608,2,0,B|385:168|375:226,1,80,8|0
303,94,63955,6,0,B|255:94|199:65,1,80,0|0
160,42,64301,2,0,B|82:75|54:184,2,160,8|0|8
173,121,65168,1,0
173,121,65342,2,0,B|206:199|171:307,1,160,0|8
274,364,65862,1,0
274,364,66035,2,0,B|241:286|276:178,1,160,0|8
443,45,66729,6,0,B|459:93|449:158,1,80,4|0
444,203,67076,2,0,B|422:285|343:333,2,160,8|0|8
379,155,67943,1,0
379,155,68116,2,0,B|300:156,1,80,4|0
252,90,68463,2,0,B|183:98|137:167,1,120,8|0
181,173,68810,2,0,B|192:216|181:264,1,80
108,356,69157,2,0,B|97:313|108:265,1,80,8|0
12,188,69504,6,0,B|50:174|94:187,1,80,4|0
167,208,69850,2,0,B|233:256|357:233,1,160,8|4
393,344,70371,1,0
393,344,70544,2,0,B|327:296|203:319,1,160,8|4
256,96,71585,5,0
256,128,71758,1,0
256,160,71931,1,0
256,192,72105,1,0
256,224,72278,5,4
359,324,72538,1,0
395,184,72798,1,4
256,225,73059,1,0
360,324,73319,1,4
338,247,73492,1,0
318,169,73666,6,0,B|308:125|322:67,1,80,0|8
369,28,74012,1,8
369,28,74099,1,0
369,28,74186,1,0
423,86,74359,2,0,B|454:176|411:272,1,160,8|0
367,301,74879,1,8
290,277,75053,5,4
187,377,75313,1,0
151,237,75573,1,4
290,278,75833,1,0
186,377,76093,1,4
208,300,76267,1,0
231,223,76440,6,0,B|238:181|228:137,1,80,0|8
176,83,76787,1,8
176,83,76874,1,0
176,83,76960,1,0
123,143,77134,2,0,B|103:229|131:325,1,160,0|8
176,362,77654,1,0
225,299,77827,5,4
369,299,78087,1,0
297,171,78348,1,4
225,299,78608,1,0
369,299,78868,1,4
299,259,79041,1,0
229,219,79215,6,0,B|185:186|173:129,1,80,0|8
164,78,79561,1,8
164,78,79648,1,0
164,78,79735,1,0
242,65,79908,2,0,B|324:100|350:189,1,160,0|8
356,259,80429,1,0
291,306,80602,5,4
147,306,80862,1,0
219,178,81122,1,4
291,306,81382,1,0
147,306,81642,1,4
217,266,81816,1,0
287,226,81989,6,0,B|315:193|315:129,1,80,0|8
302,73,82336,1,8
302,73,82423,1,0
302,73,82509,1,0
224,93,82683,2,0,B|162:147|162:263,1,160,0|8
186,312,83203,1,0
256,352,83376,6,2,B|304:224|208:176|256:32,2,320,2|0|4
233,30,91700,6,0,B|201:110,1,80,4|2
282,119,92047,2,0,B|314:199,1,80,0|2
233,210,92394,2,0,B|201:290,1,80,0|2
282,299,92741,2,0,B|314:379,1,80,0|2
408,352,93087,6,0,B|420:312|408:272,1,80,4|2
329,172,93434,2,0,B|317:212|329:252,1,80,0|2
446,199,93781,2,0,B|458:159|446:119,1,80,0|2
367,21,94128,2,0,B|355:61|367:101,1,80,0|2
436,60,94475,6,0,B|338:53|260:107,1,160,4|2
76,324,95168,2,0,B|174:331|252:277,1,160,4|2
256,48,95862,5,4
384,192,96122,1,0
256,336,96382,1,0
128,192,96642,1,0
256,48,96903,1,0
256,48,97076,1,0
178,28,97249,6,0,B|166:117,1,80,4|0
95,72,97596,1,8
89,112,97683,1,0
84,151,97770,2,0,B|72:240,2,80
158,182,98290,2,0,B|170:240|156:308,1,120,8|0
125,325,98637,2,0,B|164:341|208:336,1,80,0|8
236,313,98897,2,0,B|275:297|319:302,1,80,0|0
350,307,99157,1,8
440,217,99330,2,0,B|360:240|257:217,1,160,0|8
213,179,99850,1,0
270,122,100024,6,0,B|447:122,1,160,4|8
471,243,100544,1,0
471,243,100718,2,0,B|294:243,1,160,4|8
250,295,101238,1,0
250,295,101411,2,0,B|193:167|250:52,1,240,4|8
171,31,102105,1,0
171,31,102192,1,0
171,31,102278,2,0,B|87:31,2,80,0|8|0
160,110,102798,6,0,B|147:205,1,80,4|0
272,158,103145,2,0,B|259:253,1,80,8|0
384,206,103492,2,0,B|371:301,1,80
496,254,103839,2,0,B|483:349,1,80,8|0
409,359,104186,6,0,B|369:375|329:359,1,80,4|0
249,255,104533,2,0,B|289:239|329:255,1,80,8|0
249,359,104879,2,0,B|209:375|169:359,1,80
89,255,105226,2,0,B|129:239|169:255,1,80,8|0
129,319,105573,6,0,B|105:239|121:159,1,160,4|8
383,65,106267,2,0,B|407:145|391:225,1,160,4|8
256,368,106960,1,4
256,32,107654,5,0
256,32,107827,1,0
256,32,108001,1,0
256,32,108174,1,0
200,90,108348,6,0,B|232:114|280:114|312:90,3,120,4|0|4|0
376,42,109301,1,0
384,82,109388,2,0,B|406:194,1,80,4|0
473,129,109735,2,0,B|516:202|491:300,1,160,0|8
455,353,110255,1,0
387,309,110429,1,8
387,309,110515,1,0
387,309,110602,2,0,B|357:275|355:223,2,80,0|8|0
313,341,111122,6,0,B|281:365|233:365|201:341,3,120,4|0|4|0
258,284,112076,1,0
219,273,112163,2,0,B|123:249,1,80,4|0
72,293,112509,2,0,B|52:232|77:164,1,120,8|8
94,140,112856,1,0
75,61,113030,2,0,B|182:75,1,80,8|0
190,53,113290,2,0,B|243:60,3,40,8|0|8|0
307,40,113723,1,0
373,85,113897,6,0,B|397:117|397:165|373:197,3,120,4|0|4|0
317,140,114850,1,0
299,176,114937,2,0,B|286:219|302:263,1,80,4|0
222,279,115284,2,0,B|250:342|342:354,1,120,8|8
353,342,115631,1,0
426,372,115804,2,0,B|435:268,1,80,8|0
457,260,116064,2,0,B|461:208,3,40,8|0|8|0
438,142,116498,1,0
463,66,116671,6,0,B|395:59|353:114,3,120,4|0|4|0
294,159,117625,1,0
262,184,117712,2,0,B|225:208|161:214,1,80,4|0
108,192,118059,2,0,B|108:328|256:408|420:328|420:192,1,480
