osu file format v11

[General]
AudioFilename: 14. Evans-prototype-.mp3
AudioLeadIn: 1000
PreviewTime: 61064
Countdown: 0
SampleSet: Normal
StackLeniency: 0.7
Mode: 0
LetterboxInBreaks: 1

[Editor]
DistanceSpacing: 1
BeatDivisor: 2
GridSize: 4

[Metadata]
Title:Evans -prototype-
TitleUnicode:Evans -prototype-
Artist:DJ YOSHITAKA
ArtistUnicode:DJ YOSHITAKA
Creator:HelloSCV
Version:Standard
Source:Beatmania IIDX
Tags:jubeat 17 sirius Dark Fang
BeatmapID:206338
BeatmapSetID:62205

[Difficulty]
HPDrainRate:3
CircleSize:3
OverallDifficulty:3
ApproachRate:5
SliderMultiplier:1.1
SliderTickRate:1

[Events]
//Background and Video events
0,0,"bg.jpg"
//Break Periods
//Storyboard Layer 0 (Background)
//Storyboard Layer 1 (Fail)
//Storyboard Layer 2 (Pass)
//Storyboard Layer 3 (Foreground)
//Storyboard Sound Samples
//Background Colour Transformations
3,100,163,162,255

[TimingPoints]
82,324.324324324324,4,2,0,70,1,0
12081,-100,4,1,1,60,0,0
22297,-100,4,2,0,30,0,0
24243,-100,4,2,0,50,0,0
24730,-100,4,2,0,70,0,0
35108,-100,4,1,1,70,0,0
45487,-100,4,2,1,70,0,0
61054,-100,4,1,1,70,0,1
71351,-100,4,1,1,70,0,0
71433,-100,4,1,1,70,0,1
81811,-100,4,2,0,70,0,0
92514,-100,4,1,1,70,0,1
102568,-100,4,2,0,5,0,0

[Colours]
Combo1 : 0,128,255
Combo2 : 239,239,239
Combo3 : 243,12,87

[HitObjects]
192,312,1379,2,0,P|132:296|108:252,1,110,4|2,0:0|0:0,0:0:0
120,148,2027,2,0,P|180:164|204:208,1,110,0|2,0:0|0:0,0:0:0
192,312,2676,1,0,0:0:0
296,272,3000,2,0,P|352:248,1,55,2|0,0:0|0:0,0:0:0
456,260,3487,2,0,P|448:196|412:164,1,110,0|2,0:0|0:0,0:0:0
360,164,3973,6,0,P|304:160|252:124,1,110,4|2,0:0|0:0,0:0:0
220,28,4622,2,0,P|276:32|328:68,1,110,0|2,0:0|0:0,0:0:0
360,164,5271,1,0,0:0:0
280,240,5595,2,0,P|244:284,1,55,2|0,0:0|0:0,0:0:0
172,364,6081,2,0,P|140:316|140:260,1,110,0|2,0:0|0:0,0:0:0
156,212,6568,6,0,P|176:160|176:100,1,110,4|6,0:0|0:0,0:0:0
272,52,7216,2,0,P|328:56|380:72,1,110,0|2,0:0|0:0,0:0:0
468,140,7865,1,0,0:0:0
436,244,8189,2,0,P|420:300,1,55,2|0,0:0|0:0,0:0:0
316,336,8676,2,0,P|268:304|208:304,1,110,0|2,0:0|0:0,0:0:0
164,304,9162,5,4,0:0:0
100,92,9811,1,4,0:0:0
320,64,10460,2,0,P|348:176,1,110,4|2,0:0|0:0,0:0:0
452,200,11108,2,0,P|425:93,1,110,6|2,0:0|0:0,0:0:0
320,64,11757,1,0,0:0:0
216,104,12081,6,0,P|160:120|104:120,1,110,12|0,0:0|0:0,0:0:0
24,192,12730,2,0,P|36:248|80:284,1,110,8|0,0:0|0:0,0:0:0
176,324,13379,1,8,0:0:0
280,292,13703,2,0,P|316:336,2,55,0|0|8,0:0|0:0|0:0,0:0:0
368,228,14352,6,0,P|406:186|420:131,1,110,0|8,0:0|0:0,0:0:0
308,136,15000,2,0,P|256:152|204:136,1,110,0|8,0:0|0:0,0:0:0
132,54,15649,2,0,P|105:99|104:156,1,110,4|8,0:2|0:0,0:0:0
124,264,16298,1,4,0:2:0
192,352,16622,1,12,0:2:0
300,348,16946,6,0,P|344:308|396:296,1,110,4|12,0:2|0:2,0:0:0
488,240,17595,1,0,0:0:0
488,132,17919,1,8,0:0:0
388,88,18243,2,0,P|340:76|296:36,1,110,4|8,0:2|0:0,0:0:0
184,36,18892,2,0,P|120:36,2,55,0|0|8,0:0|0:0|0:0,0:0:0
124,128,19541,6,0,P|124:180|164:228,1,110,4|8,0:2|0:0,0:0:0
268,244,20189,2,0,P|268:192|233:147,1,110,4|8,0:2|0:0,0:0:0
292,56,20838,2,0,P|408:44,1,110,4|8,0:2|0:0,0:0:0
468,132,21487,1,0,0:0:0
460,240,21811,1,12,0:2:0
256,192,22135,12,0,24243,0:0:0
76,268,24730,6,0,P|108:312|160:328,1,110,4|2,0:0|0:0,0:0:0
264,292,25379,2,0,P|232:248|180:232,1,110,0|2,0:0|0:0,0:0:0
144,192,25865,2,0,P|124:140|136:88,1,110,2|0,0:0|0:0,0:0:0
232,140,26514,2,0,P|288:136|340:100,1,110,0|2,0:0|0:0,0:0:0
424,48,27162,1,2,0:0:0
456,92,27325,6,0,P|484:144|484:196,1,110,0|2,0:0|0:0,0:0:0
376,176,27973,2,0,P|376:225|404:277,1,110,0|2,0:0|0:0,0:0:0
436,324,28460,2,0,P|396:364|344:376,2,110,2|0|2,0:0|0:0|0:0,0:0:0
468,220,29433,2,0,P|484:156,1,55,0|2,0:0|0:0,0:0:0
464,60,29919,6,0,P|416:84|360:84,1,110,0|2,0:0|0:0,0:0:0
252,76,30568,1,0,0:0:0
160,136,30892,1,2,0:0:0
120,172,31054,2,0,P|84:216|72:272,2,110,2|0|2,0:0|0:0|0:0,0:0:0
208,240,32027,2,0,P|248:280,1,55,0|2,0:0|0:0,0:0:0
356,252,32514,6,0,P|324:208|315:151,1,110,0|2,0:0|0:0,0:0:0
376,64,33162,2,0,P|408:108|416:164,1,110,0|2,0:0|0:0,0:0:0
428,216,33649,2,0,P|451:271|492:303,1,110,2|0,0:0|0:0,0:0:0
404,372,34298,2,0,P|360:340|300:328,1,110,0|2,0:0|0:0,0:0:0
196,332,34946,1,2,0:0:0
168,284,35108,6,0,P|120:184,1,110,4|8,0:0|0:0,0:0:0
184,96,35757,2,0,P|232:196,1,110,0|8,0:0|0:0,0:0:0
268,236,36243,2,0,P|316:264|376:268,1,110,0|0,0:0|0:0,0:0:0
352,160,36892,2,0,P|396:128|416:72,1,110
308,64,37541,1,0,0:0:0
252,68,37703,6,0,P|200:80|160:128,1,110,0|8,0:0|0:0,0:0:0
56,88,38352,2,0,P|60:148|80:192,1,110,0|8,0:0|0:0,0:0:0
116,236,38838,2,0,P|148:280|156:336,2,110
224,220,39811,2,0,P|280:212,1,55,0|8,0:0|0:0,0:0:0
388,192,40298,6,0,P|420:144|420:84,1,110,0|8,0:0|0:0,0:0:0
316,116,40946,2,0,P|264:100|208:112,1,110,0|8,0:0|0:0,0:0:0
180,156,41433,2,0,P|148:204|92:224,2,110
284,196,42406,2,0,P|270:249,1,55,0|8,0:0|0:0,0:0:0
244,356,42892,6,0,P|196:324|136:320,1,110,0|8,0:0|0:0,0:0:0
36,336,43541,2,0,P|48:280|88:232,1,110,0|8,0:0|0:0,0:0:0
132,216,44027,2,0,P|180:188|200:132,1,110
168,36,44676,2,0,P|120:64|100:120,1,110
132,216,45325,1,0,0:0:0
188,216,45487,6,0,P|304:216,1,110,4|2,0:0|0:0,0:0:0
408,204,46135,1,0,0:0:0
500,140,46460,1,2,0:0:0
484,32,46784,1,0,0:0:0
392,92,47108,2,0,P|344:116|280:116,1,110,2|0,0:0|0:0,0:0:0
180,112,47757,1,2,0:0:0
76,76,48081,1,4,0:0:0
80,188,48406,6,0,P|108:244|112:292,1,110,4|2,0:0|0:0,0:0:0
24,356,49054,1,0,0:0:0
132,376,49379,1,2,0:0:0
232,332,49703,2,0,P|284:312|344:308,1,110,0|2,0:0|0:0,0:0:0
448,320,50352,1,0,0:0:0
464,212,50676,1,6,0:0:0
436,104,51000,6,0,P|392:72|336:68,1,110,0|2,0:0|0:0,0:0:0
356,176,51649,2,0,P|300:168|256:140,1,110,0|6,0:0|0:0,0:0:0
174,67,52298,2,0,P|120:72|76:104,1,110,0|2,0:0|0:0,0:0:0
156,176,52946,2,0,P|212:168|256:140,1,110,0|4,0:0|0:0,0:0:0
344,204,53595,5,2,0:0:0
312,308,53919,1,4,0:0:0
204,308,54243,1,2,0:0:0
168,204,54568,1,4,0:0:0
256,140,54892,1,2,0:0:0
364,120,55216,2,0,P|412:144|436:196,1,110,4|2,0:0|0:0,0:0:0
256,192,55865,12,4,58460,0:0:0
152,112,59757,5,0,0:0:0
360,112,60406,1,0,0:0:0
256,304,61054,6,0,P|220:256|160:240,1,110,4|8,0:0|0:0,0:0:0
148,348,61703,2,0,P|102:332|66:284,1,110,0|8,0:0|0:0,0:0:0
60,228,62189,2,0,P|56:108,1,110,0|0,0:0|0:0,0:0:0
148,56,62838,1,0,0:0:0
156,164,63162,1,0,0:0:0
252,216,63487,5,0,0:0:0
268,164,63649,2,0,P|308:124|364:112,1,110,0|8,0:0|0:0,0:0:0
456,164,64298,2,0,P|416:204|360:216,1,110,0|8,0:0|0:0,0:0:0
328,256,64784,2,0,P|300:300|288:356,2,110,0|0|0,0:0|0:0|0:0,0:0:0
420,320,65757,2,0,P|452:272,1,55,0|8,0:0|0:0,0:0:0
456,164,66243,6,0,P|464:104|452:56,1,110,0|12,0:0|0:2,0:0:0
348,24,66892,1,0,0:0:0
276,104,67216,1,8,0:0:0
232,140,67379,2,0,P|184:168|128:176,2,110,4|0|0,0:2|0:0|0:0,0:0:0
144,76,68352,2,0,P|88:76,1,55,0|8,0:0|0:0,0:0:0
24,164,68838,6,0,P|28:216|68:264,1,110,4|8,0:2|0:0,0:0:0
172,280,69487,2,0,P|228:276|280:296,1,110,4|8,0:2|0:0,0:0:0
332,304,69973,2,0,P|388:304|440:276,1,110
356,204,70622,2,0,P|400:168|416:112,1,110
308,108,71271,1,0,0:0:0
256,124,71433,6,0,P|204:136|148:128,1,110,0|12,0:0|0:0,0:0:0
88,220,72081,2,0,P|128:260|144:320,1,110,0|8,0:0|0:0,0:0:0
140,364,72568,2,0,P|196:364|252:336,1,110
268,236,73216,1,0,0:0:0
360,176,73541,1,0,0:0:0
460,228,73865,5,0,0:0:0
468,172,74027,2,0,P|456:116|416:76,1,110,0|8,0:0|0:0,0:0:0
312,80,74676,2,0,P|256:84|208:60,1,110,0|8,0:0|0:0,0:0:0
160,40,75162,2,0,P|108:56|68:96,2,110
160,152,76135,2,0,P|160:208,1,55,0|8,0:0|0:0,0:0:0
108,304,76622,6,0,P|164:320|216:300,1,110,4|8,0:2|0:0,0:0:0
308,256,77271,1,0,0:0:0
368,164,77595,1,8,0:0:0
368,108,77757,2,0,P|380:56|432:24,2,110
476,132,78730,2,0,P|476:188,1,55,0|8,0:0|0:0,0:0:0
392,256,79216,6,0,P|356:300|292:308,1,110,4|8,0:2|0:0,0:0:0
240,224,79865,2,0,P|276:180|340:172,1,110,4|8,0:2|0:0,0:0:0
380,168,80352,2,0,P|432:168|476:128,1,110,4|4,0:2|0:2,0:0:0
380,72,81000,2,0,P|268:72,1,110
160,72,81649,1,4,0:2:0
108,88,81811,6,0,P|72:120|44:240,1,165,4|4,0:0|0:0,0:0:0
304,320,83108,2,0,P|340:288|368:168,2,165,2|2|2,0:0|0:0|0:0,0:0:0
196,336,84406,5,4,0:0:0
64,160,85054,1,4,0:0:0
284,148,85703,2,0,P|332:120|364:72,1,110,4|2,0:0|0:0,0:0:0
456,20,86352,2,0,P|468:80|456:128,1,110,4|2,0:0|0:0,0:0:0
404,224,87000,5,4,0:0:0
216,340,87649,1,2,0:0:0
156,248,87973,2,0,P|96:148,1,110,4|4,0:0|0:0,0:0:0
288,40,88946,1,2,0:0:0
348,132,89271,2,0,P|404:226,1,110,4|4,0:0|0:0,0:0:0
216,340,90243,1,4,0:0:0
232,120,90892,6,0,P|224:240,1,110,2|0,0:0|0:0,0:0:0
328,268,91541,2,0,P|335:158,1,110,2|0,0:0|0:0,0:0:0
344,48,92189,1,2,0:0:0
452,68,92514,6,0,P|476:120|480:172,1,110,12|0,0:0|0:0,0:0:0
456,280,93162,1,8,0:0:0
416,320,93325,2,0,P|364:344|312:344,1,110
200,344,93973,2,0,P|148:344|96:320,1,110
64,216,94622,5,0,0:0:0
108,180,94784,2,0,P|152:140|172:88,1,110,0|8,0:0|0:0,0:0:0
280,76,95433,2,0,P|326:109|358:155,1,110,0|8,0:0|0:0,0:0:0
372,204,95919,2,0,P|424:220|484:204,2,110
260,192,96892,2,0,P|196:192,1,55,0|8,0:0|0:0,0:0:0
108,140,97379,6,0,P|92:192|108:244,1,110,4|8,0:2|0:0,0:0:0
188,320,98027,1,4,0:2:0
296,324,98352,1,8,0:0:0
352,312,98514,2,0,P|408:296|444:248,2,110
344,204,99487,2,0,P|344:144,1,55,0|8,0:0|0:0,0:0:0
320,40,99973,6,0,P|264:56|236:108,1,110,4|8,0:2|0:0,0:0:0
176,188,100622,2,0,P|149:229|93:245,1,110,4|8,0:2|0:0,0:0:0
40,236,101108,2,0,P|24:288|32:348,1,110,4|0,0:2|0:0,0:0:0
140,352,101757,2,0,P|192:336|256:348,1,110,0|4,0:0|0:2,0:0:0
356,356,102406,1,0,0:0:0
256,192,102568,12,0,105162,0:0:0
