osu file format v11

[General]
AudioFilename: 14. Evans-prototype-.mp3
AudioLeadIn: 1000
PreviewTime: 61064
Countdown: 0
SampleSet: Soft
StackLeniency: 0.7
Mode: 0
LetterboxInBreaks: 1

[Editor]
DistanceSpacing: 1
BeatDivisor: 2
GridSize: 4

[Metadata]
Title:Evans -prototype-
TitleUnicode:Evans -prototype-
Artist:DJ YOSHITAKA
ArtistUnicode:DJ YOSHITAKA
Creator:HelloSCV
Version:Beginner
Source:Beatmania IIDX
Tags:jubeat 17 sirius Dark Fang
BeatmapID:206555
BeatmapSetID:62205

[Difficulty]
HPDrainRate:1
CircleSize:3
OverallDifficulty:1
ApproachRate:3
SliderMultiplier:0.8
SliderTickRate:1

[Events]
//Background and Video events
0,0,"bg.jpg"
//Break Periods
2,22335,23290
//Storyboard Layer 0 (Background)
//Storyboard Layer 1 (Fail)
//Storyboard Layer 2 (Pass)
//Storyboard Layer 3 (Foreground)
//Storyboard Sound Samples
//Background Colour Transformations
3,100,163,162,255

[TimingPoints]
82,324.324324324324,4,2,0,70,1,0
12081,-100,4,1,1,60,0,0
24730,-100,4,2,0,70,0,0
35108,-100,4,1,1,70,0,0
45487,-100,4,2,1,70,0,0
61054,-100,4,1,1,70,0,1
71351,-100,4,1,1,70,0,0
71433,-100,4,1,1,70,0,1
81811,-100,4,2,0,70,0,0
92514,-100,4,1,1,70,0,1
102568,-100,4,2,0,5,0,0

[Colours]
Combo1 : 0,128,255
Combo2 : 239,239,239
Combo3 : 243,12,87

[HitObjects]
48,224,1379,2,0,P|92:292|172:312,1,160,4|2,0:0|0:0,0:0:0
204,156,2676,2,0,P|248:88|328:68,1,160,0|4,0:0|0:0,0:0:0
400,80,3649,1,4,0:0:0
392,160,3973,6,0,P|364:244|404:316,1,160,4|2,0:0|0:0,0:0:0
240,348,5271,2,0,P|160:352|84:312,1,160,0|2,0:0|0:0,0:0:0
64,240,6243,1,0,0:0:0
72,160,6568,6,0,P|84:68,1,80,4|4,0:0|0:0,0:0:0
160,104,7216,2,0,P|149:183,1,80,2|0,0:0|0:0,0:0:0
152,264,7865,2,0,P|220:308|308:296,1,160,2|6,0:0|0:0,0:0:0
368,264,8838,1,4,0:0:0
380,184,9162,5,4,0:0:0
268,68,9811,1,4,0:0:0
220,220,10460,2,0,P|144:268,2,80,4|0|4,0:0|0:0|0:0,0:0:0
188,148,11433,2,0,P|255:105,1,80,0|2,0:0|0:0,0:0:0
328,76,12081,6,0,P|408:76|476:120,1,160,4|8,0:0|0:0,0:0:0
436,188,13054,2,0,P|400:256|420:336,1,160,0|0,0:0|0:0,0:0:0
340,356,14027,1,8,0:0:0
260,348,14352,6,0,P|180:336|128:272,1,160,0|0,0:0|0:0,0:0:0
100,204,15325,1,8,0:0:0
24,180,15649,2,0,P|88:128|160:152,2,160,4|4|4,0:2|0:2|0:2,0:0:0
48,256,17271,5,8,0:2:0
120,292,17595,2,0,P|204:328,1,80,0|8,0:0|0:0,0:0:0
268,352,18243,2,0,P|352:352|396:296,1,160,4|0,0:2|0:0,0:0:0
392,216,19216,1,8,0:0:0
356,144,19541,5,4,0:2:0
200,112,20189,1,4,0:2:0
108,244,20838,2,0,P|64:320,2,80,4|8|4,0:2|0:2|0:2,0:0:0
172,292,21811,2,0,P|212:222,1,80,8|4,0:0|0:2,0:0:0
252,176,24730,6,0,P|272:260|340:292,1,160,4|2,0:0|0:0,0:0:0
468,208,26027,2,0,P|448:124|380:92,1,160,0|2,0:0|0:0,0:0:0
308,92,27000,1,0,0:0:0
228,92,27325,6,0,P|148:116|112:192,1,160,0|2,0:0|0:0,0:0:0
260,248,28622,2,0,P|306:314|383:322,1,160,0|2,0:0|0:0,0:0:0
456,292,29595,1,0,0:0:0
424,220,29919,6,0,P|404:140|440:68,1,160,0|2,0:0|0:0,0:0:0
276,72,31216,2,0,P|112:72,1,160,0|2,0:0|0:0,0:0:0
44,104,32189,1,0,0:0:0
80,176,32514,6,0,P|104:256|80:332,1,160,0|2,0:0|0:0,0:0:0
240,348,33811,2,0,P|321:358|390:310,1,160,0|2,0:0|0:0,0:0:0
420,248,34784,1,0,0:0:0
348,212,35108,6,0,P|276:184|244:108,1,160,4|8,0:0|0:0,0:0:0
96,48,36406,2,0,P|128:124|136:204,1,160,0|8,0:0|0:0,0:0:0
108,276,37379,1,0,0:0:0
104,356,37703,6,0,P|184:340|264:356,1,160,0|8,0:0|0:0,0:0:0
420,336,39000,2,0,P|448:256|436:168,1,160,0|8,0:0|0:0,0:0:0
412,108,39973,1,0,0:0:0
332,112,40298,6,0,P|256:144|184:116,1,160,0|8,0:0|0:0,0:0:0
36,64,41595,2,0,P|36:148|68:216,1,160,0|8,0:0|0:0,0:0:0
136,256,42568,1,0,0:0:0
216,252,42892,6,0,P|284:224|364:245,1,160,0|8,0:0|0:0,0:0:0
500,332,44189,2,0,P|432:360|348:336,1,160,0|8,0:0|0:0,0:0:0
276,308,45162,1,0,0:0:0
200,336,45487,6,0,P|156:264,1,80,4|2,0:0|0:0,0:0:0
236,240,46136,2,0,P|192:168,1,80,0|2,0:0|0:0,0:0:0
156,100,46784,1,0,0:0:0
236,84,47108,2,0,P|316:72,2,80,2|0|2,0:0|0:0|0:0,0:0:0
156,100,48081,5,4,0:0:0
104,164,48406,2,0,P|52:232,1,80,4|2,0:0|0:0,0:0:0
80,304,49054,2,0,P|164:304,1,80,0|2,0:0|0:0,0:0:0
240,304,49703,6,0,P|328:264,1,80,0|2,0:0|0:0,0:0:0
368,216,50352,1,4,0:0:0
368,136,50676,5,4,0:0:0
224,68,51325,1,2,0:0:0
148,208,51973,1,4,0:0:0
292,280,52622,1,2,0:0:0
368,136,53271,6,0,P|208:184,1,160,4|4,0:0|0:0,0:0:0
68,248,54568,2,0,P|228:296,1,160,4|4,0:0|0:0,0:0:0
256,192,55865,12,4,58460,0:0:0
120,76,59757,5,0,0:0:0
252,164,60406,1,0,0:0:0
392,76,61054,6,0,P|392:156|344:228,1,160,4|8,0:0|0:0,0:0:0
228,120,62352,2,0,P|166:171|80:180,1,160,0|8,0:0|0:0,0:0:0
12,196,63325,1,0,0:0:0
48,268,63649,6,0,P|112:312|200:316,1,160,0|8,0:0|0:0,0:0:0
324,224,64946,2,0,P|260:180|172:176,1,160,4|12,0:2|0:2,0:0:0
108,208,65919,1,0,0:0:0
112,128,66243,6,0,P|164:72|248:48,1,160,0|8,0:0|0:0,0:0:0
392,108,67541,2,0,P|404:188|368:276,1,160,4|8,0:2|0:0,0:0:0
312,308,68514,1,0,0:0:0
232,304,68838,6,0,P|160:264|80:288,1,160,4|12,0:2|0:2,0:0:0
92,120,70135,2,0,P|163:137|235:97,1,160,4|4,0:2|0:2,0:0:0
300,52,71108,1,4,0:2:0
376,28,71433,6,0,P|388:192,1,160,4|8,0:0|0:0,0:0:0
276,304,72730,2,0,P|264:144,1,160,0|8,0:0|0:0,0:0:0
256,64,73703,1,0,0:0:0
328,96,74027,6,0,P|400:140|444:220,1,160,0|8,0:0|0:0,0:0:0
280,204,75325,2,0,P|208:232|184:312,1,160,4|4,0:2|0:2,0:0:0
136,372,76298,1,0,0:0:0
88,308,76622,6,0,P|72:236|92:152,1,160,4|8,0:2|0:0,0:0:0
156,108,77595,1,0,0:0:0
224,148,77919,2,0,P|304:152|372:100,1,160,4|8,0:2|0:0,0:0:0
432,60,78892,1,0,0:0:0
456,136,79216,6,0,P|436:216|436:296,1,160,4|8,0:2|0:2,0:0:0
292,368,80514,2,0,P|312:288|312:208,1,160,4|4,0:2|0:2,0:0:0
300,132,81487,1,4,0:2:0
228,96,81811,6,0,P|140:96,1,80,0|4,0:0|0:0,0:0:0
44,312,83108,2,0,P|124:312,1,80,0|2,0:0|0:0,0:0:0
144,236,83757,2,0,P|224:236,1,80,4|6,0:0|0:0,0:0:0
304,236,84406,5,4,0:0:0
464,220,85054,1,4,0:0:0
448,60,85703,2,0,P|368:68,1,80,4|4,0:0|0:0,0:0:0
288,76,86352,1,4,0:0:0
156,168,87000,5,4,0:0:0
304,236,87649,1,2,0:0:0
164,316,88298,2,0,P|80:304|32:244,1,160,4|2,0:0|0:0,0:0:0
48,172,89271,6,0,P|64:136|56:96,1,80,4|4,0:0|0:0,0:0:0
212,64,90243,1,4,0:0:0
356,132,90892,2,0,P|372:208|352:304,1,160,2|2,0:0|0:0,0:0:0
304,348,91865,1,0,0:0:0
224,356,92189,1,2,0:0:0
180,288,92514,6,0,P|140:212,1,80,4|8,0:0|0:0,0:0:0
124,60,93487,2,0,P|208:64|264:112,1,160,0|8,0:0|0:0,0:0:0
284,188,94460,1,0,0:0:0
324,260,94784,6,0,P|392:308|476:292,1,160,0|8,0:0|0:0,0:0:0
500,144,96081,2,0,P|432:96|348:112,1,160,4|8,0:2|0:0,0:0:0
324,176,97054,1,4,0:2:0
244,176,97379,6,0,P|164:188|164:188|80:224,1,160,4|8,0:2|0:0,0:0:0
228,304,98676,2,0,P|308:292|308:292|392:256,1,160,4|8,0:2|0:0,0:0:0
448,216,99649,1,4,0:2:0
456,136,99973,6,0,P|380:140|308:88,1,160,4|12,0:2|0:2,0:0:0
224,228,101271,2,0,P|156:182|80:186,1,160,4|4,0:2|0:2,0:0:0
16,232,102243,1,4,0:2:0
256,192,102568,12,0,105162,0:0:0
