osu file format v11

[General]
AudioFilename: 14. Evans-prototype-.mp3
AudioLeadIn: 1000
PreviewTime: 61064
Countdown: 0
SampleSet: Soft
StackLeniency: 0.7
Mode: 0
LetterboxInBreaks: 1

[Editor]
DistanceSpacing: 1
BeatDivisor: 4
GridSize: 4

[Metadata]
Title:Evans -prototype-
TitleUnicode:Evans -prototype-
Artist:DJ YOSHITAKA
ArtistUnicode:DJ YOSHITAKA
Creator:HelloSCV
Version:Another
Source:Beatmania IIDX
Tags:jubeat 17 sirius Dark Fang
BeatmapID:184819
BeatmapSetID:62205

[Difficulty]
HPDrainRate:7
CircleSize:4
OverallDifficulty:7
ApproachRate:9
SliderMultiplier:1.7
SliderTickRate:1

[Events]
//Background and Video events
0,0,"bg.jpg"
//Break Periods
//Storyboard Layer 0 (Background)
//Storyboard Layer 1 (Fail)
//Storyboard Layer 2 (Pass)
//Storyboard Layer 3 (Foreground)
//Storyboard Sound Samples
//Background Colour Transformations
3,100,163,162,255

[TimingPoints]
82,324.324324324324,4,2,0,70,1,0
12081,-100,4,1,1,60,0,0
22297,-100,4,2,0,30,0,0
23919,-100,4,2,0,5,0,0
24243,-100,4,2,0,50,0,0
24730,-100,4,2,0,70,0,0
26027,-100,4,2,0,35,0,0
26189,-100,4,2,0,70,0,0
26351,-100,4,2,0,35,0,0
26514,-100,4,2,0,70,0,0
26676,-100,4,2,0,35,0,0
26838,-100,4,2,0,70,0,0
27000,-100,4,2,0,35,0,0
27162,-100,4,2,0,70,0,0
28460,-100,4,2,0,70,0,0
28622,-100,4,2,0,35,0,0
28784,-100,4,2,0,70,0,0
28946,-100,4,2,0,35,0,0
29108,-100,4,2,0,70,0,0
29270,-100,4,2,0,35,0,0
29433,-100,4,2,0,70,0,0
31216,-100,4,2,0,35,0,0
31378,-100,4,2,0,70,0,0
31541,-100,4,2,0,35,0,0
31703,-100,4,2,0,70,0,0
31865,-100,4,2,0,35,0,0
32027,-100,4,2,0,70,0,0
33811,-100,4,2,0,35,0,0
33973,-100,4,2,0,70,0,0
34135,-100,4,2,0,35,0,0
34297,-100,4,2,0,70,0,0
34460,-100,4,2,0,35,0,0
34622,-100,4,2,0,70,0,0
34784,-100,4,2,0,35,0,0
34946,-100,4,2,0,70,0,0
35108,-100,4,1,1,70,0,0
36406,-100,4,1,1,35,0,0
36568,-100,4,1,1,70,0,0
36730,-100,4,1,1,35,0,0
36892,-100,4,1,1,70,0,0
37054,-100,4,1,1,35,0,0
37216,-100,4,1,1,70,0,0
37378,-100,4,1,1,35,0,0
37541,-100,4,1,1,70,0,0
39000,-100,4,1,1,35,0,0
39162,-100,4,1,1,70,0,0
39324,-100,4,1,1,35,0,0
39487,-100,4,1,1,70,0,0
39649,-100,4,1,1,35,0,0
39811,-100,4,1,1,70,0,0
41595,-100,4,1,1,35,0,0
41757,-100,4,1,1,70,0,0
41919,-100,4,1,1,35,0,0
42081,-100,4,1,1,70,0,0
42243,-100,4,1,1,35,0,0
42406,-100,4,1,1,70,0,0
44189,-100,4,1,1,35,0,0
44351,-100,4,1,1,70,0,0
44514,-100,4,1,1,35,0,0
44676,-100,4,1,1,70,0,0
44838,-100,4,1,1,35,0,0
45000,-100,4,1,1,70,0,0
45487,-100,4,2,1,70,0,0
58541,-100,4,2,0,35,0,0
59757,-100,4,2,0,60,0,0
61054,-100,4,1,1,70,0,1
71351,-100,4,1,1,70,0,0
71433,-100,4,1,1,70,0,1
81811,-100,4,2,0,70,0,0
92514,-100,4,1,1,70,0,1
102568,-100,4,2,0,70,0,0
102649,-100,4,2,0,20,0,0
105163,-100,4,2,0,5,0,0

[Colours]
Combo1 : 0,128,255
Combo2 : 239,239,239
Combo3 : 243,12,87

[HitObjects]
181,319,1379,2,0,P|144:304|120:268,1,85,4|0,0:0|0:0,0:0:0
130,184,1703,2,0,P|168:200|192:236,1,85,2|0,0:0|0:0,0:0:0
56,144,2027,2,0,P|88:96|148:100|148:100|212:60,1,170,0|2,0:0|0:0,0:0:0
284,40,2514,1,0,0:0:0
360,76,2676,2,0,P|328:124|268:120|268:120|214:153,1,170,0|2,0:0|0:0,0:0:0
144,200,3162,1,0,0:0:0
84,260,3325,1,4,0:0:0
72,344,3487,2,0,P|24:336,2,42.5,0|0|4,0:0|0:0|0:0,0:0:0
156,356,3811,1,0,0:0:0
324,371,3973,6,0,P|240:364,1,85,4|0,0:0|0:0,0:0:0
271,284,4298,2,0,P|356:292,1,85,2|0,0:0|0:0,0:0:0
248,204,4622,2,0,P|340:188|368:108,1,170,0|2,0:0|0:0,0:0:0
284,124,5108,1,0,0:0:0
316,44,5271,2,0,P|224:60|196:140,1,170,0|2,0:0|0:0,0:0:0
172,204,5757,1,0,0:0:0
160,288,5919,1,0,0:0:0
88,244,6081,6,0,P|92:212,4,21.25,0|0|0|0|0,0:0|0:0|0:0|0:0|0:0,0:0:0
244,268,6406,2,0,P|241:289,4,21.25,0|0|0|0|4,0:0|0:0|0:0|0:0|0:0,0:0:0
388,356,6892,5,4,0:0:0
452,300,7054,1,0,0:0:0
476,220,7217,2,0,P|480:144|408:76,1,170,0|2,0:0|0:0,0:0:0
336,68,7703,1,0,0:0:0
392,4,7865,2,0,P|420:80|372:152,1,170,0|2,0:0|0:0,0:0:0
312,204,8352,1,0,0:0:0
236,240,8514,1,4,0:0:0
172,184,8676,1,0,0:0:0
172,184,8757,1,0,0:0:0
172,184,8838,2,0,P|95:220,1,85,4|0,0:0|0:0,0:0:0
84,136,9162,6,0,P|168:96,1,85,4|0,0:0|0:0,0:0:0
428,248,9811,2,0,P|344:288,1,85,4|0,0:0|0:0,0:0:0
84,136,10460,2,0,P|180:136,1,85,4|0,0:0|0:0,0:0:0
297,64,10784,2,0,P|212:64,1,85,2|0,0:0|0:0,0:0:0
128,64,11108,5,4,0:0:0
252,136,11352,1,4,0:0:0
128,216,11595,1,4,0:0:0
180,284,11757,6,0,P|236:348,1,85
320,348,12081,1,12,0:2:0
400,316,12244,1,0,0:0:0
412,232,12406,2,0,P|368:156|400:88,1,170,0|8,0:0|0:0,0:0:0
460,160,12892,1,0,0:0:0
460,160,13054,2,0,P|288:176,1,170,0|8,0:0|0:0,0:0:0
196,188,13541,1,0,0:0:0
104,196,13703,1,0,0:0:0
104,196,13784,1,0,0:0:0
104,196,13865,1,0,0:0:0
36,260,14027,2,0,P|16:220|12:176,1,85,8|0,0:0|0:0,0:0:0
76,112,14352,6,0,P|144:60,1,85
236,36,14676,1,8,0:0:0
328,56,14838,1,0,0:0:0
396,120,15000,2,0,P|400:168|432:196|432:196|460:224|464:276,1,170,0|8,0:0|0:0,0:0:0
416,352,15487,1,0,0:0:0
376,268,15649,5,4,0:2:0
376,268,15811,1,4,0:2:0
484,128,15973,1,8,0:0:0
484,128,16135,1,0,0:0:0
440,48,16298,2,0,P|348:48|308:108,1,170,4|12,0:2|0:2,0:0:0
300,200,16784,1,0,0:0:0
300,200,16946,5,4,0:2:0
152,312,17271,1,12,0:2:0
208,236,17433,1,0,0:0:0
188,144,17595,2,0,P|156:68|76:44,1,170,0|8,0:0|0:0,0:0:0
96,136,18081,1,0,0:0:0
96,136,18244,2,0,P|268:152,1,170,4|8,0:2|0:0,0:0:0
360,160,18730,1,0,0:0:0
452,160,18892,1,0,0:0:0
452,160,18973,1,0,0:0:0
452,160,19054,1,0,0:0:0
360,160,19217,2,0,P|372:112|400:88,1,85,8|0,0:0|0:0,0:0:0
397,89,19541,6,0,P|312:88,1,85,4|0,0:2|0:0,0:0:0
114,294,20190,2,0,P|200:296,1,85,4|0,0:2|0:0,0:0:0
396,88,20838,6,0,P|324:40,1,85,4|0,0:2|0:0,0:0:0
276,120,21162,2,0,P|191:113,1,85,12|0,0:2|0:0,0:0:0
160,32,21487,2,0,P|184:33,4,21.25,0|0|0|0|0,0:0|0:0|0:0|0:0|0:0,0:0:0
328,208,21811,2,0,P|306:207,4,21.25,4|0|0|0|0,0:2|0:0|0:0|0:0|0:0,0:0:0
420,212,22135,1,4,0:2:0
256,192,22298,12,0,23920,0:0:0
196,244,24244,5,0,0:0:0
164,164,24406,1,2,0:0:0
96,116,24568,1,0,0:0:0
92,200,24730,2,0,P|164:160|168:80,1,170,4|2,0:0|0:0,0:0:0
344,80,25379,2,0,P|348:160|420:200,1,170,0|2,0:0|0:0,0:0:0
500,172,25865,6,0,P|416:200,1,85,0|0,0:0|0:0,0:0:0
448,280,26190,2,0,P|361:262,1,85,0|0,0:0|0:0,3:0:0
344,344,26514,2,0,P|277:285,1,85,0|0,0:0|0:0,0:0:0
220,348,26838,2,0,P|192:264,1,85,0|0,0:0|0:0,0:0:0
164,188,27162,1,0,0:0:0
193,267,27325,6,0,P|248:188|220:124,1,170,0|2,0:0|0:0,0:0:0
140,104,27811,1,0,0:0:0
223,127,27973,2,0,P|388:88,1,170,0|2,0:0|0:0,0:0:0
440,156,28460,2,0,P|356:176,1,85,0|0,0:0|0:0,0:0:0
196,48,28784,2,0,P|278:28,1,85,0|0,0:0|0:0,0:0:0
356,176,29108,2,0,P|272:196,1,85,0|0,0:0|0:0,0:0:0
188,216,29433,5,0,0:0:0
88,216,29595,1,2,0:0:0
88,316,29757,1,0,0:0:0
188,316,29919,2,0,P|264:288|352:312,1,170,0|2,0:0|0:0,0:0:0
420,352,30406,1,0,0:0:0
348,308,30568,2,0,P|420:258,2,85,0|0|2,0:0|0:0|0:0,0:0:0
332,224,31054,6,0,P|412:172,1,85,0|0,0:0|0:0,0:0:0
411,77,31379,2,0,P|340:124,1,85,0|0,0:0|0:0,0:0:0
216,102,31703,2,0,P|288:56,1,85,0|0,0:0|0:0,0:0:0
212,20,32027,1,0,0:0:0
140,64,32190,1,2,0:0:0
136,148,32352,1,0,0:0:0
208,192,32514,6,0,P|264:264|252:340,1,170,0|2,0:0|0:0,0:0:0
172,368,33000,1,0,0:0:0
180,284,33162,2,0,P|352:244,1,170,0|2,0:0|0:0,0:0:0
428,224,33649,6,0,P|468:208|496:172,1,85,0|0,0:0|0:0,0:0:0
488,92,33973,2,0,P|448:108|421:139,1,85,0|0,0:0|0:0,0:0:0
336,148,34298,2,0,P|309:179|269:195,1,85,0|0,0:0|0:0,0:0:0
264,112,34622,2,0,P|290:80|330:64,1,85,0|0,0:0|0:0,0:0:0
408,36,34946,1,0,0:0:0
330,64,35108,6,0,P|264:36|184:88,1,170,4|8,0:0|0:0,0:0:0
264,112,35595,1,0,0:0:0
340,140,35757,2,0,P|262:187|196:159,1,170,0|8,0:0|0:0,0:0:0
112,152,36244,6,0,P|76:176|60:216,1,85
172,300,36568,2,0,P|168:260|144:224,1,85
108,340,36892,2,0,P|144:372|188:376,1,85
323,369,37217,2,0,P|287:337|252:332,1,85
248,248,37541,1,0,0:0:0
260,164,37703,6,0,P|312:92|392:92,1,170,0|8,0:0|0:0,0:0:0
352,168,38190,1,0,0:0:0
352,168,38352,2,0,P|308:96|340:16,1,170,0|8,0:0|0:0,0:0:0
335,20,38838,6,0,P|240:32,1,85
147,122,39162,2,0,P|232:112,1,85
132,48,39487,2,0,P|36:59,1,85
24,140,39811,1,0,0:0:0
72,212,39973,1,8,0:0:0
32,288,40135,1,0,0:0:0
96,344,40298,6,0,P|176:312|268:344,1,170,0|8,0:0|0:0,0:0:0
332,372,40784,1,0,0:0:0
416,360,40946,2,0,P|460:348|488:316,2,85,0|0|8,0:0|0:0|0:0,0:0:0
416,276,41433,6,0,P|412:232|432:196,1,85
402,49,41757,2,0,P|432:72|448:116,1,85
364,124,42081,2,0,P|280:124,1,85
192,124,42406,1,0,0:0:0
204,208,42568,1,8,0:0:0
120,208,42730,1,0,0:0:0
144,288,42892,6,0,P|68:272|40:188,1,170,0|8,0:0|0:0,0:0:0
96,128,43379,1,0,0:0:0
120,208,43541,2,0,P|196:224|224:308,1,170,0|8,0:0|0:0,0:0:0
292,352,44027,6,0,P|364:296,1,85
371,183,44352,2,0,P|304:236,1,85
424,248,44676,2,0,P|491:195,1,85
412,112,45000,2,0,P|240:64,1,170
164,44,45487,5,4,0:0:0
216,208,45811,1,2,0:0:0
120,348,46135,1,2,0:0:0
48,192,46460,1,2,0:0:0
132,200,46622,1,2,0:0:0
132,200,46703,1,0,0:0:0
132,200,46784,1,0,0:0:0
296,208,47108,5,2,0:0:0
392,348,47433,1,2,0:0:0
464,192,47757,1,2,0:0:0
380,200,47919,1,2,0:0:0
380,200,48000,1,0,0:0:0
380,200,48081,1,4,0:0:0
256,84,48406,5,4,0:0:0
132,200,48730,1,2,0:0:0
256,316,49054,1,0,0:0:0
320,260,49217,2,0,P|356:296,2,42.5,2|0|0,0:0|0:0|0:0,0:0:0
256,84,49703,5,2,0:0:0
380,200,50027,1,0,0:0:0
256,316,50352,1,2,0:0:0
192,260,50514,2,0,P|156:296,2,42.5,2|0|4,0:0|0:0|0:0,0:0:0
256,84,51000,6,0,P|340:52,1,85,2|0,0:0|0:0,0:0:0
416,24,51325,1,2,0:0:0
256,300,51649,2,0,P|172:332,1,85
96,360,51973,1,4,0:0:0
364,192,52298,6,0,P|396:276,1,85,2|0,0:0|0:0,0:0:0
420,352,52622,1,2,0:0:0
148,192,52946,2,0,P|116:108,1,85
84,36,53271,6,0,P|260:36,1,170,4|2,0:0|0:0,0:0:0
424,36,53919,2,0,P|254:36,1,170,4|2,0:0|0:0,0:0:0
256,208,54406,5,2,0:0:0
256,208,54487,1,0,0:0:0
256,208,54568,2,0,P|426:208,1,170,4|2,0:0|0:0,0:0:0
256,208,55217,2,0,P|86:208,1,170,4|2,0:0|0:0,0:0:0
52,288,55703,5,2,0:0:0
52,288,55784,1,0,0:0:0
52,288,55865,1,4,0:0:0
76,368,56027,1,0,0:0:0
156,344,56190,1,2,0:0:0
132,264,56352,1,0,0:0:0
52,288,56514,5,0,0:0:0
156,344,56676,1,0,0:0:0
216,240,56838,1,2,0:0:0
112,180,57000,1,0,0:0:0
76,92,57162,5,0,0:0:0
112,84,57244,1,0,0:0:0
152,88,57325,1,0,0:0:0
184,112,57406,1,0,0:0:0
204,144,57487,1,2,0:0:0
212,180,57568,1,0,0:0:0
208,220,57649,1,0,0:0:0
188,252,57730,1,0,0:0:0
188,292,57811,5,2,0:0:0
212,320,57892,1,0,0:0:0
248,328,57973,1,0,0:0:0
284,320,58054,1,0,0:0:0
312,292,58135,1,2,0:0:0
316,256,58217,1,0,0:0:0
340,224,58298,1,0,0:0:0
380,220,58379,1,0,0:0:0
412,244,58460,1,4,0:0:0
256,192,58541,12,0,59433,0:0:0
144,308,59757,5,0,0:0:0
368,308,60081,1,2,0:0:0
336,140,60406,2,0,P|300:164|256:168|256:168,1,85
176,140,60730,2,0,P|212:164|256:168|256:168,1,85,4|0,0:0|0:0,0:0:0
256,76,61054,6,0,P|256:248,1,170,4|8,0:0|0:0,0:0:0
256,336,61541,1,0,0:0:0
176,292,61703,2,0,P|140:264|100:252,2,85,0|0|8,0:0|0:0|0:0,0:0:0
256,244,62190,2,0,P|352:220,1,85
442,111,62514,2,0,P|360:132,1,85,0|8,0:0|0:0,0:0:0
268,152,62838,1,0,0:0:0
176,172,63000,1,0,0:0:0
176,172,63081,1,0,0:0:0
176,172,63162,1,0,0:0:0
84,160,63325,1,8,0:0:0
44,76,63487,5,0,0:0:0
84,160,63649,2,0,P|108:244|60:308,1,170,0|8,0:0|0:0,0:0:0
20,224,64135,1,0,0:0:0
20,224,64298,2,0,P|112:244|156:312,1,170,0|8,0:0|0:0,0:0:0
176,340,64703,1,0,0:0:0
212,360,64784,1,0,0:0:0
256,360,64865,1,0,0:0:0
296,340,64946,1,4,0:2:0
328,252,65108,6,0,P|336:208|360:172,1,85,0|8,0:0|0:0,0:0:0
495,197,65433,2,0,P|468:228|424:240,1,85,0|4,0:0|0:2,0:0:0
328,252,65757,1,0,0:0:0
280,244,65838,1,4,0:2:0
236,236,65919,1,8,0:0:0
252,144,66081,1,4,0:2:0
344,156,66244,5,0,0:0:0
344,156,66568,1,12,0:2:0
312,68,66730,1,0,0:0:0
220,60,66892,2,0,P|188:80|160:136,2,85,0|0|8,0:0|0:0|0:0,0:0:0
252,144,67379,2,0,P|204:232,1,85,4|4,0:2|0:2,0:0:0
355,308,67703,2,0,P|304:240,1,85,0|8,0:0|0:0,0:0:0
264,324,68027,2,0,P|176:324,1,85
179,324,68271,1,0,0:0:0
179,324,68352,1,0,0:0:0
84,324,68514,1,8,0:0:0
40,240,68676,1,0,0:0:0
104,172,68838,6,0,P|172:116|184:28,1,170,4|8,0:2|0:0,0:0:0
256,104,69325,1,0,0:0:0
325,38,69487,2,0,P|340:116|408:172,1,170,4|8,0:2|0:0,0:0:0
496,204,69973,1,0,0:0:0
436,276,70135,1,4,0:2:0
436,276,70217,1,0,0:0:0
436,276,70298,2,0,P|352:320,1,85,0|8,0:0|0:0,0:0:0
272,352,70622,1,4,0:2:0
192,308,70784,1,0,0:0:0
108,260,70946,5,4,0:2:0
108,260,71108,1,4,0:2:0
108,260,71271,1,4,0:2:0
108,260,71433,2,0,P|192:240|248:176,1,170,0|12,0:0|0:2,0:0:0
288,96,71919,1,0,0:0:0
380,72,72081,2,0,P|424:72|464:88,2,85,0|0|8,0:0|0:0|0:0,0:0:0
420,156,72568,6,0,P|420:204|408:244,1,85
246,178,72892,2,0,P|284:200|324:204,1,85,0|8,0:0|0:0,0:0:0
300,292,73217,2,0,P|200:320,1,85
218,314,73460,1,0,0:0:0
218,314,73541,1,0,0:0:0
128,340,73703,1,8,0:0:0
68,268,73865,5,0,0:0:0
136,204,74027,2,0,P|176:160|168:48,1,170,0|8,0:0|0:0,0:0:0
80,64,74514,1,0,0:0:0
80,64,74676,2,0,P|256:48,1,170,0|8,0:0|0:0,0:0:0
344,44,75162,1,0,0:0:0
436,68,75325,1,4,0:2:0
432,160,75487,2,0,P|416:200|416:244,1,85,0|12,0:0|0:2,0:0:0
491,305,75811,2,0,P|507:265|508:224,1,85,0|4,0:0|0:2,0:0:0
408,320,76135,5,0,0:0:0
364,312,76217,1,4,0:2:0
320,304,76298,1,8,0:0:0
288,216,76460,1,0,0:0:0
332,136,76622,2,0,P|292:80|192:64,1,170,4|8,0:2|0:0,0:0:0
112,104,77108,1,0,0:0:0
124,196,77271,2,0,P|124:240|104:276,2,85,0|0|8,0:0|0:0|0:0,0:0:0
196,256,77757,6,0,P|248:340,1,85,0|4,0:0|0:2,0:0:0
344,324,78081,2,0,P|299:251,1,85,0|8,0:0|0:2,0:0:0
228,184,78406,1,0,0:0:0
220,92,78568,1,0,0:0:0
216,64,78649,1,0,0:0:0
212,36,78730,1,0,0:0:0
304,24,78892,2,0,P|316:124,1,85,8|0,0:0|0:0,0:0:0
352,196,79217,6,0,P|308:272|224:284,1,170,4|8,0:2|0:0,0:0:0
260,196,79703,1,0,0:0:0
280,104,79865,2,0,P|204:118|160:194,1,170,4|8,0:2|0:0,0:0:0
92,256,80352,6,0,P|48:256|16:228,1,85,0|4,0:0|0:2,0:0:0
8,204,80595,1,0,0:0:0
8,176,80676,1,0,0:0:0
16,84,80838,1,8,0:0:0
104,56,81000,1,4,0:2:0
120,148,81162,2,0,P|212:144,1,85,0|4,0:0|0:2,0:0:0
340,220,81487,2,0,P|256:224,1,85,4|12,0:2|0:2,0:0:0
164,232,81811,5,4,0:0:0
164,232,82135,2,0,P|120:304,1,85,4|2,0:1|0:0,0:0:0
120,304,83108,5,2,0:0:0
256,340,83433,1,4,0:0:0
368,192,83757,1,4,0:0:0
256,44,84081,1,4,0:0:0
140,192,84406,5,4,0:0:0
172,192,85054,1,4,0:0:0
204,192,85703,5,4,0:0:0
236,192,86027,1,4,0:0:0
268,192,86352,2,0,P|300:180|328:192|328:192|360:208|392:196,2,127.5,4|4|4,0:0|0:0|0:0,0:0:0
268,192,87000,5,4,0:0:0
268,192,87649,1,2,0:0:0
98,192,87973,2,0,P|268:192,1,170,4|4,0:0|0:0,0:0:0
268,192,88946,5,2,0:0:0
420,268,89271,1,4,0:0:0
424,96,89595,1,4,0:0:0
424,96,90244,1,4,0:0:0
424,96,90892,6,0,P|379:87|343:98|343:98|308:110|255:102,1,170,0|2,0:0|0:0,0:0:0
382,171,91541,2,0,P|470:167,1,85,0|0,0:0|0:0,0:0:0
285,27,91865,2,0,P|199:30,1,85,2|0,0:0|0:0,0:0:0
116,32,92190,5,0,0:0:0
116,32,92514,6,0,P|96:116|20:156,1,170,4|0,0:0|0:0,0:0:0
12,248,93000,1,0,0:0:0
60,328,93162,1,8,0:0:0
152,320,93325,2,0,P|196:324|244:308,1,85
251,192,93649,2,0,P|212:208|180:236,1,85,0|8,0:0|0:0,0:0:0
300,264,93973,1,0,0:0:0
392,268,94135,1,0,0:0:0
392,268,94217,1,0,0:0:0
392,268,94298,1,0,0:0:0
432,184,94460,1,8,0:0:0
392,100,94622,5,0,0:0:0
308,60,94784,2,0,P|220:44|160:92,1,170,0|8,0:0|0:0,0:0:0
152,184,95271,1,0,0:0:0
212,256,95433,2,0,P|136:276|68:220,1,170,0|8,0:0|0:0,0:0:0
240,144,95919,2,0,P|324:184,1,85,0|4,0:0|0:2,0:0:0
384,116,96244,2,0,P|416:200,1,85,0|8,0:0|0:0,0:0:0
436,288,96568,1,0,0:0:0
344,304,96730,2,0,P|328:260,2,42.5
276,368,97054,2,0,P|248:276,1,85,12|0,0:2|0:0,0:0:0
172,236,97379,6,0,P|112:220|28:280,1,170,4|8,0:2|0:0,0:0:0
52,368,97865,1,0,0:0:0
124,308,98027,2,0,P|164:324|208:320,2,85,4|0|8,0:2|0:0|0:0,0:0:0
52,160,98514,2,0,P|92:144|140:144,1,85,0|4,0:0|0:2,0:0:0
285,101,98838,2,0,P|244:100|204:84,1,85,0|8,0:0|0:0,0:0:0
128,28,99162,1,0,0:0:0
204,84,99325,1,4,0:2:0
204,84,99406,1,0,0:0:0
204,84,99487,2,0,P|228:176,1,85,0|12,0:0|0:2,0:0:0
252,256,99811,1,0,0:0:0
328,312,99973,6,0,P|416:332|472:284,1,170,4|8,0:2|0:0,0:0:0
388,244,100460,1,0,0:0:0
312,188,100622,2,0,P|224:168|168:216,1,170,4|8,0:2|0:0,0:0:0
132,304,101108,1,0,0:0:0
76,232,101271,5,4,0:2:0
68,200,101352,1,0,0:0:0
60,168,101433,1,0,0:0:0
52,136,101514,1,0,0:0:0
20,124,101595,5,4,0:2:0
40,96,101676,1,0,0:0:0
60,68,101757,1,0,0:0:0
84,44,101838,1,0,0:0:0
108,20,101919,1,4,0:2:0
200,44,102081,6,0,P|228:60,4,21.25,0|0|0|0|4,0:0|0:0|0:0|0:0|0:2,0:0:0
180,136,102406,2,0,P|192:160,4,21.25,0|0|0|0|4,0:0|0:0|0:0|0:0|0:0,0:0:0
256,192,102649,12,0,105162,0:0:0
