osu file format v9

[General]
AudioFilename: Elisha.mp3
AudioLeadIn: 1500
PreviewTime: 61494
Countdown: 0
SampleSet: Soft
StackLeniency: 0.7
Mode: 0
LetterboxInBreaks: 0

[Editor]
DistanceSpacing: 1.8
BeatDivisor: 4
GridSize: 16

[Metadata]
Title:Elisha
Artist:DJ YOSHITAKA
Creator:Faust
Version:Extra
Source:beatmania IIDX
Tags:Sharp yangzd88 SIRIUS

[Difficulty]
HPDrainRate:6
CircleSize:4
OverallDifficulty:7
ApproachRate:8
SliderMultiplier:1.8
SliderTickRate:0.5

[Events]
//Background and Video events
0,0,"EBG2.png"
//Break Periods
2,21466,38678
//Storyboard Layer 0 (Background)
//Storyboard Layer 1 (Fail)
//Storyboard Layer 2 (Pass)
//Storyboard Layer 3 (Foreground)
//Storyboard Sound Samples
//Background Colour Transformations
3,100,0,0,0

[TimingPoints]
510,324.324324324324,4,2,1,80,1,0
7564,-83.3333333333333,4,2,1,80,0,0
8212,-100,4,2,1,80,0,0
14699,-200,4,2,1,80,0,0
15672,-83.3333333333333,4,2,1,80,0,0
39347,-83.3333333333333,4,2,1,40,0,0
41942,-100,4,2,1,80,0,0
42591,-200,4,2,1,80,0,0
44658,-100,4,2,1,80,0,0
45185,-200,4,2,1,80,0,0
49888,-100,4,2,1,80,0,0
51509,-200,4,2,1,80,0,0
52482,-200,4,2,1,60,0,0
67888,-200,4,1,1,50,0,0
68537,-200,4,1,1,60,0,0
69185,-200,4,1,1,70,0,0
69834,-200,4,1,1,80,0,0
70482,-200,4,1,1,90,0,0
73077,-200,4,2,1,80,0,0
78266,-100,4,2,1,80,0,0
80050,-200,4,2,1,80,0,0
80861,-100,4,2,1,80,0,0
85239,-200,4,2,1,80,0,0
87347,-100,4,2,1,80,0,0
87834,-200,4,2,1,80,0,0
88645,-100,4,2,1,80,0,0
90428,-200,4,2,1,80,0,0
91239,-100,4,2,1,80,0,0
93023,-200,4,2,1,80,0,0
93834,-100,4,2,1,80,0,0
99672,-100,4,2,1,50,0,0
100320,-100,4,2,1,60,0,0
100969,-100,4,2,1,70,0,0
101618,-100,4,2,1,80,0,0
102266,-100,4,2,1,90,0,0
102915,-100,4,2,1,100,0,0
104212,-100,4,2,1,90,0,0
114509,-100,4,2,1,5,0,0

[Colours]
Combo1 : 232,81,149
Combo2 : 162,131,169
Combo3 : 91,114,240

[HitObjects]
32,160,509,5,2
80,96,834,1,2
144,48,1158,1,2
208,96,1482,1,2
160,160,1807,5,2
208,224,2131,1,2
272,176,2455,1,2
272,176,2780,1,2
480,224,3104,5,2
416,272,3428,1,2
352,224,3753,1,2
304,160,4077,1,2
160,272,4401,5,2
64,176,4564,1,2
160,80,4726,2,2,B|192:64,9,22.5
160,80,5374,5,2
416,48,5699,5,2
352,160,6023,1,2
240,96,6347,1,2
176,208,6672,1,2
288,144,6996,5,2
352,256,7320,1,2
240,320,7645,1,10
240,320,7726,2,8,B|208:320|208:320|208:320|176:304|176:304|128:304,1,108.000002574921
135,304,7969,1,10
256,192,8293,5,2
368,144,8618,1,2
448,240,8942,1,2
160,128,9266,5,10
272,160,9428,1,8
384,192,9591,1,12
336,80,9753,5,8
224,32,9915,1,8
112,80,10077,1,8
64,192,10239,1,10
64,192,10320,1,8
64,192,10401,1,8
176,240,10564,1,10
176,240,10645,1,8
176,240,10726,1,8
272,304,10888,6,0,B|304:256|304:256|304:224|304:224|336:160,1,135,6|0
324,183,11212,1,2
336,96,11374,1,0
416,48,11537,1,2
464,128,11699,1,0
416,208,11861,2,0,B|336:256,1,90,2|0
264,304,12185,1,2
80,304,12510,1,2
176,144,12834,2,10,B|184:152|184:152|192:136|192:136|200:152|200:152|208:136|208:136|216:152|216:152|224:136|224:136|232:144|232:144|304:144,1,180
368,304,13482,6,0,B|416:224,1,90,2|0
368,144,13807,2,0,B|416:64,1,90,2|0
496,112,14131,1,2
416,160,14293,1,0
336,112,14455,1,2
256,160,14618,1,0
176,112,14780,5,8
176,112,15104,2,8,B|96:64,1,90
48,32,15753,6,8,B|256:160,1,216.000005149841,8|14
336,208,16239,5,0
384,288,16401,1,2
304,336,16564,1,0
224,288,16726,2,0,B|192:240|192:240|192:192|192:192|160:144,1,162.000003862381,2|0
160,145,17050,1,2
240,48,17212,1,0
352,96,17374,6,0,B|400:192,1,108.000002574921,6|0
320,240,17699,2,0,B|224:192,1,108.000002574921,2|0
128,240,18023,5,10
224,192,18185,1,10
320,144,18347,1,10
416,96,18510,1,10
512,48,18672,5,14
176,64,18996,1,8
336,112,19158,1,8
0,128,19482,2,0,B|64:144|64:144|96:176|96:176|160:192,1,162.000003862381,8|0
145,188,19807,1,8
112,288,19969,6,8,B|160:288|160:288|192:304|192:304|224:304,1,108.000002574921,12|8
232,288,20212,1,8
248,272,20293,2,8,B|312:272|312:272|344:224,1,108.000002574921
384,112,20618,2,8,B|400:80,8,27.0000006437302
256,192,21266,5,4
256,192,39428,12,0,41699
80,240,42023,6,0,B|160:192,1,90,0|2
240,160,42347,1,0
320,192,42509,1,2
400,160,42672,2,0,B|496:128,2,90,2|2|2
320,192,43482,1,0
240,224,43645,1,2
160,256,43807,2,0,B|64:288,2,90,2|2|2
416,256,44780,6,0,B|368:176,1,90,2|0
288,144,45104,1,2
208,176,45266,2,0,B|128:128,1,90,2|2
48,160,45753,1,0
80,240,45915,2,0,B|160:288,1,90,2|2
240,256,46401,2,0,B|320:208,2,90,2|2|2
128,64,47374,5,2
208,96,47537,1,0
288,64,47699,1,2
368,96,47861,2,0,B|448:144,2,90,2|2|2
336,176,48672,1,0
256,208,48834,1,2
176,176,48996,2,0,B|96:128,2,90,2|2|2
368,288,49969,6,0,B|288:336,1,90,2|0
208,304,50293,1,2
240,224,50455,2,0,B|192:144,1,90,2|0
193,146,50780,1,2
96,288,51104,2,0,B|176:240,1,90,2|0
256,192,51428,1,2
336,144,51591,2,0,B|416:96,2,90,2|2|2
480,192,52564,5,2
480,192,52726,1,2
272,192,53050,1,2
384,144,53293,1,2
432,32,53537,1,2
368,240,53861,5,2
368,240,54023,1,2
160,240,54347,1,2
272,192,54591,1,2
320,80,54834,1,2
32,192,55158,5,2
32,192,55320,1,2
240,192,55645,1,2
128,144,55888,1,2
80,32,56131,1,2
144,240,56455,5,2
144,240,56618,1,2
368,240,57104,1,2
368,240,57266,1,2
368,240,57428,1,0
432,96,57753,5,0
432,96,57915,1,0
432,96,58077,2,0,B|384:112,1,45
272,144,58482,1,0
272,144,58726,1,0
160,272,59050,2,0,B|128:224,1,45
96,176,59374,1,0
96,176,59537,1,0
208,128,59780,1,0
304,48,60023,1,0
304,48,60185,1,0
336,128,60347,5,0
336,128,60509,1,0
448,240,60834,2,0,B|368:224,1,67.5
256,192,61320,1,0
304,256,61482,5,0
304,256,61645,2,0,B|288:304,1,45
144,368,62131,1,0
96,256,62374,1,0
112,144,62618,1,0
112,144,62780,5,2
192,112,62942,1,2
272,80,63104,1,2
272,80,63428,2,2,B|336:48,2,67.5
480,192,64239,5,2
400,160,64401,1,2
400,160,64726,2,2,B|336:128,2,67.5
176,320,65537,5,2
96,288,65699,1,2
96,288,66023,2,2,B|32:256,2,67.5
336,96,66834,5,2
416,64,66996,1,2
416,64,67320,2,2,B|480:32,2,67.5
432,160,67969,5,0
432,160,68131,1,0
368,256,68293,1,0
368,256,68455,1,0
288,160,68618,1,0
288,160,68780,1,0
192,256,68942,1,0
192,256,69104,1,0
96,96,69266,5,0
96,96,69428,1,0
192,160,69591,1,0
192,160,69753,1,0
112,256,69915,1,0
112,256,70077,1,0
208,352,70239,1,0
208,352,70401,1,0
320,320,70564,5,0
336,312,70645,1,0
352,304,70726,1,0
368,296,70807,1,0
384,288,70888,1,0
400,280,70969,1,0
416,272,71050,1,0
432,264,71131,1,0
448,256,71212,5,0
432,248,71293,1,0
416,240,71374,1,0
400,232,71455,1,0
384,224,71537,5,0
400,216,71618,1,0
416,208,71699,1,0
432,200,71780,1,0
448,192,71861,5,0
432,184,71942,1,0
416,176,72023,1,0
400,168,72104,1,0
384,160,72185,5,0
400,152,72266,1,0
416,144,72347,1,0
432,136,72428,1,0
448,128,72509,5,0
432,120,72591,1,0
416,112,72672,1,0
400,104,72753,1,0
384,96,72834,1,0
256,32,73158,5,0
246,52,73239,1,0
238,73,73320,1,0
229,93,73401,1,0
220,113,73482,5,0
213,132,73564,1,0
209,149,73645,1,0
206,164,73726,1,0
204,177,73807,1,0
204,192,73888,1,0
206,209,73969,1,0
210,228,74050,1,0
217,249,74131,5,0
226,266,74212,1,0
237,279,74293,1,0
248,289,74374,1,0
259,296,74455,1,0
273,303,74537,1,0
290,307,74618,1,0
310,307,74699,1,0
331,302,74780,5,0
350,295,74861,1,0
365,285,74942,1,0
377,275,75023,1,0
385,264,75104,1,0
392,250,75185,1,0
397,232,75266,1,0
400,212,75347,1,0
399,189,75428,5,0
395,169,75509,1,0
388,151,75591,1,0
380,136,75672,1,0
371,125,75753,1,0
358,115,75834,1,0
342,106,75915,1,0
322,100,75996,1,0
299,100,76077,5,0
277,105,76158,1,0
257,116,76239,1,0
241,132,76320,1,0
230,151,76401,5,0
224,177,76482,1,0
224,204,76564,1,0
232,229,76645,1,0
250,248,76726,5,0
278,262,76807,1,0
309,264,76888,1,0
339,254,76969,1,0
364,235,77050,5,0
383,204,77131,1,0
392,169,77212,1,0
393,133,77293,1,0
376,101,77374,5,0
346,73,77455,1,0
309,54,77537,1,0
269,46,77618,1,0
229,56,77699,1,0
256,192,78023,5,8
400,224,78347,5,6
336,320,78509,1,0
368,208,78672,1,2
304,304,78834,1,0
240,192,78996,2,0,B|224:144|224:144|192:128|192:128|176:80,1,135,2|0
176,81,79320,1,2
80,144,79482,1,0
176,208,79645,2,0,B|224:224|224:224|240:256|240:256|288:272,1,135,2|0
286,272,79969,1,2
400,304,80131,2,2,B|496:336,2,90
208,336,80942,5,2
112,272,81104,1,0
224,304,81266,1,2
128,240,81428,1,0
224,176,81591,2,0,B|352:128,1,135,2|0
350,128,81915,1,2
416,224,82077,1,0
304,256,82239,2,0,B|256:240|256:240|240:208|240:208|192:192,1,135,2|0
193,192,82564,1,2
64,160,82726,5,2
256,80,83050,1,2
448,160,83374,1,2
400,256,83537,5,2
320,336,83699,1,0
240,256,83861,1,2
320,176,84023,1,0
320,288,84185,2,0,B|288:336|288:336|208:336,1,135,2|0
208,336,84509,1,2
144,224,84672,1,0
176,96,84834,2,0,B|48:48,1,135,2|0
49,48,85158,1,2
16,192,85320,1,2
16,192,85645,2,0,B|112:240,1,90,2|2
208,272,86131,5,2
288,352,86293,1,0
368,272,86455,1,2
288,192,86618,1,0
288,272,86780,2,0,B|352:336,1,90,2|2
384,112,87428,6,0,B|336:96|336:96|320:64|320:64|272:48,1,135,2|0
273,48,87753,1,2
176,32,87915,2,0,B|80:16,2,90,2|2|2
240,288,88726,5,6
320,224,88888,1,0
400,288,89050,1,2
480,224,89212,1,0
400,160,89374,2,0,B|320:96,1,90,2|0
176,80,89699,2,0,B|256:144,1,90,2|0
64,112,90023,2,0,B|96:136|96:136|144:184|144:184|176:208,1,135,2|0
164,200,90347,1,2
304,208,90509,2,0,B|384:256,2,90,2|2|2
176,32,91320,5,2
256,112,91482,1,0
160,176,91645,1,2
256,272,91807,1,0
128,320,91969,2,0,B|96:288|96:288|64:240|64:240|64:192,1,135,2|0
64,176,92293,2,0,B|80:128|80:128|128:96,1,90,2|0
256,80,92618,2,0,B|336:80|336:80|400:112,1,135,2|0
384,104,92942,1,2
464,192,93104,2,0,B|496:224|496:224|512:272,2,90,2|2|2
272,320,93915,5,2
176,288,94077,1,0
208,192,94239,1,2
112,160,94401,1,0
160,48,94564,2,0,B|240:16|240:16|288:16,1,135,2|0
304,16,94888,2,0,B|352:32|352:32|400:80,1,90,2|0
432,176,95212,2,0,B|448:240|448:240|416:304|416:304|384:304,1,135,2|0
416,304,95537,1,2
288,352,95699,5,2
144,160,96023,1,2
304,16,96347,1,2
400,112,96509,5,2
368,208,96672,1,0
272,176,96834,1,2
240,272,96996,1,0
144,240,97158,2,0,B|96:160,1,90,2|0
144,32,97482,2,0,B|192:112,1,90,2|0
256,224,97807,2,0,B|304:256|304:256|320:288|320:288|368:320,1,135,4|0
354,311,98131,1,4
448,272,98293,5,2
368,64,98618,1,2
144,32,98942,1,2
256,192,99266,5,2
256,192,99591,1,2
144,176,99753,5,2
144,176,99996,1,2
80,208,100239,1,2
208,64,100401,5,2
208,64,100645,1,2
112,96,100888,1,2
352,160,101050,5,2
352,160,101293,1,2
224,208,101537,1,2
320,64,101699,5,2
320,64,101942,1,2
160,128,102185,1,2
320,256,102347,5,2
320,256,102591,1,2
112,336,102834,1,2
48,192,102996,5,2
208,48,103239,1,2
384,176,103482,1,2
176,240,103726,1,2
320,80,103969,1,2
320,80,104131,1,2
288,192,104293,6,0,B|272:240|272:240|240:256|240:256|224:304,1,135,6|0
224,286,104618,1,2
336,336,104780,1,0
432,288,104942,2,0,B|480:208,1,90,2|0
368,160,105266,2,0,B|416:80,1,90,2|0
208,48,105591,6,0,B|160:64|160:64|144:96|144:96|96:112,1,135,6|0
97,111,105915,1,2
64,224,106077,1,0
160,272,106239,1,2
272,256,106401,1,0
384,240,106564,2,0,B|480:272,1,90,2|0
464,112,106888,5,12
352,48,107050,1,8
224,64,107212,1,8
128,160,107374,1,8
384,240,107699,1,8
144,352,108023,2,8,B|176:304|176:304|176:272,1,90,12|8
176,256,108266,1,0
176,240,108347,1,0
176,224,108428,1,0
176,208,108509,1,0
176,192,108591,1,0
176,176,108672,1,0
176,160,108753,1,0
176,144,108834,2,8,B|176:112,8,22.5
256,192,109482,5,4
256,192,109523,12,0,114672
