osu file format v12

[General]
AudioFilename: 01 Custom Drive.mp3
AudioLeadIn: 2500
PreviewTime: 14307
Countdown: 0
SampleSet: Normal
StackLeniency: 0.7
Mode: 0
LetterboxInBreaks: 0
WidescreenStoryboard: 0

[Editor]
DistanceSpacing: 1.2
BeatDivisor: 4
GridSize: 4

[Metadata]
Title:CUSTOM DRIVE
TitleUnicode:CUSTOM DRIVE
Artist:DJ YOSHITAKA
ArtistUnicode:DJ YOSHITAKA
Creator:P o M u T a
Version:Another
Source:beatmania IIDX 13 DistorteD
Tags:captivate ORIGINAL SOUNDTRACK konami ps2 PlayStation 2 ビートマニア ツーディーエックス 13 ディストーテッド AngelHoney fanzhen0019 pomuta
BeatmapID:356374
BeatmapSetID:142937

[Difficulty]
HPDrainRate:6
CircleSize:4
OverallDifficulty:7
ApproachRate:9
SliderMultiplier:1.92
SliderTickRate:1

[Events]
//Background and Video events
0,0,"new_dandelion.jpg",0,0
//Break Periods
//Storyboard Layer 0 (Background)
//Storyboard Layer 1 (Fail)
//Storyboard Layer 2 (Pass)
//Storyboard Layer 3 (Foreground)
//Storyboard Sound Samples
//Background Colour Transformations
3,100,163,162,255

[TimingPoints]
372,387.096774193548,4,1,1,60,1,0
1920,-100,4,1,1,20,0,0
5017,-100,4,1,1,70,0,0
14307,-66.6666666666667,4,1,2,70,0,1
26694,-100,4,2,2,30,0,0
29501,-100,4,2,2,25,0,0
29791,-100,4,2,2,20,0,0
30178,-100,4,2,2,15,0,0
30565,-100,4,2,2,10,0,0
31339,-100,4,2,2,5,0,0

[Colours]
Combo1 : 255,255,128
Combo2 : 255,0,0
Combo3 : 128,255,128
Combo4 : 255,128,64

[HitObjects]
256,192,372,12,2,1146,0:2:0:0:
256,64,1726,5,0,0:0:0:0:
256,320,1920,6,0,L|256:289,64,24,4|0|0|0|0|0|0|0|0|0|0|0|0|0|0|0|0|0|0|0|0|0|0|0|0|0|0|0|0|0|0|0|0|0|0|0|0|0|0|0|0|0|0|0|0|0|0|0|0|0|0|0|0|0|0|0|0|0|0|0|0|0|0|0|0,0:0|0:0|0:0|0:0|0:0|0:0|0:0|0:0|0:0|0:0|0:0|0:0|0:0|0:0|0:0|0:0|0:0|0:0|0:0|0:0|0:0|0:0|0:0|0:0|0:0|0:0|0:0|0:0|0:0|0:0|0:0|0:0|0:0|0:0|0:0|0:0|0:0|0:0|0:0|0:0|0:0|0:0|0:0|0:0|0:0|0:0|0:0|0:0|0:0|0:0|0:0|0:0|0:0|0:0|0:0|0:0|0:0|0:0|0:0|0:0|0:0|0:0|0:0|0:0|0:0,0:0:0:0:
136,111,5597,5,0,0:0:0:0:
376,111,5791,1,0,0:0:0:0:
70,192,6371,1,0,0:0:0:0:
442,192,6565,5,0,0:0:0:0:
422,192,6952,1,0,0:0:0:0:
402,192,7339,1,0,0:0:0:0:
305,311,7533,1,0,0:0:0:0:
456,336,7726,1,0,0:0:0:0:
456,336,7823,1,0,0:0:0:0:
456,336,7920,2,0,L|477:354,4,24,0|0|0|0|4,0:0|0:0|0:0|0:0|0:0,0:0:0:0:
256,192,8307,5,0,0:0:0:0:
104,252,8501,1,8,0:0:0:0:
104,252,8597,1,0,0:0:0:0:
104,252,8694,1,0,0:0:0:0:
51,86,8888,1,0,0:0:0:0:
235,279,9081,1,0,0:0:0:0:
51,336,9275,1,8,0:0:0:0:
51,336,9371,1,0,0:0:0:0:
51,336,9468,1,0,0:0:0:0:
235,279,9662,6,0,L|285:287,1,48,0|0,0:0|0:0,0:0:0:0:
349,340,9855,1,0,0:0:0:0:
360,158,10049,6,0,L|410:166,1,48,8|0,0:0|0:0,0:0:0:0:
485,230,10242,1,0,0:0:0:0:
240,64,10436,5,0,0:0:0:0:
240,64,10533,1,0,0:0:0:0:
240,64,10630,2,0,P|189:71|152:48,1,96,0|8,0:0|0:0,0:0:0:0:
304,23,11017,1,0,0:0:0:0:
304,23,11113,1,0,0:0:0:0:
304,23,11210,6,0,P|312:45|315:72,3,48,0|0|0|0,0:0|0:0|0:0|0:0,0:0:0:0:
286,151,11597,2,0,P|278:173|275:200,3,48,8|0|0|0,0:0|0:0|0:0|0:0,0:0:0:0:
315,274,11984,1,0,0:0:0:0:
350,297,12080,1,0,0:0:0:0:
393,297,12177,1,0,0:0:0:0:
429,274,12274,1,0,0:0:0:0:
447,236,12371,2,0,L|436:214,8,24,8|0|0|0|0|0|0|0|4,0:0|0:0|0:0|0:0|0:0|0:0|0:0|0:0|0:0,0:0:0:0:
497,371,12952,5,0,0:0:0:0:
305,371,13146,1,8,0:0:0:0:
401,371,13339,1,0,0:0:0:0:
209,371,13533,5,0,0:0:0:0:
195,357,13823,1,0,0:0:0:0:
181,343,14113,1,0,0:0:0:0:
107,253,14307,6,0,P|38:258|0:316,1,144.000005493164,4|2,0:0|0:0,0:0:0:0:
107,253,14597,2,0,P|176:248|214:190,1,144.000005493164,2|0,0:0|0:0,0:0:0:0:
162,128,14888,1,2,0:0:0:0:
162,128,14984,1,0,0:0:0:0:
162,128,15081,2,0,P|229:113|288:154,1,144.000005493164,0|2,0:0|0:0,0:0:0:0:
347,100,15371,2,0,P|362:167|321:226,1,144.000005493164,2|0,0:0|0:0,0:0:0:0:
256,272,15662,1,2,0:0:0:0:
301,337,15759,1,0,0:0:0:0:
363,289,15855,6,0,P|428:294|477:354,1,144.000005493164,0|2,0:0|0:0,0:0:0:0:
321,226,16146,2,0,P|256:221|207:161,1,144.000005493164,2|0,0:0|0:0,0:0:0:0:
244,84,16436,2,0,L|316:75,1,72.0000027465821,2|0,0:0|0:0,0:0:0:0:
172,44,16630,2,0,L|100:35,1,72.0000027465821,0|0,0:0|0:0,0:0:0:0:
24,72,16823,2,0,P|18:37|28:0,1,72.0000027465821,2|2,0:0|0:0,0:0:0:0:
148,144,17017,2,0,P|154:179|144:216,1,72.0000027465821,0|2,0:0|0:0,0:0:0:0:
122,292,17210,5,2,0:0:0:0:
256,192,17404,1,0,0:0:0:0:
390,292,17597,1,2,0:0:0:0:
390,292,17694,1,2,0:0:0:0:
256,70,17888,1,0,0:0:0:0:
256,70,17984,1,2,0:0:0:0:
121,292,18178,2,0,P|55:319|-18:313,1,144.000005493164,0|2,0:0|0:0,0:0:0:0:
177,355,18468,2,0,P|243:328|316:334,1,144.000005493164,2|2,0:0|0:0,0:0:0:0:
390,292,18759,2,0,L|385:367,1,72.0000027465821,2|0,0:0|0:0,0:0:0:0:
448,244,18952,6,0,P|384:218|324:253,1,144.000005493164,0|2,0:0|0:0,0:0:0:0:
278,318,19242,2,0,P|218:353|153:327,1,144.000005493164,2|0,0:0|0:0,0:0:0:0:
82,310,19533,2,0,P|103:273|127:259,1,72.0000027465821,2|0,0:0|0:0,0:0:0:0:
26,361,19726,5,2,0:0:0:0:
278,318,19920,1,2,0:0:0:0:
82,310,20113,1,2,0:0:0:0:
335,370,20307,1,2,0:0:0:0:
26,361,20501,6,0,L|19:216,1,144.000005493164,0|2,0:0|0:0,0:0:0:0:
86,72,20791,2,0,L|93:217,1,144.000005493164,2|0,0:0|0:0,0:0:0:0:
156,275,21081,2,0,P|194:278|223:263,1,72.0000027465821,2|0,0:0|0:0,0:0:0:0:
297,217,21275,6,0,L|303:360,1,144.000005493164,0|2,0:0|0:0,0:0:0:0:
370,216,21565,2,0,L|363:72,1,144.000005493164,2|2,0:0|0:0,0:0:0:0:
437,28,21855,2,0,P|473:34|504:18,1,72.0000027465821,2|0,0:0|0:0,0:0:0:0:
279,28,22049,6,0,P|212:21|148:59,1,144.000005493164,0|2,0:0|0:0,0:0:0:0:
172,142,22339,2,0,P|239:149|303:111,1,144.000005493164,2|0,0:0|0:0,0:0:0:0:
102,115,22630,2,0,P|95:151|108:185,1,72.0000027465821,2|0,0:0|0:0,0:0:0:0:
159,365,22823,6,0,L|183:224,1,144.000005493164,0|2,0:0|0:0,0:0:0:0:
246,365,23113,2,0,L|270:224,1,144.000005493164,2|2,0:0|0:0,0:0:0:0:
333,365,23404,1,2,0:0:0:0:
512,68,23597,6,0,L|440:68,1,72.0000027465821,0|0,0:0|0:0,0:0:0:0:
265,68,23791,2,0,L|337:68,1,72.0000027465821,0|0,0:0|0:0,0:0:0:0:
492,150,23984,2,0,L|420:150,1,72.0000027465821,0|0,0:0|0:0,0:0:0:0:
245,150,24178,2,0,L|317:150,1,72.0000027465821,0|0,0:0|0:0,0:0:0:0:
472,232,24371,2,0,L|400:232,1,72.0000027465821,0|0,0:0|0:0,0:0:0:0:
225,232,24565,2,0,L|297:232,1,72.0000027465821,0|0,0:0|0:0,0:0:0:0:
452,314,24758,2,0,L|380:314,1,72.0000027465821,0|0,0:0|0:0,0:0:0:0:
205,314,24952,2,0,L|277:314,1,72.0000027465821,0|0,0:0|0:0,0:0:0:0:
61,187,25146,5,0,0:0:0:0:
109,172,25242,1,0,0:0:0:0:
159,167,25339,1,0,0:0:0:0:
208,174,25436,1,0,0:0:0:0:
256,192,25533,1,0,0:0:0:0:
304,210,25630,1,0,0:0:0:0:
353,217,25727,1,0,0:0:0:0:
403,212,25824,1,0,0:0:0:0:
451,197,25920,5,0,0:0:0:0:
154,358,26210,1,0,0:0:0:0:
162,20,26501,1,0,0:0:0:0:
162,20,26694,6,0,L|179:41,56,24,0|0|0|0|0|0|0|0|0|0|0|0|0|0|0|0|0|0|0|0|0|0|0|0|0|0|0|0|0|0|0|0|0|0|0|0|0|0|0|0|0|0|0|0|0|0|0|0|0|0|0|0|0|0|0|0|0,0:0|0:0|0:0|0:0|0:0|0:0|0:0|0:0|0:0|0:0|0:0|0:0|0:0|0:0|0:0|0:0|0:0|0:0|0:0|0:0|0:0|0:0|0:0|0:0|0:0|0:0|0:0|0:0|0:0|0:0|0:0|0:0|0:0|0:0|0:0|0:0|0:0|0:0|0:0|0:0|0:0|0:0|0:0|0:0|0:0|0:0|0:0|0:0|0:0|0:0|0:0|0:0|0:0|0:0|0:0|0:0|0:0,0:0:0:0:
256,192,29501,12,0,31339,0:0:0:0:
