osu file format v14

[General]
AudioFilename: Custom Drive.mp3
AudioLeadIn: 1000
PreviewTime: 14318
Countdown: 0
SampleSet: Normal
StackLeniency: 0.7
Mode: 0
LetterboxInBreaks: 0
EpilepsyWarning: 1
WidescreenStoryboard: 0
SamplesMatchPlaybackRate: 1

[Editor]
DistanceSpacing: 0.5
BeatDivisor: 16
GridSize: 4
TimelineZoom: 3.099999

[Metadata]
Title:CUSTOM DRIVE
TitleUnicode:CUSTOM DRIVE
Artist:DJ YOSHITAKA
ArtistUnicode:DJ YOSHITAKA
Creator:Bara-
Version:INSANE
Source:beatmania IIDX 13 DistorteD
Tags:captivate ORIGINAL SOUNDTRACK konami ps2 PlayStation 2 ビートマニア ツーディーエックス 13 ディストーテッド
BeatmapID:722855
BeatmapSetID:325426

[Difficulty]
HPDrainRate:6
CircleSize:4.5
OverallDifficulty:7
ApproachRate:9
SliderMultiplier:1.8
SliderTickRate:1

[Events]
//Background and Video events
0,0,"new_dandelion.jpg",0,0
//Break Periods
//Storyboard Layer 0 (Background)
//Storyboard Layer 1 (Fail)
//Storyboard Layer 2 (Pass)
//Storyboard Layer 3 (Foreground)
Sprite,Foreground,Centre,"ring.png",320,240 M,0,1157,,172,212 F,0,1157,4641,1,0 S,1,1157,4641,0.2402587,1.222969
Sprite,Foreground,Centre,"ring.png",320,240 M,0,8124,,200,128 F,0,8124,8899,1,0 S,1,8124,8899,0.2402587,1.222969
Sprite,Foreground,Centre,"ring.png",320,240 M,0,9672,,357,416 F,0,9672,10447,1,0 S,1,9672,10447,0.2402587,1.222969
Sprite,Foreground,Centre,"ring.png",320,240 M,0,11221,,400,108 F,0,11221,11995,1,0 S,1,11221,11995,0.2402587,1.222969
Sprite,Foreground,Centre,"ring.png",320,240 M,0,12770,,233,105 F,0,12770,13544,1,0 S,1,12770,13544,0.2402587,1.222969
Sprite,Foreground,Centre,"ring.png",320,240 M,0,14318,,504,178 F,0,14318,15092,1,0 S,1,14318,15092,0.2402587,1.222969
Sprite,Foreground,Centre,"ring.png",320,240 M,0,15092,,224,320 F,0,15092,15382,1,0 S,1,15092,15382,0.2402587,1.222969
Sprite,Foreground,Centre,"ring.png",320,240 M,0,15382,,312,204 F,0,15382,15673,1,0 S,1,15382,15673,0.2402587,1.222969
Sprite,Foreground,Centre,"ring.png",320,240 M,0,15673,,264,152 F,0,15673,15866,1,0 S,1,15673,15866,0.2402587,1.222969
Sprite,Foreground,Centre,"ring.png",320,240 M,0,15866,,312,204 F,0,15866,16641,1,0 S,1,15866,16641,0.2402587,1.222969
Sprite,Foreground,Centre,"ring.png",320,240 M,0,16641,,404,156 F,0,16641,16931,1,0 S,1,16641,16931,0.2402587,1.222969
Sprite,Foreground,Centre,"ring.png",320,240 M,0,16931,,300,189 F,0,16931,17221,1,0 S,1,16931,17221,0.2402587,1.222969
Sprite,Foreground,Centre,"ring.png",320,240 M,0,17221,,352,248 F,0,17221,17415,1,0 S,1,17221,17415,0.2402587,1.222969
Sprite,Foreground,Centre,"ring.png",320,240 M,0,17415,,300,189 F,0,17415,18189,1,0 S,1,17415,18189,0.2402587,1.222969
Sprite,Foreground,Centre,"ring.png",320,240 M,0,18189,,176,372 F,0,18189,18963,1,0 S,1,18189,18963,0.2402587,1.222969
Sprite,Foreground,Centre,"ring.png",320,240 M,0,18963,,160,144 F,0,18963,19737,1,0 S,1,18963,19737,0.2402587,1.222969
Sprite,Foreground,Centre,"ring.png",320,240 M,0,19737,,280,272 F,0,19737,20512,1,0 S,1,19737,20512,0.2402587,1.222969
Sprite,Foreground,Centre,"ring.png",320,240 M,0,20512,,356,324 F,0,20512,21286,1,0 S,1,20512,21286,0.2402587,1.222969
Sprite,Foreground,Centre,"ring.png",320,240 M,0,21286,,152,204 F,0,21286,21576,1,0 S,1,21286,21576,0.2402587,1.222969
Sprite,Foreground,Centre,"ring.png",320,240 M,0,21576,,112,116 F,0,21576,21866,1,0 S,1,21576,21866,0.2402587,1.222969
Sprite,Foreground,Centre,"ring.png",320,240 M,0,21866,,100,322 F,0,21866,22060,1,0 S,1,21866,22060,0.2402587,1.222969
Sprite,Foreground,Centre,"ring.png",320,240 M,0,22060,,236,292 F,0,22060,22834,1,0 S,1,22060,22834,0.2402587,1.222969
Sprite,Foreground,Centre,"ring.png",320,240 M,0,23608,,320,392 F,0,23608,25157,1,0 S,1,23608,25157,0.2402587,1.222969
Sprite,Foreground,Centre,"ring.png",320,240 M,0,25157,,372,400 F,0,25157,25931,1,0 S,1,25157,25931,0.2402587,1.222969
Sprite,Foreground,Centre,"ring.png",320,240 M,0,25253,,252,380 F,0,25253,26028,1,0 S,1,25253,26028,0.2402587,1.222969
Sprite,Foreground,Centre,"ring.png",320,240 M,0,25447,,252,148 F,0,25447,26221,1,0 S,1,25447,26221,0.2402587,1.222969
Sprite,Foreground,Centre,"ring.png",320,240 M,0,25641,,320,264 F,0,25641,26415,1,0 S,1,25641,26415,0.2402587,1.222969
Sprite,Foreground,Centre,"ring.png",320,240 M,0,25737,,399,200 F,0,25737,26512,1,0 S,1,25737,26512,0.2402587,1.222969
Sprite,Foreground,Centre,"ring.png",320,240 M,0,25931,,320,264 F,0,25931,26705,1,0 S,1,25931,26705,0.2402587,1.222969
Sprite,Foreground,Centre,"ring.png",320,240 M,0,26221,,320,420 F,0,26221,26995,1,0 S,1,26221,26995,0.2402587,1.222969
Sprite,Foreground,Centre,"ring.png",320,240 M,0,26512,,320,264 F,0,26512,27286,1,0 S,1,26512,27286,0.2402587,1.222969
Sprite,Foreground,Centre,"ring.png",320,240 M,0,26705,,320,180 F,0,26705,29415,1,0 S,1,26705,29415,0.2402587,1.222969
//Storyboard Sound Samples

[TimingPoints]
383,387.096774193548,4,1,1,100,1,0
1157,-100,4,1,1,30,0,0
1737,-100,4,1,1,50,0,0
1979,-100,4,1,1,50,0,0
4641,-100,4,1,1,100,0,0
14318,-100,4,1,1,100,0,1
20512,-83.3333333333333,4,1,1,100,0,1
24358,-83.3333333333333,4,1,1,10,0,1
24382,-83.3333333333333,4,1,1,100,0,1
25253,-83.3333333333333,4,1,1,90,0,1
25447,-83.3333333333333,4,1,1,60,0,1
25544,-83.3333333333333,4,1,1,90,0,1
25641,-83.3333333333333,4,1,1,70,0,1
25737,-83.3333333333333,4,1,1,40,0,1
25834,-83.3333333333333,4,1,1,90,0,1
25931,-83.3333333333333,4,1,1,100,0,1
26705,-83.3333333333333,4,1,1,30,0,0
29439,-83.3333333333333,4,1,1,5,0,0

[Colours]
Combo1 : 53,88,45
Combo2 : 148,62,15
Combo3 : 64,93,80
Combo4 : 123,110,41

[HitObjects]
108,140,1157,53,12,0:2:0:0:
108,140,1737,1,4,0:0:0:0:
108,140,1931,6,0,L|132:140,56,22.5,4|0|0|0|0|0|0|0|0|0|0|0|0|0|0|0|0|0|0|0|0|0|0|0|0|0|0|0|0|0|0|0|0|0|0|0|0|0|0|0|0|0|0|0|0|0|0|0|0|0|0|0|0|0|0|0|0,2:2|0:0|0:0|0:0|0:0|0:0|0:0|0:0|0:0|0:0|0:0|0:0|0:0|0:0|0:0|0:0|0:0|0:0|0:0|0:0|0:0|0:0|0:0|0:0|0:0|0:0|0:0|0:0|0:0|0:0|0:0|0:0|0:0|0:0|0:0|0:0|0:0|0:0|0:0|0:0|0:0|0:0|0:0|0:0|0:0|0:0|0:0|0:0|0:0|0:0|0:0|0:0|0:0|0:0|0:0|0:0|2:1,0:0:0:0:
292,128,5028,6,0,L|364:212,1,90,4|0,0:0|2:0,0:0:0:0:
220,128,5801,2,0,L|148:212,1,90,4|0,0:0|2:0,0:0:0:0:
392,344,6576,5,4,0:0:0:0:
120,344,6963,1,4,0:0:0:0:
256,224,7350,1,4,0:0:0:0:
304,148,7544,1,4,0:0:0:0:
256,72,7737,1,4,0:0:0:0:
216,48,7834,1,4,0:0:0:0:
172,40,7931,2,0,L|140:40,3,22.5,4|4|4|4,0:0|0:0|0:0|0:0,0:0:0:0:
136,56,8124,6,0,L|128:104,3,45,4|0|0|0,0:2|0:0|0:0|0:0,0:0:0:0:
164,132,8512,2,0,L|168:188,3,45,8|0|0|0,0:0|0:0|0:0|0:0,0:0:0:0:
192,212,8899,1,4,0:0:0:0:
200,224,8995,1,0,0:0:0:0:
208,236,9092,1,0,0:0:0:0:
216,248,9189,1,0,0:0:0:0:
204,292,9286,2,0,L|224:352,3,45,8|0|0|0,0:0|0:0|0:0|0:0,0:0:0:0:
293,334,9674,6,0,L|308:292,3,45,4|0|0|0,0:0|0:0|0:0|0:0,0:0:0:0:
296,248,10061,1,8,0:0:0:0:
304,236,10158,1,0,0:0:0:0:
312,224,10254,1,0,0:0:0:0:
320,212,10351,1,0,0:0:0:0:
344,176,10448,2,0,L|348:132,3,45,4|0|0|0,0:0|0:0|0:0|0:0,0:0:0:0:
383,100,10835,2,0,L|376:56,3,45,8|0|0|0,0:0|0:0|0:0|0:0,0:0:0:0:
336,36,11221,5,4,0:0:0:0:
324,48,11318,1,0,0:0:0:0:
312,36,11415,1,0,0:0:0:0:
300,48,11512,1,0,0:0:0:0:
288,36,11608,1,8,0:0:0:0:
276,48,11705,1,0,0:0:0:0:
264,36,11802,1,0,0:0:0:0:
252,48,11899,1,0,0:0:0:0:
240,36,11995,1,4,0:0:0:0:
228,48,12092,1,0,0:0:0:0:
216,36,12189,1,0,0:0:0:0:
204,48,12286,1,0,0:0:0:0:
192,36,12383,2,0,L|160:32,7,22.5,8|0|0|0|0|0|0|0,0:0|0:0|0:0|0:0|0:0|0:0|0:0|0:0,0:0:0:0:
169,33,12770,6,0,B|184:100|156:144|156:144|120:188|156:240|216:224|216:176,1,270,12|0,0:0|0:0,0:0:0:0:
280,96,13544,1,4,0:0:0:0:
360,234,13834,1,4,0:0:0:0:
440,96,14124,1,4,0:0:0:0:
440,96,14318,6,0,P|464:152|468:196,1,90,6|0,0:2|0:0,0:0:0:0:
492,276,14608,1,2,0:0:0:0:
396,284,14705,2,0,L|344:284,1,45,12|0,0:2|0:0,0:0:0:0:
220,328,14899,2,0,L|272:328,1,45,2|0,0:0|0:0,0:0:0:0:
160,248,15092,2,0,B|120:228|112:192|112:192|128:200,1,90,6|0,0:0|0:0,0:0:0:0:
248,132,15383,2,0,B|228:172|192:180|192:180|200:164,1,90,2|0,0:0|0:0,0:0:0:0:
200,80,15673,2,0,P|224:64|256:60,1,45,2|0,0:0|0:0,0:0:0:0:
248,132,15866,6,0,L|328:192,1,90,6|0,0:0|0:0,0:0:0:0:
340,84,16157,1,2,0:0:0:0:
239,60,16253,2,0,P|218:66|200:80,1,45,8|0,0:0|0:0,0:0:0:0:
112,176,16448,2,0,P|133:169|151:156,1,45,2|0,0:0|0:0,0:0:0:0:
340,84,16641,2,0,B|404:64|404:64|396:92,1,90,6|2,0:0|0:0,0:0:0:0:
236,117,16931,2,0,B|216:53|216:53|239:60,1,90,2|2,0:0|0:0,0:0:0:0:
288,176,17221,2,0,P|252:192|228:192,1,45,2|0,0:0|0:0,0:0:0:0:
236,117,17415,6,0,P|272:100|332:112,1,90,6|0,0:0|0:0,0:0:0:0:
368,188,17705,1,2,0:0:0:0:
376,280,17802,2,0,L|420:272,1,45,8|0,0:0|0:0,0:0:0:0:
264,240,17996,2,0,L|220:248,1,45,2|0,0:0|0:0,0:0:0:0:
112,300,18189,2,0,B|144:312|156:344|156:344|156:312,1,90,6|0,0:0|0:0,0:0:0:0:
40,272,18480,2,0,B|52:240|84:228|84:228|52:228,1,90,2|0,0:0|0:0,0:0:0:0:
24,152,18770,2,0,L|28:92,1,45,2|0,0:0|0:0,0:0:0:0:
96,72,18963,6,0,L|204:60,1,90,6|0,0:0|0:0,0:0:0:0:
256,132,19253,1,2,0:0:0:0:
326,62,19350,2,0,L|408:72,1,45,8|0,0:0|0:0,0:0:0:0:
448,176,19545,2,0,L|366:166,1,45,2|0,0:0|0:0,0:0:0:0:
216,200,19737,2,0,B|192:240|200:268|200:268|220:248,1,90,6|0,0:0|0:0,0:0:0:0:
256,132,20028,2,0,B|216:108|188:116|188:116|208:136,1,90,6|0,0:0|0:0,0:0:0:0:
320,180,20318,2,0,P|332:152|336:116,1,45,6|0,0:0|0:0,0:0:0:0:
292,252,20512,6,0,P|336:256|392:212,1,107.999996704102,4|0,0:0|0:0,0:0:0:0:
420,144,20802,1,2,0:0:0:0:
408,60,20899,2,0,P|380:68|356:88,1,53.9999983520508,8|0,0:0|0:0,0:0:0:0:
192,84,21093,2,0,P|220:76|244:56,1,53.9999983520508,2|0,0:0|0:0,0:0:0:0:
88,132,21286,2,0,B|100:168|88:208|88:208|80:176,1,107.999996704102,6|0,0:0|0:0,0:0:0:0:
48,44,21577,2,0,B|84:32|124:44|124:44|84:56,1,107.999996704102,2|0,0:0|0:0,0:0:0:0:
36,268,21866,2,0,P|56:284|86:286,1,53.9999983520508,2|0,0:0|0:0,0:0:0:0:
172,220,22060,6,0,P|200:196|208:120,1,107.999996704102,6|0,0:0|0:0,0:0:0:0:
276,60,22350,1,2,0:0:0:0:
364,32,22447,2,0,P|400:40|436:64,1,53.9999983520508,8|0,0:0|0:0,0:0:0:0:
484,152,22641,2,0,P|448:144|412:120,1,53.9999983520508,2|0,0:0|0:0,0:0:0:0:
316,136,22834,2,0,B|260:196|260:196|320:188,1,107.999996704102,6|0,0:0|0:0,0:0:0:0:
432,136,23125,2,0,B|372:80|372:80|375:105,1,107.999996704102,2|0,0:0|0:0,0:0:0:0:
384,184,23415,2,0,P|405:203|432:208,1,53.9999983520508,2|0,0:0|0:0,0:0:0:0:
256,320,23608,6,0,P|216:300|192:240,1,107.999996704102,6|2,0:0|0:0,0:0:0:0:
340,267,23899,2,0,P|307:309|256:320,1,107.999996704102,2|2,0:0|0:0,0:0:0:0:
268,243,24189,2,0,L|285:192,1,53.9999983520508,2|0,0:0|0:0,0:0:0:0:
324,104,24383,1,4,0:0:0:0:
348,116,24479,1,0,0:0:0:0:
372,104,24576,1,0,0:0:0:0:
396,116,24673,1,0,0:0:0:0:
420,104,24770,2,0,L|432:160,1,53.9999983520508,8|0,0:0|0:0,0:0:0:0:
420,280,24964,2,0,L|431:227,1,53.9999983520508,0|0,0:0|0:0,0:0:0:0:
308,328,25157,5,4,0:0:0:0:
188,308,25253,2,0,L|168:220,1,53.9999983520508,12|4,0:0|0:0,0:0:0:0:
176,128,25447,2,0,L|188:76,1,53.9999983520508,12|12,0:0|0:0,0:0:0:0:
256,192,25641,1,12,0:0:0:0:
335,128,25738,2,0,L|324:76,1,53.9999983520508,12|12,0:0|0:0,0:0:0:0:
256,192,25931,6,0,L|256:354,2,161.999995056153,12|12|12,0:0|0:0|0:0,0:0:0:0:
256,108,26705,6,2,L|256:92,112,13.4999995880127,0|0|0|0|0|0|0|0|0|0|0|0|0|0|0|0|0|0|0|0|0|0|0|0|0|0|0|0|0|0|0|0|0|0|0|0|0|0|0|0|0|0|0|0|0|0|0|0|0|0|0|0|0|0|0|0|0|0|0|0|0|0|0|0|0|0|0|0|0|0|0|0|0|0|0|0|0|0|0|0|0|0|0|0|0|0|0|0|0|0|0|0|0|0|0|0|0|0|0|0|0|0|0|0|0|0|0|0|0|0|0|0|0,2:1|2:1|2:1|2:1|2:1|2:1|2:1|2:1|2:1|2:1|2:1|2:1|2:1|2:1|2:1|2:1|2:1|2:1|2:1|2:1|2:1|2:1|2:1|2:1|2:1|2:1|2:1|2:1|2:1|2:1|2:1|2:1|2:1|2:1|2:1|2:1|2:1|2:1|2:1|2:1|2:1|2:1|2:1|2:1|2:1|2:1|2:1|2:1|2:1|2:1|2:1|2:1|2:1|2:1|2:1|2:1|2:1|2:1|2:1|2:1|2:1|2:1|2:1|2:1|2:1|2:1|2:1|2:1|2:1|2:1|2:1|2:1|2:1|2:1|2:1|2:1|2:1|2:1|2:1|2:1|2:1|2:1|2:1|2:1|2:1|2:1|2:1|2:1|2:1|2:1|2:1|2:1|2:1|2:1|2:1|2:1|2:1|2:1|2:1|2:1|2:1|2:1|2:1|2:1|2:1|2:1|2:1|2:1|2:1|2:1|2:1|2:1|0:0,0:0:0:0:
256,192,29439,12,0,31350,0:0:0:0:
