osu file format v14

[General]
AudioFilename: Custom Drive.mp3
AudioLeadIn: 1000
PreviewTime: 14318
Countdown: 0
SampleSet: Normal
StackLeniency: 0.7
Mode: 0
LetterboxInBreaks: 0
EpilepsyWarning: 1
WidescreenStoryboard: 0
SamplesMatchPlaybackRate: 1

[Editor]
DistanceSpacing: 1.2
BeatDivisor: 8
GridSize: 4
TimelineZoom: 2.8

[Metadata]
Title:CUSTOM DRIVE
TitleUnicode:CUSTOM DRIVE
Artist:DJ YOSHITAKA
ArtistUnicode:DJ YOSHITAKA
Creator:Bara-
Version:HARD
Source:beatmania IIDX 13 DistorteD
Tags:captivate ORIGINAL SOUNDTRACK konami ps2 PlayStation 2 ビートマニア ツーディーエックス 13 ディストーテッド
BeatmapID:722853
BeatmapSetID:325426

[Difficulty]
HPDrainRate:5
CircleSize:4
OverallDifficulty:6
ApproachRate:8
SliderMultiplier:1.6
SliderTickRate:2

[Events]
//Background and Video events
0,0,"new_dandelion.jpg",0,0
//Break Periods
//Storyboard Layer 0 (Background)
//Storyboard Layer 1 (Fail)
//Storyboard Layer 2 (Pass)
//Storyboard Layer 3 (Foreground)
Sprite,Foreground,Centre,"ring.png",320,240 M,0,1157,,200,216 F,0,1157,4641,1,0 S,1,1157,4641,0.2402587,1.222969
Sprite,Foreground,Centre,"ring.png",320,240 M,0,8124,,256,384 F,0,8124,8899,1,0 S,1,8124,8899,0.2402587,1.222969
Sprite,Foreground,Centre,"ring.png",320,240 M,0,9672,,440,340 F,0,9672,10447,1,0 S,1,9672,10447,0.2402587,1.222969
Sprite,Foreground,Centre,"ring.png",320,240 M,0,11221,,392,164 F,0,11221,11995,1,0 S,1,11221,11995,0.2402587,1.222969
Sprite,Foreground,Centre,"ring.png",320,240 M,0,12770,,392,164 F,0,12770,13544,1,0 S,1,12770,13544,0.2402587,1.222969
Sprite,Foreground,Centre,"ring.png",320,240 M,0,14318,,172,248 F,0,14318,15092,1,0 S,1,14318,15092,0.2402587,1.222969
Sprite,Foreground,Centre,"ring.png",320,240 M,0,15866,,460,232 F,0,15866,16641,1,0 S,1,15866,16641,0.2402587,1.222969
Sprite,Foreground,Centre,"ring.png",320,240 M,0,17415,,192,280 F,0,17415,18189,1,0 S,1,17415,18189,0.2402587,1.222969
Sprite,Foreground,Centre,"ring.png",320,240 M,0,18963,,248,350 F,0,18963,19737,1,0 S,1,18963,19737,0.2402587,1.222969
Sprite,Foreground,Centre,"ring.png",320,240 M,0,20512,,464,368 F,0,20512,21286,1,0 S,1,20512,21286,0.2402587,1.222969
Sprite,Foreground,Centre,"ring.png",320,240 M,0,22060,,376,172 F,0,22060,22834,1,0 S,1,22060,22834,0.2402587,1.222969
Sprite,Foreground,Centre,"ring.png",320,240 M,0,23608,,112,344 F,0,23608,25157,1,0 S,1,23608,25157,0.2402587,1.222969
Sprite,Foreground,Centre,"ring.png",320,240 M,0,25157,,199,160 F,0,25157,25544,1,0 S,1,25157,25544,0.2402587,1.222969
Sprite,Foreground,Centre,"ring.png",320,240 M,0,25544,,164,308 F,0,25544,25931,1,0 S,1,25544,25931,0.2402587,1.222969
Sprite,Foreground,Centre,"ring.png",320,240 M,0,25931,,348,337 F,0,25931,26705,1,0 S,1,25931,26705,0.2402587,1.222969
//Storyboard Sound Samples

[TimingPoints]
383,387.096774193548,4,1,1,100,1,0
1157,-100,4,1,1,30,0,0
1737,-100,4,1,1,50,0,0
1979,-100,4,1,1,50,0,0
4641,-100,4,1,1,100,0,0
14318,-100,4,1,1,100,0,1
20512,-83.3333333333333,4,1,1,100,0,1
24358,-83.3333333333333,4,1,1,10,0,1
24382,-83.3333333333333,4,1,1,100,0,1
25253,-83.3333333333333,4,1,1,90,0,1
25447,-83.3333333333333,4,1,1,60,0,1
25544,-83.3333333333333,4,1,1,90,0,1
25641,-83.3333333333333,4,1,1,70,0,1
25737,-83.3333333333333,4,1,1,40,0,1
25834,-83.3333333333333,4,1,1,90,0,1
25931,-83.3333333333333,4,1,1,100,0,1
26705,-83.3333333333333,4,1,1,30,0,0
29439,-83.3333333333333,4,1,1,5,0,0
29512,-83.3333333333333,4,1,1,5,0,0

[Colours]
Combo1 : 53,88,45
Combo2 : 148,62,15
Combo3 : 64,93,80
Combo4 : 123,110,41

[HitObjects]
136,144,1157,5,12,0:2:0:0:
136,144,1737,1,4,0:0:0:0:
136,144,1931,6,0,L|132:168,56,20,4|0|0|0|0|0|0|0|0|0|0|0|0|0|0|0|0|0|0|0|0|0|0|0|0|0|0|0|0|0|0|0|0|0|0|0|0|0|0|0|0|0|0|0|0|0|0|0|0|0|0|0|0|0|0|0|0,2:2|0:0|0:0|0:0|0:0|0:0|0:0|0:0|0:0|0:0|0:0|0:0|0:0|0:0|0:0|0:0|0:0|0:0|0:0|0:0|0:0|0:0|0:0|0:0|0:0|0:0|0:0|0:0|0:0|0:0|0:0|0:0|0:0|0:0|0:0|0:0|0:0|0:0|0:0|0:0|0:0|0:0|0:0|0:0|0:0|0:0|0:0|0:0|0:0|0:0|0:0|0:0|0:0|0:0|0:0|0:0|2:1,0:0:0:0:
156,304,5028,6,0,P|248:304|304:248,1,160,4|0,0:0|2:0,0:0:0:0:
324,104,5802,2,0,P|232:104|176:160,1,160,4|0,0:0|2:0,0:0:0:0:
339,182,6576,22,0,P|387:154|399:130,1,80,4|0,0:0|0:0,0:0:0:0:
264,192,6964,2,0,P|292:240|316:252,1,80,4|0,0:0|0:0,0:0:0:0:
420,328,7350,1,4,0:0:0:0:
343,347,7544,1,4,0:0:0:0:
264,344,7737,1,4,0:0:0:0:
264,344,7834,1,4,0:0:0:0:
264,344,7931,2,0,L|212:328,1,40,4|4,0:0|0:0,0:0:0:0:
192,312,8124,38,0,L|180:228,1,80,4|0,0:2|0:0,0:0:0:0:
192,72,8511,2,0,L|180:156,1,80,8|0,0:0|0:0,0:0:0:0:
256,180,8899,1,4,0:0:0:0:
331,151,9092,1,0,0:0:0:0:
400,192,9286,2,0,L|444:200,2,40,8|0|0,0:0|0:0|0:0,0:0:0:0:
376,268,9673,6,0,L|292:280,1,80,4|0,0:0|0:0,0:0:0:0:
215,279,10060,2,0,L|144:304,2,40,8|0|0,0:0|0:0|0:0,0:0:0:0:
244,204,10448,1,0,0:0:0:0:
215,128,10641,1,0,0:0:0:0:
256,60,10835,2,0,L|264:16,2,40,8|0|0,0:0|0:0|0:0,0:0:0:0:
328,92,11221,6,0,L|380:116,7,40,4|0|0|0|8|0|0|0,0:0|0:0|0:0|0:0|0:0|0:0|0:0|0:0,0:0:0:0:
392,136,11995,2,0,L|384:232,1,80,4|0,0:0|0:0,0:0:0:0:
284,184,12382,2,0,L|264:232,2,40,8|0|0,0:0|0:0|0:0,0:0:0:0:
328,92,12770,5,12,0:0:0:0:
328,92,13544,1,4,0:0:0:0:
312,212,13834,1,4,0:0:0:0:
216,138,14124,1,4,0:0:0:0:
108,176,14318,6,0,P|116:152|104:92,1,80,6|0,0:2|0:0,0:0:0:0:
144,84,14609,2,0,P|168:92|228:80,1,80,2|0,0:0|0:0,0:0:0:0:
260,88,14899,1,2,0:0:0:0:
340,104,15092,1,6,0:0:0:0:
396,160,15286,2,0,L|352:180,1,40,2|2,0:0|0:0,0:0:0:0:
357,32,15576,2,0,L|394:47,1,40,0|2,0:0|0:0,0:0:0:0:
396,160,15866,6,0,P|380:208|384:256,1,80,6|0,0:0|0:0,0:0:0:0:
388,276,16157,2,0,P|340:260|292:264,1,80,2|0,0:0|0:0,0:0:0:0:
272,272,16447,1,2,0:0:0:0:
196,248,16641,1,6,0:0:0:0:
128,208,16834,2,0,P|156:184|184:168,1,40,2|2,0:0|0:0,0:0:0:0:
158,313,17124,2,0,P|142:301|128:288,1,40,2|2,0:0|0:0,0:0:0:0:
128,208,17415,6,0,B|120:168|120:168|128:120,1,80,6|0,0:0|0:0,0:0:0:0:
136,88,17706,2,0,B|174:94|174:94|214:86,1,80,2|0,0:0|0:0,0:0:0:0:
256,84,17995,1,2,0:0:0:0:
336,80,18190,2,0,B|344:120|344:120|336:164,1,80,6|0,0:0|0:0,0:0:0:0:
328,200,18480,2,0,B|289:193|289:193|249:201,1,80,2|0,0:0|0:0,0:0:0:0:
208,204,18770,1,2,0:0:0:0:
184,278,18963,6,0,P|152:258|132:190,1,80,6|0,0:0|0:0,0:0:0:0:
120,184,19254,2,0,P|100:216|32:236,1,80,2|0,0:0|0:0,0:0:0:0:
24,244,19544,1,2,0:0:0:0:
184,278,19737,2,0,P|216:258|236:190,1,80,6|0,0:0|0:0,0:0:0:0:
248,184,20028,2,0,P|268:216|336:236,1,80,6|0,0:0|0:0,0:0:0:0:
344,244,20318,1,6,0:0:0:0:
400,296,20512,6,0,P|420:252|408:200,1,95.9999970703126,6|0,0:0|0:0,0:0:0:0:
384,156,20803,2,0,P|375:109|396:64,1,95.9999970703126,2|0,0:0|0:0,0:0:0:0:
424,20,21092,1,2,0:0:0:0:
512,92,21286,1,6,0:0:0:0:
508,204,21479,2,0,L|484:256,1,47.9999985351563,2|2,0:0|0:0,0:0:0:0:
344,243,21770,2,0,L|365:200,1,47.9999985351563,2|2,0:0|0:0,0:0:0:0:
312,100,22060,5,6,0:0:0:0:
256,176,22253,2,0,L|256:228,1,47.9999985351563,2|2,0:0|0:0,0:0:0:0:
200,96,22544,2,0,L|200:44,1,47.9999985351563,2|2,0:0|0:0,0:0:0:0:
256,176,22834,2,0,P|212:196|172:176,1,95.9999970703126,6|0,0:0|0:0,0:0:0:0:
128,132,23124,2,0,P|80:112|36:140,1,95.9999970703126,2|0,0:0|0:0,0:0:0:0:
4,176,23415,1,2,0:0:0:0:
48,272,23608,6,0,B|140:308,1,95.9999970703126,6|2,0:0|0:0,0:0:0:0:
92,340,23899,2,0,L|184:364,1,95.9999970703126,2|2,0:0|0:0,0:0:0:0:
232,372,24189,2,0,L|280:340,1,47.9999985351563,2|0,0:0|0:0,0:0:0:0:
312,316,24382,1,4,0:0:0:0:
348,228,24576,1,0,0:0:0:0:
320,136,24770,1,8,0:0:0:0:
244,80,24963,1,0,0:0:0:0:
135,88,25157,6,0,L|88:96,1,47.9999985351563,4|12,0:0|0:0,0:0:0:0:
80,192,25447,1,12,0:0:0:0:
100,236,25544,1,12,0:0:0:0:
140,264,25641,1,12,0:0:0:0:
236,268,25834,1,12,0:0:0:0:
283,263,25931,38,8,B|296:216|296:216|296:168|296:168|312:112,2,143.999995605469,12|12|12,0:0|0:0|0:0,0:0:0:0:
226,359,26705,5,0,0:0:0:0:
256,192,26802,12,0,29415,0:0:0:0:
256,192,29512,12,0,31350,0:0:0:0:
