osu file format v14

[General]
AudioFilename: Custom Drive.mp3
AudioLeadIn: 1000
PreviewTime: 14318
Countdown: 0
SampleSet: Normal
StackLeniency: 0.7
Mode: 0
LetterboxInBreaks: 0
EpilepsyWarning: 1
WidescreenStoryboard: 0
SamplesMatchPlaybackRate: 1

[Editor]
DistanceSpacing: 1.02
BeatDivisor: 4
GridSize: 4
TimelineZoom: 7.599995

[Metadata]
Title:CUSTOM DRIVE
TitleUnicode:CUSTOM DRIVE
Artist:DJ YOSHITAKA
ArtistUnicode:DJ YOSHITAKA
Creator:Bara-
Version:DISTORTION
Source:beatmania IIDX 13 DistorteD
Tags:captivate ORIGINAL SOUNDTRACK konami ps2 PlayStation 2 ビートマニア ツーディーエックス 13 ディストーテッド
BeatmapID:722851
BeatmapSetID:325426

[Difficulty]
HPDrainRate:7
CircleSize:5
OverallDifficulty:8
ApproachRate:9.3
SliderMultiplier:2.4
SliderTickRate:2

[Events]
//Background and Video events
0,0,"new_dandelion.jpg",0,0
//Break Periods
//Storyboard Layer 0 (Background)
//Storyboard Layer 1 (Fail)
//Storyboard Layer 2 (Pass)
//Storyboard Layer 3 (Foreground)
Sprite,Foreground,Centre,"ring.png",320,240 M,0,1157,,320,136 F,0,1157,4641,1,0 S,1,1157,4641,0.2402587,1.222969
Sprite,Foreground,Centre,"ring.png",320,240 M,0,8124,,188,192 F,0,8124,8899,1,0 S,1,8124,8899,0.2402587,1.222969
Sprite,Foreground,Centre,"ring.png",320,240 M,0,9672,,544,336 F,0,9672,10447,1,0 S,1,9672,10447,0.2402587,1.222969
Sprite,Foreground,Centre,"ring.png",320,240 M,0,11221,,404,240 F,0,11221,11995,1,0 S,1,11221,11995,0.2402587,1.222969
Sprite,Foreground,Centre,"ring.png",320,240 M,0,12770,,468,308 F,0,12770,13544,1,0 S,1,12770,13544,0.2402587,1.222969
Sprite,Foreground,Centre,"ring.png",320,240 M,0,14318,,244,134 F,0,14318,15092,1,0 S,1,14318,15092,0.2402587,1.222969
Sprite,Foreground,Centre,"ring.png",320,240 M,0,15092,,404,200 F,0,15092,15866,1,0 S,1,15092,15866,0.2402587,1.222969
Sprite,Foreground,Centre,"ring.png",320,240 M,0,15382,,348,236 F,0,15382,16157,1,0 S,1,15382,16157,0.2402587,1.222969
Sprite,Foreground,Centre,"ring.png",320,240 M,0,15673,,320,298 F,0,15673,16447,1,0 S,1,15673,16447,0.2402587,1.222969
Sprite,Foreground,Centre,"ring.png",320,240 M,0,15866,,376,97 F,0,15866,16641,1,0 S,1,15866,16641,0.2402587,1.222969
Sprite,Foreground,Centre,"ring.png",320,240 M,0,16641,,336,222 F,0,16641,17415,1,0 S,1,16641,17415,0.2402587,1.222969
Sprite,Foreground,Centre,"ring.png",320,240 M,0,16931,,421,249 F,0,16931,17705,1,0 S,1,16931,17705,0.2402587,1.222969
Sprite,Foreground,Centre,"ring.png",320,240 M,0,17221,,320,368 F,0,17221,17995,1,0 S,1,17221,17995,0.2402587,1.222969
Sprite,Foreground,Centre,"ring.png",320,240 M,0,17415,,204,416 F,0,17415,18189,1,0 S,1,17415,18189,0.2402587,1.222969
Sprite,Foreground,Centre,"ring.png",320,240 M,0,18189,,467,214 F,0,18189,18963,1,0 S,1,18189,18963,0.2402587,1.222969
Sprite,Foreground,Centre,"ring.png",320,240 M,0,18963,,200,223 F,0,18963,19737,1,0 S,1,18963,19737,0.2402587,1.222969
Sprite,Foreground,Centre,"ring.png",320,240 M,0,19737,,500,204 F,0,19737,20512,1,0 S,1,19737,20512,0.2402587,1.222969
Sprite,Foreground,Centre,"ring.png",320,240 M,0,20512,,386,239 F,0,20512,21286,1,0 S,1,20512,21286,0.2402587,1.222969
Sprite,Foreground,Centre,"ring.png",320,240 M,0,21286,,536,320 F,0,21286,22060,1,0 S,1,21286,22060,0.2402587,1.222969
Sprite,Foreground,Centre,"ring.png",320,240 M,0,21576,,538,171 F,0,21576,22350,1,0 S,1,21576,22350,0.2402587,1.222969
Sprite,Foreground,Centre,"ring.png",320,240 M,0,21866,,375,269 F,0,21866,22641,1,0 S,1,21866,22641,0.2402587,1.222969
Sprite,Foreground,Centre,"ring.png",320,240 M,0,22060,,365,354 F,0,22060,22834,1,0 S,1,22060,22834,0.2402587,1.222969
Sprite,Foreground,Centre,"ring.png",320,240 M,0,22834,,320,379 F,0,22834,23608,1,0 S,1,22834,23608,0.2402587,1.222969
Sprite,Foreground,Centre,"ring.png",320,240 M,0,23124,,221,306 F,0,23124,23899,1,0 S,1,23124,23899,0.2402587,1.22296
Sprite,Foreground,Centre,"ring.png",320,240 M,0,23415,,307,292 F,0,23415,24189,1,0 S,1,23415,24189,0.2402587,1.222969
Sprite,Foreground,Centre,"ring.png",320,240 M,0,23608,,320,396 F,0,23608,25157,1,0 S,1,23608,25157,0.2402587,1.222969
Sprite,Foreground,Centre,"ring.png",320,240 M,0,25157,,291,258 F,0,25157,25931,1,0 S,1,25157,25931,0.2402587,1.222969
Sprite,Foreground,Centre,"ring.png",320,240 M,0,25253,,296,230 F,0,25253,26028,1,0 S,1,25253,26028,0.2402587,1.222969
Sprite,Foreground,Centre,"ring.png",320,240 M,0,25447,,248,110 F,0,25447,26221,1,0 S,1,25447,26221,0.2402587,1.222969
Sprite,Foreground,Centre,"ring.png",320,240 M,0,25641,,247,111 F,0,25641,26415,1,0 S,1,25641,26415,0.2402587,1.222969
Sprite,Foreground,Centre,"ring.png",320,240 M,0,25737,,313,137 F,0,25737,26512,1,0 S,1,25737,26512,0.2402587,1.222969
Sprite,Foreground,Centre,"ring.png",320,240 M,0,25931,,472,180 F,0,25931,26705,1,0 S,1,25931,26705,0.2402587,1.222969
Sprite,Foreground,Centre,"ring.png",320,240 M,0,26221,,502,263 F,0,26221,26995,1,0 S,1,26221,26995,0.2402587,1.222969
Sprite,Foreground,Centre,"ring.png",320,240 M,0,26512,,472,180 F,0,26512,27286,1,0 S,1,26512,27286,0.2402587,1.222969
Sprite,Foreground,Centre,"ring.png",320,240 M,0,26705,,352,136 F,0,26705,29415,1,0 S,1,26705,29415,0.2402587,1.222969
//Storyboard Sound Samples

[TimingPoints]
383,387.096774193548,4,1,1,100,1,0
1157,-100,4,1,1,30,0,0
1737,-100,4,1,1,50,0,0
4641,-100,4,1,1,100,0,0
8124,-133.333333333333,4,1,1,100,0,0
14318,-100,4,1,1,100,0,1
20512,-90.9090909090909,4,1,1,100,0,1
23608,-142.857142857143,4,1,1,100,0,1
23899,-100,4,1,1,100,0,1
24189,-200,4,1,1,100,0,1
24358,-200,4,1,1,10,0,1
24382,-100,4,1,1,100,0,1
25253,-83.3333333333333,4,1,1,90,0,1
25447,-83.3333333333333,4,1,1,60,0,1
25544,-83.3333333333333,4,1,1,90,0,1
25641,-83.3333333333333,4,1,1,70,0,1
25737,-83.3333333333333,4,1,1,40,0,1
25834,-83.3333333333333,4,1,1,90,0,1
25931,-200,4,1,1,100,0,1
26705,-50,4,1,1,30,0,0
29439,-83.3333333333333,4,1,1,5,0,0

[Colours]
Combo1 : 53,88,45
Combo2 : 148,62,15
Combo3 : 64,93,80
Combo4 : 123,110,41

[HitObjects]
256,64,1157,5,12,0:2:0:0:
256,64,1737,1,4,0:0:0:0:
256,64,1931,5,4,2:2:0:0:
256,192,2028,12,0,4641,2:1:0:0:
124,120,5028,6,0,L|160:264,1,120,4|0,0:0|2:0,0:0:0:0:
388,120,5415,1,0,2:0:0:0:
388,120,5512,1,0,2:0:0:0:
388,120,5608,1,0,2:0:0:0:
388,120,5802,6,0,L|352:264,1,120,4|0,0:0|2:0,0:0:0:0:
124,120,6189,1,0,2:0:0:0:
124,120,6286,1,0,2:0:0:0:
124,120,6382,1,0,2:0:0:0:
124,120,6576,5,4,0:0:0:0:
388,120,6963,5,4,0:0:0:0:
124,120,7350,5,4,0:0:0:0:
388,120,7544,1,4,0:0:0:0:
136,56,7737,1,4,0:0:0:0:
136,56,7834,1,4,0:0:0:0:
136,56,7931,2,0,L|100:56,3,30,4|4|4|4,0:0|0:0|0:0|0:0,0:0:0:0:
124,120,8124,6,0,L|140:188,3,45.0000017166138,4|0|0|0,0:2|0:0|0:0|0:0,0:0:0:0:
80,256,8512,5,8,0:0:0:0:
121,273,8608,1,0,0:0:0:0:
165,272,8705,1,0,0:0:0:0:
205,251,8802,1,0,0:0:0:0:
292,260,8899,6,0,L|320:216,3,45.0000017166138,4|0|0|0,0:0|0:0|0:0|0:0,0:0:0:0:
392,136,9286,5,8,0:0:0:0:
435,126,9383,1,0,0:0:0:0:
472,149,9480,1,0,0:0:0:0:
483,191,9576,1,0,0:0:0:0:
480,264,9673,6,0,L|466:306,1,45.0000017166138,4|0,0:0|0:0,0:0:0:0:
380,352,9867,2,0,L|393:309,1,45.0000017166138,0|0,0:0|0:0,0:0:0:0:
340,228,10061,6,0,L|325:275,1,45.0000017166138,8|0,0:0|0:0,0:0:0:0:
230,324,10254,2,0,L|244:276,1,45.0000017166138,0|0,0:0|0:0,0:0:0:0:
160,240,10446,5,4,0:0:0:0:
139,200,10543,1,0,0:0:0:0:
104,172,10640,1,0,0:0:0:0:
61,161,10737,1,0,0:0:0:0:
124,112,10834,5,8,0:0:0:0:
173,89,10931,1,0,0:0:0:0:
226,87,11028,1,0,0:0:0:0:
275,109,11125,1,0,0:0:0:0:
340,168,11221,6,0,L|336:216,1,45.0000017166138,4|0,0:0|0:0,0:0:0:0:
404,84,11415,2,0,L|407:39,1,45.0000017166138
348,176,11608,6,0,L|344:224,1,45.0000017166138,8|0,0:0|0:0,0:0:0:0:
412,92,11802,2,0,L|415:47,1,45.0000017166138
356,184,11995,6,0,L|352:232,1,45.0000017166138,4|0,0:0|0:0,0:0:0:0:
420,100,12189,2,0,L|423:55,1,45.0000017166138
444,192,12382,6,0,L|444:216,7,22.5000008583069,8|0|0|0|0|0|0|0,0:0|0:0|0:0|0:0|0:0|0:0|0:0|0:0,0:0:0:0:
404,236,12770,5,12,0:0:0:0:
256,244,13544,5,4,0:0:0:0:
56,216,13834,1,4,0:0:0:0:
256,244,14125,1,4,0:0:0:0:
179,79,14318,6,0,P|177:138|204:192,1,120,6|0,0:2|0:0,0:0:0:0:
328,272,14608,1,2,0:0:0:0:
348,268,14705,2,0,P|376:284|396:316,1,60,12|0,0:2|0:0,0:0:0:0:
280,372,14899,2,0,P|252:356|232:324,1,60,2|0,0:0|0:0,0:0:0:0:
340,128,15092,6,0,L|464:144,1,120,6|0,0:0|0:0,0:0:0:0:
272,168,15382,2,0,L|148:152,1,120,2|0,0:0|0:0,0:0:0:0:
256,244,15673,2,0,P|296:244|324:228,1,60,2|0,0:0|0:0,0:0:0:0:
310,43,15866,6,0,P|258:19|204:41,1,120,6|0,0:0|0:0,0:0:0:0:
152,152,16157,1,2,0:0:0:0:
140,168,16253,2,0,P|100:160|76:140,1,60,8|0,0:0|0:0,0:0:0:0:
148,23,16447,2,0,P|178:26|204:42,1,60,2|0,0:0|0:0,0:0:0:0:
272,168,16641,6,0,P|312:214|367:151,1,120,6|2,0:0|0:0,0:0:0:0:
359,195,16931,2,0,B|351:228|351:228|351:318,1,120,2|2,0:0|0:0,0:0:0:0:
256,296,17221,2,0,L|256:360,1,60,2|0,0:0|0:0,0:0:0:0:
140,344,17415,6,0,P|100:312|84:236,1,120,6|0,0:0|0:0,0:0:0:0:
108,160,17705,1,2,0:0:0:0:
164,88,17802,2,0,L|216:48,1,60,8|0,0:0|0:0,0:0:0:0:
348,88,17996,2,0,L|300:51,1,60,2|0,0:0|0:0,0:0:0:0:
403,160,18189,6,0,P|424:138|436:110,1,60,6|0,0:0|0:0,0:0:0:0:
384,28,18382,1,0,0:0:0:0:
320,184,18479,2,0,P|333:211|354:232,1,60,2|8,0:0|0:0,0:0:0:0:
456,212,18672,1,0,0:0:0:0:
332,92,18770,2,0,P|303:93|274:103,1,60,2|0,0:0|0:0,0:0:0:0:
137,168,18963,6,0,P|113:143|100:112,1,60,6|0,0:0|0:0,0:0:0:0:
157,22,19156,1,0,0:0:0:0:
228,194,19253,2,0,P|213:223|190:246,1,60,2|8,0:0|0:0,0:0:0:0:
78,225,19446,1,0,0:0:0:0:
215,93,19544,2,0,P|246:94|278:105,1,60,2|0,0:0|0:0,0:0:0:0:
436,149,19737,6,0,B|458:119|459:84|459:84|423:48,1,120,6|0,0:0|0:0,0:0:0:0:
215,93,20027,2,0,B|193:123|192:158|192:158|228:194,1,120,6|0,0:0|0:0,0:0:0:0:
400,228,20318,2,0,L|432:280,1,60,6|0,0:0|0:0,0:0:0:0:
322,184,20512,6,0,P|372:142|436:149,1,132.00000402832,4|0,0:0|0:0,0:0:0:0:
313,277,20801,2,0,P|254:251|226:192,1,132.00000402832,2|0,0:0|0:0,0:0:0:0:
400,228,21092,2,0,L|395:324,1,66.0000020141602,2|0,0:0|0:0,0:0:0:0:
472,248,21286,6,0,L|480:69,1,132.00000402832,6|0,0:0|0:0,0:0:0:0:
477,116,21576,1,2,0:0:0:0:
376,140,21673,2,0,B|259:132,1,66.0000020141602,8|0,0:0|0:0,0:0:0:0:
312,214,21866,2,0,L|227:207,1,66.0000020141602,2|0,0:0|0:0,0:0:0:0:
301,299,22059,6,0,P|363:281|399:228,1,132.00000402832,6|0,0:0|0:0,0:0:0:0:
399,228,22350,2,0,B|410:270|410:270|393:370,1,132.00000402832,2|0,0:0|0:0,0:0:0:0:
312,214,22641,2,0,L|326:142,1,66.0000020141602,2|0,0:0|0:0,0:0:0:0:
256,324,22834,6,0,P|193:306|158:252,1,132.00000402832,6|0,0:0|0:0,0:0:0:0:
157,252,23125,2,0,B|146:293|146:293|163:393,1,132.00000402832,2|0,0:0|0:0,0:0:0:0:
245,238,23416,2,0,L|231:166,1,66.0000020141602,2|0,0:0|0:0,0:0:0:0:
256,324,23608,6,0,L|312:320,2,41.9999987182618,6|2|2,0:0|0:0|0:0,0:0:0:0:
376,336,23899,6,0,B|392:312|376:280|376:280|360:248|368:212,1,120,2|2,0:0|0:0,0:0:0:0:
448,292,24189,6,0,B|452:316|452:328,1,30,2|0,0:0|0:0,0:0:0:0:
416,384,24382,5,4,0:0:0:0:
377,382,24478,1,0,0:0:0:0:
339,373,24575,1,0,0:0:0:0:
306,357,24672,1,0,0:0:0:0:
276,333,24769,1,8,0:0:0:0:
253,302,24865,1,0,0:0:0:0:
236,268,24962,1,0,0:0:0:0:
227,231,25059,1,0,0:0:0:0:
226,193,25156,1,4,0:0:0:0:
232,158,25253,6,4,L|101:112,1,71.9999978027344,12|4,0:0|0:0,0:0:0:0:
184,55,25447,2,0,P|132:56|92:80,2,71.9999978027344,12|8|12,0:0|0:0|0:0,0:0:0:0:
250,81,25737,1,4,0:0:0:0:
336,40,25834,1,12,0:0:0:0:
408,108,25931,6,12,B|416:136|416:136|432:160|432:160|438:191,2,90
288,64,26705,6,2,L|248:56,112,30,0|0|0|0|0|0|0|0|0|0|0|0|0|0|0|0|0|0|0|0|0|0|0|0|0|0|0|0|0|0|0|0|0|0|0|0|0|0|0|0|0|0|0|0|0|0|0|0|0|0|0|0|0|0|0|0|0|0|0|0|0|0|0|0|0|0|0|0|0|0|0|0|0|0|0|0|0|0|0|0|0|0|0|0|0|0|0|0|0|0|0|0|0|0|0|0|0|0|0|0|0|0|0|0|0|0|0|0|0|0|0|0|0,2:1|2:1|2:1|2:1|2:1|2:1|2:1|2:1|2:1|2:1|2:1|2:1|2:1|2:1|2:1|2:1|2:1|2:1|2:1|2:1|2:1|2:1|2:1|2:1|2:1|2:1|2:1|2:1|2:1|2:1|2:1|2:1|2:1|2:1|2:1|2:1|2:1|2:1|2:1|2:1|2:1|2:1|2:1|2:1|2:1|2:1|2:1|2:1|2:1|2:1|2:1|2:1|2:1|2:1|2:1|2:1|2:1|2:1|2:1|2:1|2:1|2:1|2:1|2:1|2:1|2:1|2:1|2:1|2:1|2:1|2:1|2:1|2:1|2:1|2:1|2:1|2:1|2:1|2:1|2:1|2:1|2:1|2:1|2:1|2:1|2:1|2:1|2:1|2:1|2:1|2:1|2:1|2:1|2:1|2:1|2:1|2:1|2:1|2:1|2:1|2:1|2:1|2:1|2:1|2:1|2:1|2:1|2:1|2:1|2:1|2:1|2:1|0:1,0:1:0:0:
256,192,29439,12,0,31350,0:0:0:0:
