osu file format v14

[General]
AudioFilename: Custom Drive.mp3
AudioLeadIn: 1000
PreviewTime: 14318
Countdown: 0
SampleSet: Normal
StackLeniency: 0.7
Mode: 0
LetterboxInBreaks: 0
EpilepsyWarning: 1
WidescreenStoryboard: 0
SamplesMatchPlaybackRate: 1

[Editor]
DistanceSpacing: 1.1
BeatDivisor: 4
GridSize: 4
TimelineZoom: 2.8

[Metadata]
Title:CUSTOM DRIVE
TitleUnicode:CUSTOM DRIVE
Artist:DJ YOSHITAKA
ArtistUnicode:DJ YOSHITAKA
Creator:Bara-
Version:ADVANCED
Source:beatmania IIDX 13 DistorteD
Tags:captivate ORIGINAL SOUNDTRACK konami ps2 PlayStation 2 ビートマニア ツーディーエックス 13 ディストーテッド
BeatmapID:760576
BeatmapSetID:325426

[Difficulty]
HPDrainRate:4
CircleSize:3.7
OverallDifficulty:5
ApproachRate:6
SliderMultiplier:1.4
SliderTickRate:2

[Events]
//Background and Video events
0,0,"new_dandelion.jpg",0,0
//Break Periods
//Storyboard Layer 0 (Background)
//Storyboard Layer 1 (Fail)
//Storyboard Layer 2 (Pass)
//Storyboard Layer 3 (Foreground)
Sprite,Foreground,Centre,"ring.png",320,240 M,0,1157,,200,216 F,0,1157,4641,1,0 S,1,1157,4641,0.2402587,1.222969
Sprite,Foreground,Centre,"ring.png",320,240 M,0,1931,,200,216 F,0,1931,4641,1,0 S,1,1931,4641,0.2402587,1.222969
Sprite,Foreground,Centre,"ring.png",320,240 M,0,3479,,200,216 F,0,3479,4641,1,0 S,1,3479,4641,0.2402587,1.222969
Sprite,Foreground,Centre,"ring.png",320,240 M,0,8124,,256,384 F,0,8124,8899,1,0 S,1,8124,8899,0.2402587,1.222969
Sprite,Foreground,Centre,"ring.png",320,240 M,0,9672,,380,408 F,0,9672,10447,1,0 S,1,9672,10447,0.2402587,1.222969
Sprite,Foreground,Centre,"ring.png",320,240 M,0,11221,,348,148 F,0,11221,11995,1,0 S,1,11221,11995,0.2402587,1.222969
Sprite,Foreground,Centre,"ring.png",320,240 M,0,12770,,392,164 F,0,12770,13544,1,0 S,1,12770,13544,0.2402587,1.222969
Sprite,Foreground,Centre,"ring.png",320,240 M,0,14318,,428,232 F,0,14318,15092,1,0 S,1,14318,15092,0.2402587,1.222969
Sprite,Foreground,Centre,"ring.png",320,240 M,0,15866,,352,220 F,0,15866,16641,1,0 S,1,15866,16641,0.2402587,1.222969
Sprite,Foreground,Centre,"ring.png",320,240 M,0,17415,,396,284 F,0,17415,18189,1,0 S,1,17415,18189,0.2402587,1.222969
Sprite,Foreground,Centre,"ring.png",320,240 M,0,18963,,340,244 F,0,18963,19737,1,0 S,1,18963,19737,0.2402587,1.222969
Sprite,Foreground,Centre,"ring.png",320,240 M,0,20512,,448,244 F,0,20512,21286,1,0 S,1,20512,21286,0.2402587,1.222969
Sprite,Foreground,Centre,"ring.png",320,240 M,0,22060,,516,420 F,0,22060,22834,1,0 S,1,22060,22834,0.2402587,1.222969
Sprite,Foreground,Centre,"ring.png",320,240 M,0,23608,,120,164 F,0,23608,25157,1,0 S,1,23608,25157,0.2402587,1.222969
Sprite,Foreground,Centre,"ring.png",320,240 M,0,25157,,304,192 F,0,25157,25544,1,0 S,1,25157,25544,0.2402587,1.222969
Sprite,Foreground,Centre,"ring.png",320,240 M,0,25544,,199,295 F,0,25544,25931,1,0 S,1,25544,25931,0.2402587,1.222969
Sprite,Foreground,Centre,"ring.png",320,240 M,0,25931,,373,341 F,0,25931,26705,1,0 S,1,25931,26705,0.2402587,1.222969
//Storyboard Sound Samples

[TimingPoints]
383,387.096774193548,4,1,1,100,1,0
1157,-100,4,1,1,30,0,0
1737,-100,4,1,1,50,0,0
4641,-100,4,1,1,100,0,0
14318,-100,4,1,1,100,0,1
20512,-83.3333333333333,4,1,1,100,0,1
24358,-83.3333333333333,4,1,1,10,0,1
24382,-83.3333333333333,4,1,1,100,0,1
25253,-83.3333333333333,4,1,1,90,0,1
25447,-83.3333333333333,4,1,1,60,0,1
25544,-83.3333333333333,4,1,1,90,0,1
25641,-83.3333333333333,4,1,1,70,0,1
25737,-83.3333333333333,4,1,1,40,0,1
25834,-83.3333333333333,4,1,1,90,0,1
25931,-83.3333333333333,4,1,1,100,0,1
26705,-83.3333333333333,4,1,1,30,0,0
29439,-83.3333333333333,4,1,1,5,0,0
29512,-83.3333333333333,4,1,1,5,0,0

[Colours]
Combo1 : 53,88,45
Combo2 : 148,62,15
Combo3 : 64,93,80
Combo4 : 123,110,41

[HitObjects]
136,144,1157,5,12,0:2:0:0:
136,144,1931,6,0,P|136:192|184:280,1,140,4|0,2:2|0:0,0:0:0:0:
328,236,2705,2,0,P|328:188|280:100,1,140,0|0,0:0|0:0,0:0:0:0:
136,144,3479,5,0,0:0:0:0:
96,292,3866,1,0,0:0:0:0:
244,332,4253,1,0,0:0:0:0:
284,184,4641,1,0,2:1:0:0:
136,144,5028,6,0,P|96:132|64:112,2,70,4|0|0,0:0|2:0|2:0,0:0:0:0:
284,184,5801,2,0,P|324:196|356:216,2,70,4|0|0,0:0|2:0|2:0,0:0:0:0:
136,144,6576,6,0,P|132:92|176:8,1,140,4|4,0:0|0:0,0:0:0:0:
276,116,7350,1,4,0:0:0:0:
296,188,7544,1,4,0:0:0:0:
272,256,7737,2,0,L|268:292,3,35,4|4|4|4,0:0|0:0|0:0|0:0,0:0:0:0:
192,312,8124,38,0,P|148:304|120:280,1,70,4|0,0:2|0:0,0:0:0:0:
96,220,8512,2,0,P|104:176|128:148,1,70,8|0,0:0|0:0,0:0:0:0:
188,124,8899,2,0,P|232:132|260:156,1,70,4|0,0:0|0:0,0:0:0:0:
284,216,9286,2,0,P|276:260|252:288,1,70,8|0,0:0|0:0,0:0:0:0:
316,336,9673,6,0,P|344:296|364:208,1,140,4|8,0:0|0:0,0:0:0:0:
334,137,10253,1,0,0:0:0:0:
284,76,10447,2,0,P|248:64|216:64,1,70,4|0,0:0|0:0,0:0:0:0:
168,124,10835,2,0,P|204:136|236:136,1,70,8|0,0:0|0:0,0:0:0:0:
284,76,11221,5,4,0:0:0:0:
356,48,11415,1,0,0:0:0:0:
432,64,11608,2,0,P|460:100|464:140,1,70,8|0,0:0|0:0,0:0:0:0:
472,200,11996,1,4,0:0:0:0:
400,228,12190,1,0,0:0:0:0:
324,212,12383,2,0,P|292:184|288:136,1,70,8|0,0:0|0:0,0:0:0:0:
328,92,12770,5,12,0:0:0:0:
328,92,13157,1,0,0:0:0:0:
328,92,13544,2,0,B|300:68|300:68|264:80|264:80|224:72,2,105,4|4|4,0:0|0:0|0:0,0:0:0:0:
364,160,14318,6,0,P|380:208|380:248,1,70,6|0,0:2|0:0,0:0:0:0:
324,280,14705,2,0,P|308:232|308:192,1,70,12|2,0:2|0:0,0:0:0:0:
364,160,15092,2,0,B|396:148|396:148|420:104|412:72,2,105,6|2|2,0:0|0:0|0:0,0:0:0:0:
288,148,15866,6,0,B|208:148,1,70,6|0,0:0|0:0,0:0:0:0:
188,220,16254,2,0,B|268:220,1,70,8|2,0:0|0:0,0:0:0:0:
288,148,16641,2,0,P|312:112|312:40,2,105,6|2|2,0:0|0:0|0:0,0:0:0:0:
332,212,17416,6,0,P|364:176|388:112,2,105,6|2|2,0:0|0:0|0:0,0:0:0:0:
264,248,18190,2,0,P|232:284|212:348,2,105,6|2|2,0:0|0:0|0:0,0:0:0:0:
264,172,18963,6,0,P|204:200|176:236,2,105,6|2|2,0:0|0:0|0:0,0:0:0:0:
314,112,19737,2,0,P|278:96|206:118,2,105,6|6|6,0:0|0:0|0:0,0:0:0:0:
384,172,20512,6,0,P|400:224|392:268,1,83.9999974365235,4|0,0:0|0:0,0:0:0:0:
324,312,20899,2,0,P|308:260|316:216,1,83.9999974365235,8|2,0:0|0:0,0:0:0:0:
384,172,21286,2,0,B|428:176|428:176|468:168,1,83.9999974365235,6|0,0:0|0:0,0:0:0:0:
508,144,21576,2,0,B|496:188|496:188|504:240,1,83.9999974365235,2|0,0:0|0:0,0:0:0:0:
508,272,21866,1,2,0:0:0:0:
452,348,22060,6,0,B|412:360|412:360|368:352,1,83.9999974365235,6|0,0:0|0:0,0:0:0:0:
300,288,22448,2,0,B|258:280|258:280|218:292,1,83.9999974365235,8|2,0:0|0:0,0:0:0:0:
140,340,22834,2,0,P|128:300|140:256,1,83.9999974365235,6|0,0:0|0:0,0:0:0:0:
160,216,23125,2,0,P|120:228|76:216,1,83.9999974365235,2|0,0:0|0:0,0:0:0:0:
48,184,23415,1,2,0:0:0:0:
48,92,23608,6,0,P|96:80|136:92,1,83.9999974365235,6|2,0:0|0:0,0:0:0:0:
168,112,23899,2,0,P|172:36|200:8,1,83.9999974365235,2|2,0:0|0:0,0:0:0:0:
220,28,24189,1,2,0:0:0:0:
312,40,24382,2,0,P|356:44|404:56,1,83.9999974365235,4|0,0:0|0:0,0:0:0:0:
416,144,24770,2,0,P|372:140|324:128,1,83.9999974365235,8|0,0:0|0:0,0:0:0:0:
240,120,25157,6,0,L|151:126,1,83.9999974365235,4|12,0:0|0:0,0:0:0:0:
136,235,25544,2,0,L|225:229,1,83.9999974365235,12|12,0:0|0:0,0:0:0:0:
271,238,25834,1,12,0:0:0:0:
304,268,25931,6,12,B|344:268|344:268|376:360,2,125.999996154785,12|12|12,0:0|0:0|0:0,0:0:0:0:
288,144,26705,5,0,2:1:0:0:
256,192,26802,12,0,29415,0:0:0:0:
256,192,29512,12,0,31350,0:0:0:0:
