osu file format v9

[General]
AudioFilename: ALBIDA.mp3
AudioLeadIn: 1500
PreviewTime: 23249
Countdown: 0
SampleSet: Soft
StackLeniency: 0.7
Mode: 1
LetterboxInBreaks: 1

[Editor]
Bookmarks: 12212,67439,77817,88195
DistanceSpacing: 1
BeatDivisor: 4
GridSize: 8

[Metadata]
Title:ALBIDA
Artist:DJ YOSHITAKA
Creator:TKiller
Version:lepidon! - Taiko Muzukashii
Source:beatmaniaIIDX 18 Resort Anthem
Tags:lepidopodus lepidon Natteke

[Difficulty]
HPDrainRate:4
CircleSize:5
OverallDifficulty:4
ApproachRate:5
SliderMultiplier:1.4
SliderTickRate:1

[Events]
//Background and Video events
0,0,"Swirly_Blue_Abstract.jpg"
//Break Periods
//Storyboard Layer 0 (Background)
//Storyboard Layer 1 (Fail)
//Storyboard Layer 2 (Pass)
//Storyboard Layer 3 (Foreground)
//Storyboard Sound Samples
//Background Colour Transformations
3,100,163,162,255

[TimingPoints]
1277,324.324324324324,4,2,1,70,1,0
1277,-200,4,2,1,70,0,0
11493,-100,4,1,1,100,0,0
44087,-100,4,1,1,100,0,1
67276,-200,4,2,1,80,0,1
67439,-200,4,2,1,80,0,0
77655,-100,4,1,1,100,0,0
88195,-100,4,1,1,100,0,1
111547,-100,4,1,1,100,0,0

[Colours]
Combo1 : 255,255,255
Combo2 : 159,207,255
Combo3 : 228,202,255
Combo4 : 183,219,219

[HitObjects]
128,208,1277,1,0
240,256,1763,1,0
352,312,2412,1,0
352,328,3060,1,0
288,168,3871,1,0
144,176,5168,1,0
360,352,5817,1,0
312,216,6466,5,0
208,232,6952,1,0
320,312,7601,1,0
424,376,8249,1,0
320,312,9060,1,0
336,304,10358,1,0
472,312,11006,1,0
256,192,11655,12,0,12790
160,184,12952,5,0
232,192,13114,1,0
296,224,13276,1,0
368,344,13601,1,0
368,344,13763,1,0
440,328,13925,1,0
384,200,14249,1,4
312,184,14574,1,4
304,256,14736,1,4
384,368,15060,1,4
304,256,15385,1,4
344,200,15547,1,0
408,168,15709,1,0
400,240,15871,1,0
344,368,16195,1,0
368,304,16358,1,0
336,368,16520,1,0
320,232,16844,1,4
184,184,17168,1,4
232,232,17331,1,4
320,344,17655,1,4
232,232,17979,1,4
280,184,18141,5,0
352,176,18304,1,8
424,168,18466,1,0
368,296,18790,1,0
384,232,18952,1,8
400,168,19114,1,0
304,272,19439,1,0
328,208,19601,1,8
368,152,19763,1,0
440,144,19925,1,8
472,200,20087,1,0
432,256,20249,1,8
360,248,20412,1,0
232,184,20736,1,4
344,360,21222,1,4
256,168,21709,1,4
352,272,22033,2,0,B|440:56|64:72,1,420
176,184,23331,1,4
248,176,23493,1,4
296,240,23655,1,4
296,240,23817,1,4
416,312,24141,1,4
288,256,24466,1,4
392,344,24790,1,4
304,240,25114,1,4
400,344,25439,1,4
376,280,25601,1,4
336,144,25925,1,0
408,152,26087,1,0
448,208,26249,1,8
320,256,26412,1,0
320,184,26736,1,0
336,144,26898,1,8
440,232,27222,1,0
424,160,27385,1,8
432,88,27547,1,0
456,152,27709,1,8
416,208,27871,1,0
376,264,28033,1,0
328,320,28195,1,0
288,184,28520,5,4
224,160,28682,1,4
200,224,28844,1,4
192,296,29006,1,4
336,304,29331,1,4
472,272,29655,1,4
336,304,29979,1,4
464,240,30304,1,4
328,280,30628,1,4
368,224,30790,1,12
256,136,31114,1,0
328,144,31276,1,8
400,160,31439,1,0
464,184,31601,1,8
440,120,31763,1,0
464,184,31925,1,8
464,256,32087,1,0
344,320,32412,1,0
312,336,32493,1,0
280,344,32574,1,0
232,296,32736,1,0
360,248,33060,1,0
392,264,33141,1,0
424,280,33222,1,0
440,208,33385,1,8
312,152,33709,5,4
240,160,33871,1,4
192,208,34033,1,4
192,280,34195,1,4
336,280,34520,1,4
472,296,34844,1,4
336,280,35168,1,4
360,320,35493,1,4
440,208,35817,1,4
400,264,35979,1,4
272,200,36304,1,0
336,176,36466,1,0
400,144,36628,1,8
336,160,36790,1,0
272,288,37114,1,0
320,232,37276,1,8
360,120,37601,1,0
424,136,37763,1,8
488,168,37925,1,0
424,200,38087,1,8
376,248,38249,1,0
320,288,38412,1,0
352,272,38493,1,0
256,320,38574,1,0
256,184,38898,5,4
328,192,39060,1,4
384,232,39222,1,4
376,248,39385,1,4
240,256,39709,1,4
376,240,40033,1,4
240,256,40358,1,4
376,240,40682,1,4
240,272,41006,1,4
304,240,41168,1,12
408,144,41493,1,0
456,192,41655,1,8
504,136,41817,1,0
456,184,41979,1,8
464,112,42141,1,0
480,176,42304,1,8
416,152,42466,1,0
384,240,42790,1,0
352,256,42871,1,0
320,272,42952,1,0
248,280,43114,1,0
184,264,43276,1,0
208,200,43439,1,0
232,176,43520,1,0
264,160,43601,1,0
336,160,43763,1,8
464,112,44087,5,0
448,184,44249,1,0
440,216,44331,1,0
432,248,44412,1,0
320,336,44736,1,0
328,264,44898,1,0
384,216,45060,1,8
384,144,45222,1,0
328,184,45385,1,0
272,232,45547,1,0
248,256,45628,1,0
224,280,45709,1,0
360,288,46033,1,0
432,288,46195,1,0
448,216,46358,1,8
336,128,46682,1,4
360,264,47006,1,4
376,336,47168,1,4
376,336,47493,1,4
264,248,47817,1,4
384,320,48141,1,4
320,304,48304,1,4
392,320,48466,1,4
472,128,48952,1,12
336,144,49276,5,0
272,176,49439,1,0
248,200,49520,1,0
224,224,49601,1,0
296,240,49763,1,0
360,256,49925,1,0
432,272,50087,1,0
416,304,50168,1,0
392,328,50249,1,0
400,192,50574,1,8
344,152,50736,1,8
328,184,50817,1,8
304,208,50898,1,8
296,240,51060,1,8
232,264,51222,1,8
232,264,51385,1,8
232,264,51466,1,8
216,296,51547,1,8
240,160,51871,1,0
384,312,52195,1,8
384,312,52358,1,0
288,208,52682,1,0
352,184,52844,1,0
376,256,53168,2,0,B|80:360|96:56,1,420
336,144,54466,5,0
376,200,54628,1,0
368,232,54709,1,0
368,264,54790,1,0
248,344,55114,1,0
312,312,55276,1,0
328,248,55439,1,8
376,200,55601,1,0
376,272,55763,1,0
384,344,55925,1,0
384,344,56006,1,0
384,344,56087,1,0
296,240,56412,1,0
288,168,56574,1,0
360,160,56736,1,8
480,232,57060,1,4
344,264,57385,1,4
272,272,57547,1,4
400,320,57871,1,4
400,312,58195,1,4
344,264,58520,1,4
344,264,58682,1,4
344,264,58844,1,4
392,128,59168,1,12
392,200,59331,1,12
256,152,59655,5,8
328,160,59817,1,0
392,184,59979,1,0
448,144,60141,1,8
432,216,60304,1,0
408,280,60466,1,0
400,208,60628,1,8
344,168,60790,1,0
328,240,60952,1,0
384,200,61114,1,8
400,272,61276,1,0
368,336,61439,1,0
384,264,61601,1,8
400,200,61763,1,0
448,144,61925,1,8
312,160,62249,1,0
272,216,62412,1,0
312,272,62574,1,0
360,224,62736,1,8
408,168,62898,1,0
400,240,63060,1,0
368,304,63222,1,0
264,208,63547,1,0
408,168,63871,1,0
400,200,63952,1,0
400,240,64033,1,0
376,264,64114,1,0
376,264,64195,1,0
352,128,64520,1,8
304,264,64844,2,0,B|96:296|88:80|88:80|336:88,1,560
128,296,67439,5,0
192,208,67925,1,0
304,288,68574,1,0
440,336,69222,1,0
272,296,70033,1,0
352,304,71331,1,0
216,264,71979,1,0
320,168,72628,5,0
296,272,73114,1,0
160,248,73763,1,0
248,136,74412,1,0
368,264,75222,1,0
336,312,76520,1,0
472,320,77168,1,0
232,176,77817,5,0
288,216,77979,1,0
344,256,78141,1,0
392,312,78304,1,0
264,264,78628,1,0
328,288,78790,1,0
328,288,78952,1,0
456,344,79276,1,0
392,312,79439,1,0
328,296,79601,1,0
456,232,79925,1,0
392,264,80087,1,0
328,296,80249,1,0
328,288,80412,1,0
432,192,80736,1,8
416,128,80898,1,0
328,232,81222,1,0
464,184,81547,1,8
328,216,81871,1,0
408,96,82195,1,8
424,232,82520,1,8
416,304,82682,1,8
280,264,83006,5,0
208,256,83168,1,0
152,208,83331,1,0
208,160,83493,1,0
304,256,83817,1,0
344,312,83979,1,0
400,352,84141,1,0
344,312,84466,1,0
368,248,84628,1,0
416,296,84790,1,0
344,176,85114,1,8
344,176,85276,1,8
416,192,85439,1,8
480,224,85601,1,0
344,240,85925,1,0
280,272,86087,1,0
384,184,86412,1,8
288,280,86736,1,0
352,312,86898,1,0
352,312,87222,1,0
320,248,87385,1,0
296,184,87547,1,0
432,184,87871,1,12
464,112,88195,5,0
448,184,88357,1,0
440,216,88439,1,0
432,248,88520,1,0
320,336,88844,1,0
328,264,89006,1,0
384,216,89168,1,8
384,144,89330,1,0
328,184,89493,1,0
272,232,89655,1,8
248,256,89736,1,8
224,280,89817,1,8
360,288,90141,1,0
432,288,90303,1,0
448,216,90466,1,8
336,128,90790,1,4
360,264,91114,1,4
376,336,91276,1,4
376,336,91601,1,4
264,248,91925,1,4
384,320,92249,1,4
320,304,92412,1,4
392,320,92574,1,4
472,128,93060,1,12
336,144,93384,5,0
272,176,93547,1,0
248,200,93628,1,0
224,224,93709,1,0
296,240,93871,1,0
360,256,94033,1,0
432,272,94195,1,0
416,304,94276,1,0
392,328,94357,1,0
400,192,94682,1,8
344,152,94844,1,8
328,184,94925,1,8
304,208,95006,1,8
296,240,95168,1,8
232,264,95330,1,8
232,264,95493,1,8
232,264,95574,1,8
216,296,95655,1,8
240,160,95979,1,0
384,312,96303,1,8
384,312,96466,1,0
288,208,96790,1,0
272,240,96871,1,0
304,264,96952,1,0
376,256,97276,2,0,B|80:360|96:56,1,420
336,144,98574,5,0
376,200,98736,1,0
368,232,98817,1,0
368,264,98898,1,0
248,344,99222,1,0
312,312,99384,1,0
328,248,99547,1,8
376,200,99709,1,0
376,272,99871,1,0
384,344,100033,1,8
384,344,100114,1,8
384,344,100195,1,8
296,240,100520,1,0
288,168,100682,1,0
360,160,100844,1,8
480,232,101168,1,4
344,264,101493,1,4
272,272,101655,1,4
400,320,101979,1,4
400,312,102303,1,4
344,264,102628,1,4
344,264,102790,1,4
344,264,102952,1,4
392,128,103276,1,12
392,200,103439,1,12
256,152,103763,5,8
328,160,103925,1,0
392,184,104087,1,0
448,144,104249,1,8
432,216,104412,1,0
408,280,104574,1,0
400,208,104736,1,8
344,168,104898,1,0
328,240,105060,1,0
384,200,105222,1,8
400,272,105384,1,0
368,336,105547,1,0
384,264,105709,1,8
400,208,105871,1,8
384,240,105952,1,8
384,264,106033,1,8
312,160,106357,1,0
272,216,106520,1,0
312,272,106682,1,0
360,224,106844,1,8
408,168,107006,1,0
400,240,107168,1,0
368,240,107249,1,0
368,304,107330,1,0
264,208,107655,1,0
408,168,107979,1,0
400,200,108060,1,0
400,240,108141,1,0
376,264,108222,1,0
376,264,108303,1,0
352,128,108628,1,8
304,264,108952,2,0,B|96:296|88:80|88:80|424:80|424:80|448:184|88:312,1,1085
