osu file format v9

[General]
AudioFilename: ALBIDA.mp3
AudioLeadIn: 739
PreviewTime: 23249
Countdown: 0
SampleSet: Normal
StackLeniency: 0.7
Mode: 0
LetterboxInBreaks: 1

[Editor]
Bookmarks: 12212,77817,88195
DistanceSpacing: 1
BeatDivisor: 4
GridSize: 8

[Metadata]
Title:ALBIDA
Artist:DJ YOSHITAKA
Creator:TKiller
Version:Normal
Source:beatmaniaIIDX 18 Resort Anthem
Tags:lepidopodus lepidon Natteke

[Difficulty]
HPDrainRate:3
CircleSize:3
OverallDifficulty:3
ApproachRate:6
SliderMultiplier:1
SliderTickRate:0.5

[Events]
//Background and Video events
0,0,"Swirly_Blue_Abstract.jpg"
//Break Periods
2,65044,66389
//Storyboard Layer 0 (Background)
//Storyboard Layer 1 (Fail)
//Storyboard Layer 2 (Pass)
//Storyboard Layer 3 (Foreground)
//Storyboard Sound Samples
//Background Colour Transformations
3,100,163,162,255

[TimingPoints]
1277,324.324324324324,4,2,1,50,1,0
9385,-100,4,2,1,0,0,0
10033,-100,4,2,1,50,0,0
12304,-100,4,1,1,50,0,0
22033,-100,4,1,1,70,0,0
67439,-100,4,2,1,50,0,0
77817,-100,4,1,1,50,0,0

[Colours]
Combo1 : 255,255,255
Combo2 : 159,207,255
Combo3 : 228,202,255
Combo4 : 183,219,219

[HitObjects]
288,280,1277,5,2
288,280,1439,2,0,B|244:312,2,50,0|0|2
168,304,2087,2,0,B|208:274,2,50,0|0|2
128,272,2736,2,0,B|87:301,2,50,0|0|2
122,146,3385,5,2
134,118,3547,1,0
156,97,3709,1,0
184,85,3871,2,0,B|281:36|377:90,1,200,2|0
304,224,5007,1,2
304,224,5169,2,0,B|207:273|111:219,1,200,0|2
256,80,6466,6,0,B|255:30,2,50,2|0|0
173,104,6952,2,0,B|193:157|247:164,1,100,2|0
330,174,7601,2,0,B|383:153|390:99,1,100,2|0
360,16,8250,2,0,B|306:36|299:90,1,100,2|0
280,168,8736,5,0
275,183,8898,1,0
269,198,9060,2,0,B|215:253|124:220|120:142,1,200,2|0
64,72,10195,1,0
64,72,10357,2,0,B|117:15|209:47|213:126,1,200,2|0
256,192,11168,12,4,12628
387,280,12952,6,0,B|383:320|337:349,2,75
387,280,13601,2,0,B|347:286|318:258,2,75,8|0|0
448,224,14249,2,0,B|496:128|448:32,1,200
344,144,15385,5,0
336,168,15547,2,0,B|332:208|286:237,2,75,4|0|0
336,168,16196,2,0,B|296:174|267:146,2,75,0|0|0
336,168,16844,1,0
360,264,17168,6,0,B|352:288|328:304,1,50
424,312,17493,2,0,B|438:334|462:342,1,50
480,256,17817,2,0,B|488:232|512:216,1,50
416,208,18141,2,0,B|401:185|377:177,1,50
288,136,18628,5,0
280,160,18790,1,0
176,264,19276,1,0
184,240,19439,2,0,B|176:176|112:128|32:144,1,200,12|0
143,259,20574,5,0
160,280,20736,2,0,B|215:284|249:244,1,100,4|0
304,304,21222,2,0,B|336:264|392:269,1,100,4|0
373,349,21709,1,4
256,192,22033,12,4,23331
200,104,23817,5,0
120,184,24142,1,0
200,264,24466,1,0
280,176,24790,1,0
296,152,24952,1,0
312,128,25114,2,0,B|360:106|408:128,1,100,0|0
432,224,25763,2,0,B|406:236|382:223,1,50
344,312,26249,6,0,B|296:312,2,50
232,216,26898,2,0,B|280:216,2,50
208,232,27385,1,0
184,248,27547,1,0
88,224,27871,2,0,B|56:184,1,50
128,152,28195,2,0,B|96:112,1,50
176,88,28520,6,0,B|144:48,2,50
248,56,29006,2,0,B|296:40|346:60,1,100
408,152,29655,2,0,B|360:168|310:153,1,100
200,240,30304,2,0,B|224:176,1,50
120,240,30628,2,0,B|144:176,1,50
40,240,30952,1,0
40,240,31114,2,0,B|96:96,1,150
192,160,31925,6,0,B|304:160,1,100
248,240,32412,2,0,B|264:288,1,50
328,240,32736,2,0,B|344:288,1,50
392,176,33060,1,0
384,152,33222,1,0
376,128,33385,2,0,B|357:71,2,50,0|0|4
256,24,34195,6,0,B|144:24,1,100
112,112,34844,2,0,B|224:112,1,100
256,200,35493,2,0,B|156:200,1,100
131,200,35979,1,0
111,200,36141,1,0
90,200,36304,1,4
72,296,36628,6,0,B|40:336,1,50
136,232,37114,1,0
248,248,37439,2,0,B|280:208,2,50
184,312,38087,1,0
96,208,38412,1,0
96,184,38574,1,0
96,160,38736,1,0
96,136,38898,6,0,B|96:80,3,50,4|0|0|0
176,197,39709,2,0,B|240:245|240:245|240:269,1,100
256,160,40358,2,0,B|320:208|320:208|320:232,1,100
360,320,41006,1,4
377,302,41168,1,0
394,284,41331,1,0
411,266,41493,1,4
411,166,41817,6,0,B|411:110,1,50
320,72,42304,1,0
320,168,42628,1,0
302,185,42790,1,0
284,202,42952,1,0
266,219,43114,2,0,B|228:254,6,50,0|0|0|0|0|0|4
160,96,44574,5,0
176,192,44898,1,0
180,216,45060,2,0,B|192:272,2,50
272,96,45871,5,0
288,184,46195,1,0
288,184,46357,1,0
312,272,46682,2,0,B|410:272,2,100,4|0|0
246,272,47493,2,0,B|182:272,2,50
184,192,48141,5,0
136,104,48466,1,0
136,104,48628,2,0,B|168:48,1,50
216,104,48952,2,0,B|248:48,1,50
296,104,49276,1,4
256,272,49763,5,0
256,272,49925,1,0
384,192,50412,1,4
384,192,50574,1,4
384,40,51060,1,0
384,40,51222,1,0
256,112,51709,1,4
256,112,51871,2,0,B|144:112,2,100,4|0|0
328,112,52682,2,0,B|392:112,2,50
288,176,53168,5,4
288,176,53331,1,0
256,192,53412,12,4,54466
296,104,54952,5,0
368,176,55276,1,0
376,184,55439,2,0,B|392:232|372:282,1,100,0|0
216,280,56249,5,0
144,208,56573,1,0
136,200,56736,2,0,B|120:152|140:102,1,100,0|4
64,40,57385,5,0
168,24,57709,1,0
168,24,57871,1,0
272,40,58195,2,0,B|376:40,2,100
256,120,59006,6,0,B|216:160,1,50
280,208,59331,2,0,B|244:243,1,50
360,208,59655,2,0,B|416:208,2,50,4|0|0
360,128,60141,2,0,B|360:72,2,50
280,208,60628,5,0
262,225,60790,1,0
244,242,60952,1,4
226,259,61114,2,0,B|226:307,1,50
144,280,61439,2,0,B|88:280,1,50
160,360,61763,2,0,B|110:360,1,50
256,360,62249,5,4
256,192,62331,12,0,64844
168,224,67439,5,2
168,224,67601,2,0,B|136:180,2,50,0|0|2
144,104,68249,2,0,B|174:144,2,50,0|0|2
176,64,68898,2,0,B|147:23,2,50,0|0|2
302,58,69547,5,2
330,70,69709,1,0
351,92,69871,1,0
363,120,70033,2,0,B|412:217|358:313,1,200,2|0
224,240,71169,1,2
224,240,71331,2,0,B|175:143|229:47,1,200,0|2
368,192,72628,6,0,B|418:191,2,50,2|0|0
344,109,73114,2,0,B|291:129|284:183,1,100,2|0
274,266,73763,2,0,B|295:319|349:326,1,100,2|0
432,304,74412,2,0,B|412:250|358:243,1,100,2|0
280,224,74898,5,0
265,219,75060,1,0
250,213,75222,2,0,B|194:159|227:68|305:64,1,200,2|0
364,11,76357,1,0
364,11,76519,2,0,B|420:64|388:156|309:160,1,200,2|0
144,272,77817,6,0,B|144:344,1,50
224,288,78141,2,0,B|264:256,1,50
264,160,78628,1,0
264,136,78790,1,0
264,112,78952,1,0
160,48,79277,1,0
160,72,79439,1,0
160,96,79601,1,0
96,184,79925,6,0,B|64:232,1,50
168,232,80249,2,0,B|128:288,1,50
256,320,80736,2,0,B|306:320,1,50
408,336,81222,2,0,B|376:272|376:272|376:232,3,100
328,152,82520,5,0
352,144,82682,1,0
376,136,82844,1,0
400,128,83006,2,0,B|480:104,1,50
448,200,83331,2,0,B|448:224|448:224|464:248,1,50
368,216,83655,2,0,B|288:240,1,50
392,296,83979,6,0,B|392:344,1,50
312,312,84304,2,0,B|272:368,1,50
248,264,84628,2,0,B|208:320,1,50
184,216,84952,2,0,B|152:264,1,50
120,168,85277,2,0,B|88:216,1,50
256,192,85601,12,4,86898
352,240,87547,6,0,B|352:296,4,50,0|0|0|0|4
352,96,88682,5,0
256,112,89006,1,0
232,116,89168,2,0,B|176:128,2,50
320,192,89979,5,0
224,208,90303,1,0
224,208,90465,1,0
136,160,90790,2,0,B|136:258,2,100,4|0|0
136,94,91601,2,0,B|136:30,2,50
240,104,92249,6,0,B|304:56|304:56|328:56,1,100
360,56,92736,2,0,B|403:16,1,50
384,88,93060,2,0,B|408:112|408:112|408:136,1,50
408,178,93385,1,4
256,240,93871,5,0
256,240,94033,1,0
112,192,94520,1,4
112,192,94682,1,4
112,40,95168,1,0
112,40,95330,1,0
256,112,95817,1,4
256,112,95979,2,0,B|256:0,2,100,4|0|0
256,184,96790,2,0,B|256:248,2,50
320,144,97276,5,4
320,144,97439,1,0
256,192,97520,12,4,98574
344,232,99060,5,0
272,304,99384,1,0
264,312,99547,2,0,B|216:328|166:308,1,100
168,152,100357,5,0
240,80,100681,1,0
248,72,100844,2,0,B|296:56|346:76,1,100,0|4
440,112,101493,5,0
496,192,101817,1,0
496,192,101979,1,0
440,272,102303,2,0,B|440:376,2,100
376,224,103114,6,0,B|336:184,1,50
272,224,103439,2,0,B|237:188,1,50
272,304,103763,2,0,B|272:360,2,50,4|0|0
192,304,104249,2,0,B|128:304,2,50
192,224,104736,6,0,B|192:168,1,50
272,200,105060,2,0,B|272:152,1,50,4|0
352,176,105385,2,0,B|352:112,1,50
352,256,105709,1,0
352,280,105871,1,0
352,304,106033,1,0
256,368,106357,5,4
256,192,106439,12,0,108952
