osu file format v9

[General]
AudioFilename: ALBIDA.mp3
AudioLeadIn: 0
PreviewTime: 23249
Countdown: 0
SampleSet: Soft
StackLeniency: 0.7
Mode: 0
LetterboxInBreaks: 1

[Editor]
Bookmarks: 12212,67439,77817,88195
DistanceSpacing: 0.3
BeatDivisor: 4
GridSize: 8

[Metadata]
Title:ALBIDA
Artist:DJ YOSHITAKA
Creator:TKiller
Version:Hyper
Source:beatmaniaIIDX 18 Resort Anthem
Tags:lepidopodus lepidon Natteke

[Difficulty]
HPDrainRate:7
CircleSize:4
OverallDifficulty:6
ApproachRate:7
SliderMultiplier:1.6
SliderTickRate:1

[Events]
//Background and Video events
0,0,"Swirly_Blue_Abstract.jpg"
//Break Periods
//Storyboard Layer 0 (Background)
//Storyboard Layer 1 (Fail)
//Storyboard Layer 2 (Pass)
//Storyboard Layer 3 (Foreground)
//Storyboard Sound Samples
//Background Colour Transformations
3,100,163,162,255

[TimingPoints]
1277,324.324324324324,4,2,1,100,1,0
5168,-142.857142857143,4,2,1,100,0,0
5331,-142.857142857143,4,2,1,0,0,0
5655,-142.857142857143,4,2,1,100,0,0
6466,-100,4,2,1,100,0,0
11087,-100,4,2,1,0,0,0
12952,-100,4,2,1,100,0,0
63871,-66.6666666666667,4,2,1,85,0,0
64195,-100,4,2,1,100,0,0
64925,-100,4,2,1,0,0,0
67439,-100,4,2,1,100,0,0
72304,-100,4,2,1,100,0,0
80412,-100,4,2,1,70,0,0
83006,-100,4,2,1,39,0,0
83655,-100,4,2,1,50,0,0
84222,-100,4,2,1,61,0,0
84709,-100,4,2,1,69,0,0
85114,-100,4,2,1,80,0,0
85601,-100,4,2,1,60,0,0
86249,-50,4,2,1,45,0,0
86898,-153.846153846154,4,2,1,80,0,0
87304,-100,4,2,1,100,0,0
107979,-66.6666666666667,4,2,1,85,0,0
108304,-100,4,2,1,100,0,0
109033,-100,4,2,1,0,0,0

[Colours]
Combo1 : 255,255,255
Combo2 : 159,207,255
Combo3 : 228,202,255
Combo4 : 183,219,219

[HitObjects]
208,280,1277,2,0,B|192:240|207:203,1,80,2|0
304,104,1601,2,0,B|320:144|305:181,1,80,0|2
64,192,2087,5,0
136,152,2249,1,0
208,280,2412,1,2
448,192,2736,5,0
376,232,2898,1,0
304,104,3061,1,2
296,336,3385,6,0,B|256:352|219:337,1,80,2|0
256,264,3709,1,0
256,264,3871,1,2
256,40,4682,5,0
200,96,4844,1,2
312,96,5006,1,0
256,160,5168,2,0,B|224:224|288:320|256:400,1,223.999994659424,0|2
40,144,6466,6,0,B|40:224,1,80,2|0
112,192,6790,2,0,B|112:272,1,80,0|2
400,192,7277,6,0,B|400:272,1,80,0|0
472,144,7601,1,2
112,192,7925,6,0,B|112:272,1,80
40,144,8249,1,2
256,152,8574,5,2
256,176,8736,1,0
256,200,8898,1,0
256,224,9060,1,2
256,320,10195,5,2
256,307,10277,1,0
256,295,10358,1,0
256,120,11006,1,2
256,192,11087,12,0,12628
40,185,12952,2,0,B|41:141|70:114,1,80,8|2
200,64,13276,2,0,B|198:107|169:134,1,80
40,185,13601,1,0
200,64,13925,1,0
216,224,14249,5,8
384,152,14574,1,8
384,152,14736,1,8
209,167,15060,1,8
472,199,15385,1,8
472,199,15547,6,0,B|470:242|441:269,1,80,8|2
312,320,15871,2,0,B|313:276|342:249,1,80
472,199,16196,1,0
312,320,16520,1,0
288,112,16844,5,8
128,232,17169,1,8
128,232,17331,1,8
303,217,17655,1,8
40,185,17980,1,8
40,185,18141,6,0,B|40:88,1,80,8|2
112,48,18466,2,0,B|112:136,1,80
168,184,18790,2,0,B|232:256,1,80
301,243,19114,1,8
360,160,19276,1,8
472,199,19439,6,0,B|472:296,1,80,8|2
400,336,19764,2,0,B|400:248,1,80
344,200,20088,2,0,B|280:128,1,80,8|8
210,140,20412,1,8
130,140,20574,1,8
50,140,20736,1,8
462,140,21222,1,8
256,344,21709,1,8
256,136,22033,6,0,B|256:72,3,40,2|0|0|0
200,184,22358,2,0,B|192:160|160:144,3,40,2|0|0|0
312,184,22682,2,0,B|320:160|352:144,3,40,2|0|0|0
256,248,23006,2,0,B|256:288,3,40,2|0|0|0
256,192,23331,1,12
184,104,23493,5,2
184,104,23655,1,0
184,104,23817,2,8,B|184:176|184:176|152:208|152:208|152:280,1,160
328,104,24466,2,8,B|328:176|328:176|360:208|360:208|360:280,1,160
256,376,25114,1,8
256,216,25439,5,8
256,192,25601,1,8
256,168,25763,1,8
256,144,25925,1,8
112,72,26249,6,0,B|88:112|115:156,1,80,2|0
256,192,26736,1,0
401,235,27060,2,0,B|424:272|400:312,1,80,0|2
328,272,27385,1,0
184,272,27709,1,0
256,128,28033,5,2
256,152,28195,1,0
256,176,28358,1,0
256,200,28520,1,12
168,280,29006,5,8
344,240,29331,1,8
168,200,29655,1,8
344,160,29980,1,8
168,120,30304,1,8
344,80,30628,1,8
344,80,30790,1,8
344,80,30952,1,8
344,80,31114,1,8
344,80,31439,6,0,B|344:192,1,80,2|0
344,320,31925,1,0
208,232,32249,1,2
288,232,32412,2,0,B|376:232,1,80,0|0
248,160,32736,2,0,B|336:160,1,80,0|0
216,88,33060,1,2
204,88,33141,1,0
192,88,33222,1,0
179,88,33304,1,0
167,88,33385,1,2
155,88,33466,1,0
143,88,33547,1,0
131,88,33628,1,0
119,88,33709,6,0,B|95:128|122:172,1,80,12|0
40,192,34033,2,8,B|64:232|37:276,1,80,8|8
148,353,34520,1,8
360,272,34844,1,8
360,48,35168,1,8
256,192,35493,1,8
96,192,35817,5,8
72,192,35979,1,8
48,192,36141,1,8
24,192,36304,1,8
136,336,36628,6,0,B|176:360|220:333,1,80,2|0
256,192,37115,1,0
299,47,37439,2,0,B|336:24|376:48,1,80,0|2
336,120,37764,1,0
336,264,38088,1,0
176,264,38412,5,2
200,264,38574,1,0
224,264,38736,1,0
248,264,38898,1,12
288,192,39060,5,8
288,192,39141,1,0
288,192,39222,1,8
208,192,39385,2,0,B|208:144|208:144|232:112|232:112|232:16,1,160,8|8
368,192,40033,2,0,B|368:144|368:144|344:112|344:112|344:16,1,160,8|8
288,272,40682,1,8
136,136,41006,1,8
136,136,41168,1,8
136,136,41330,1,8
136,136,41492,1,8
136,136,41817,6,0,B|248:136,1,80,2|0
376,136,42303,1,0
288,272,42627,1,2
288,192,42790,2,0,B|288:104,1,80,0|0
216,232,43114,2,0,B|216:144,1,80,0|0
128,208,43438,1,2
128,220,43519,1,0
128,232,43600,1,0
128,245,43682,1,0
128,257,43763,1,2
128,269,43844,1,0
128,281,43925,1,0
128,293,44006,1,0
128,304,44087,6,0,B|128:384,2,80,4|0|2
256,192,44655,1,0
384,80,44898,2,0,B|384:0,2,80,0|2|0
384,160,45385,5,0
360,168,45547,1,0
336,176,45709,1,2
256,264,45952,1,0
128,160,46195,1,2
152,168,46357,1,0
176,176,46519,1,0
256,160,46682,6,0,B|256:240|256:240|288:240|288:288|288:288|288:328,1,160,8|8
288,304,47168,1,8
76,223,47492,1,8
80,24,47816,1,8
180,143,48141,1,8
344,144,48466,5,8
344,168,48628,1,8
344,192,48790,1,8
344,216,48952,1,8
344,240,49114,1,8
344,264,49276,6,0,B|344:320|304:336,1,80,8|0
192,248,49601,2,0,B|192:192|232:176,1,80,0|8
296,168,49925,2,0,B|296:224|256:240,1,80,8|0
144,152,50250,2,0,B|144:96|184:80,1,80,0|8
256,83,50574,5,8
279,83,50736,1,0
302,83,50898,1,0
325,83,51060,1,8
348,83,51222,1,8
372,83,51385,1,0
395,83,51547,1,0
418,83,51709,1,8
456,152,51871,6,2,B|463:174|454:197,1,40,2|2
376,208,52114,2,2,B|383:230|374:253,1,40
296,256,52358,2,2,B|303:278|294:301,1,40
184,256,52682,1,2
104,184,52844,1,0
184,112,53006,1,0
176,184,53168,6,8,B|272:184,1,80
296,112,53493,2,2,B|289:90|298:67,1,40
376,72,53736,1,0
376,192,53979,2,0,B|376:272,2,80,0|6|0
296,232,54466,5,8
216,264,54628,1,0
216,264,54790,1,2
216,144,55033,1,0
216,24,55276,2,0,B|136:24,2,80,0|2|0
296,24,55763,5,0
216,88,55925,1,0
296,144,56087,2,0,B|296:200|296:200|312:216|312:216|312:272,1,120,2|0
240,336,56574,1,0
312,376,56736,1,2
384,336,56898,1,0
384,256,57060,6,0,B|384:176|384:176|400:152|416:128|416:128|416:88,1,160,8|8
416,105,57547,1,8
256,56,57871,5,8
96,104,58195,1,8
256,184,58520,1,8
112,248,58844,6,8,B|112:352,1,80
40,176,59168,2,8,B|40:288,1,80
112,176,59493,1,8
112,96,59655,6,0,B|112:48|88:8,2,80,10|0|0
192,184,60141,2,0,B|240:184|280:208,2,80,10|0|0
176,120,60628,2,0,B|256:48,2,80,10|0|10
120,176,61114,2,0,B|120:272,1,80
192,240,61439,2,0,B|192:336,1,80,10|0
264,288,61763,2,0,B|264:368,1,80,0|10
352,288,62087,6,0,B|352:304|360:328,2,40,0|0|10
296,192,62412,2,0,B|282:184|257:178,2,40
352,224,62736,1,10
407,192,62898,2,0,B|420:183|437:165,2,40
352,136,63222,5,10
352,123,63304,1,0
352,111,63385,1,0
352,99,63466,1,0
352,87,63547,1,10
352,75,63628,1,0
352,63,63709,1,8
352,51,63790,1,0
352,39,63871,6,8,B|352:8,8,29.9999991059304
264,120,64439,1,8
264,240,64682,2,8,B|264:336,1,80,8|4
256,192,64925,12,0,67114
182,78,67439,5,2
182,101,67601,1,0
182,124,67763,1,0
182,147,67925,1,2
328,312,68249,6,0,B|344:272|329:235,1,80,0|0
256,192,68574,1,2
136,216,68898,2,0,B|120:256|135:293,1,80,0|0
208,336,69223,1,2
367,336,69547,6,0,B|367:248,1,80,2|0
447,272,69871,2,0,B|447:184,1,80,0|2
256,40,70844,6,0,B|256:128,1,80,0|2
176,104,71168,2,0,B|176:192,1,80,0|0
368,256,71979,1,2
368,80,72628,5,2
368,80,72790,1,0
296,112,72952,1,0
296,112,73114,1,2
296,304,73439,6,0,B|296:224,1,80,0|0
224,256,73763,1,2
80,176,74087,6,0,B|80:256,1,80,0|0
152,288,74411,1,2
168,104,74736,5,2
248,64,74898,1,0
336,80,75060,1,0
400,144,75222,1,2
400,312,76357,5,2
400,299,76439,1,0
400,287,76520,1,0
336,80,77168,5,2
336,200,77817,6,0,B|336:256|296:272,1,80,4|0
184,184,78142,2,0,B|184:128|224:112,1,80,0|2
303,268,78628,5,0
292,273,78709,1,0
282,279,78790,2,0,B|249:291|249:347,1,80,0|2
208,115,79276,1,0
220,111,79357,1,0
230,105,79438,2,0,B|262:92|262:36,1,80,0|2
256,200,79925,5,0
256,224,80087,1,2
256,248,80249,1,0
256,272,80412,6,0,B|256:328|216:344,1,80,8|0
104,256,80737,2,0,B|104:200|144:184,1,80,0|8
216,187,81060,2,0,B|312:187,1,80,0|8
176,112,81385,2,0,B|272:112,1,80,8|0
407,130,81709,6,0,B|407:184|374:197,1,80,8|0
256,112,82034,2,0,B|255:57|288:44,1,80,0|8
296,187,82357,2,0,B|296:267,1,80,0|8
376,272,82682,2,0,B|376:352,1,80,8|8
296,352,83006,6,8,B|208:352,1,80
128,240,83331,2,8,B|216:240,1,80
104,128,83655,2,8,B|24:128,1,80
128,16,83979,2,8,B|224:16,1,80
384,16,84304,6,8,B|304:16,1,80
408,128,84628,2,8,B|488:128,1,80
384,240,84952,2,8,B|304:240,1,80
216,352,85277,2,8,B|296:352,1,80
256,280,85601,5,8
256,264,85682,1,8
256,248,85763,1,8
256,232,85844,1,8
256,216,85925,1,8
256,200,86006,1,8
256,184,86087,1,8
256,168,86168,1,8
256,152,86249,2,8,B|200:152,5,53.3333333333333
256,152,86574,2,8,B|256:88,5,53.3333333333333
256,152,86898,2,8,B|320:152,2,53.3333333333333
72,232,87547,5,8
72,220,87628,1,0
72,208,87709,1,0
72,196,87790,1,0
72,184,87871,1,2
72,172,87952,1,0
72,160,88033,1,0
72,148,88114,1,0
72,136,88195,6,0,B|72:56,1,80,12|0
144,104,88520,2,0,B|144:200,1,80,8|8
216,104,88844,2,0,B|304:104,1,80,0|8
256,192,89168,2,0,B|256:248|200:248,1,80,8|0
216,328,89493,6,0,B|296:328,1,80,8|0
368,280,89818,2,8,B|368:184,1,80
440,248,90142,2,0,B|440:328,1,80,0|8
256,192,90466,2,0,B|256:136|312:136,1,80,8|0
384,136,90790,5,12
128,136,91114,1,8
128,136,91276,1,8
256,200,91439,1,2
256,211,91520,1,0
256,222,91601,1,2
256,233,91682,1,0
256,244,91763,1,2
256,320,91925,5,8
256,64,92249,1,8
352,192,92574,1,8
328,192,92736,1,8
304,192,92898,1,8
280,192,93060,1,8
256,192,93222,1,8
232,192,93385,6,0,B|200:248|200:248|152:248,1,80,8|0
104,136,93709,2,0,B|136:80|136:80|184:80,1,80,0|8
232,40,94033,2,8,B|232:136,1,80,8|0
104,280,94358,2,0,B|104:296|104:296|160:328,1,80,0|8
288,328,94682,6,8,B|288:248,1,80,8|0
416,232,95006,2,0,B|384:288|384:288|336:288,1,80,0|8
288,175,95330,2,0,B|320:120|320:120|336:120,1,80,8|0
416,87,95655,2,0,B|416:71|416:71|360:39,1,80,0|8
256,40,95979,5,2
256,56,96060,1,2
168,88,96222,5,2
168,104,96303,1,2
80,136,96466,5,2
80,152,96547,1,2
128,264,96790,5,2
168,344,96952,1,0
256,344,97114,1,0
256,192,97276,1,8
256,192,97439,1,8
296,112,97601,2,2,B|289:90|298:67,1,40
376,72,97844,1,0
376,192,98087,2,0,B|376:272,2,80,0|6|0
288,208,98574,6,0,B|184:232,1,80,8|0
88,144,98898,1,2
88,144,99060,2,0,B|192:168,1,80,8|0
280,72,99385,1,2
280,72,99547,2,0,B|176:96,2,80,8|0|8
376,72,100033,5,0
328,144,100195,2,0,B|328:200|328:200|344:216|344:216|344:272,1,120,2|0
272,336,100682,1,0
344,376,100844,1,2
416,336,101006,1,0
384,256,101168,6,0,B|384:176|384:176|400:152|416:128|416:128|416:88,1,160,8|8
416,105,101655,1,8
256,56,101979,5,8
96,104,102303,1,8
256,184,102628,1,8
400,248,102952,6,8,B|400:352,1,80
472,176,103276,2,8,B|472:288,1,80
400,176,103601,1,8
400,96,103763,6,0,B|400:48|424:8,2,80,10|0|0
320,184,104249,2,0,B|272:184|232:208,2,80,10|0|0
336,120,104736,2,0,B|256:48,2,80,10|0|10
392,176,105222,2,0,B|392:272,1,80
320,240,105547,2,0,B|320:336,1,80,10|0
248,288,105871,2,0,B|248:368,1,80,0|10
160,288,106195,6,0,B|160:304|152:328,2,40,0|0|10
216,192,106520,2,0,B|230:184|255:178,2,40
160,224,106844,1,10
105,192,107006,2,0,B|92:183|75:165,2,40
160,136,107330,5,10
160,123,107412,1,0
160,111,107493,1,0
160,99,107574,1,0
160,87,107655,1,10
160,75,107736,1,0
160,63,107817,1,8
160,51,107898,1,0
160,39,107979,6,8,B|160:8,8,29.9999991059304
256,120,108547,1,8
256,240,108790,2,8,B|256:336,1,80,8|4
256,192,109033,12,0,111547
