osu file format v9

[General]
AudioFilename: ALBIDA.mp3
AudioLeadIn: 1004
PreviewTime: 23249
Countdown: 0
SampleSet: Normal
StackLeniency: 0.7
Mode: 0
LetterboxInBreaks: 1

[Editor]
Bookmarks: 12212,77817,88195
DistanceSpacing: 1.1
BeatDivisor: 4
GridSize: 8

[Metadata]
Title:ALBIDA
Artist:DJ YOSHITAKA
Creator:TKiller
Version:Beginner
Source:beatmaniaIIDX 18 Resort Anthem
Tags:lepidopodus lepidon Natteke

[Difficulty]
HPDrainRate:1
CircleSize:3
OverallDifficulty:2
ApproachRate:3
SliderMultiplier:0.8
SliderTickRate:0.5

[Events]
//Background and Video events
0,0,"Swirly_Blue_Abstract.jpg"
//Break Periods
2,67639,76377
//Storyboard Layer 0 (Background)
//Storyboard Layer 1 (Fail)
//Storyboard Layer 2 (Pass)
//Storyboard Layer 3 (Foreground)
//Storyboard Sound Samples
//Background Colour Transformations
3,100,163,162,255

[TimingPoints]
1277,324.324324324324,4,2,1,50,1,0
9141,-100,4,2,1,0,0,0
10276,-100,4,2,1,50,0,0
10438,-100,4,2,1,0,0,0
12628,-100,4,1,1,60,0,0
13033,-100,4,2,1,60,0,0
14168,-100,4,1,1,60,0,0
15627,-100,4,2,1,50,0,0
16763,-100,4,1,1,60,0,0
22114,-100,4,2,1,50,0,0
23168,-100,4,1,1,60,0,0
26006,-100,4,2,1,50,0,0
27790,-100,4,1,1,60,0,0
46763,-100,4,2,1,50,0,0
47736,-100,4,1,1,60,0,0
57141,-100,4,2,1,49,0,0
58925,-100,4,1,1,60,0,0
64601,-100,4,2,1,51,0,0
64844,-100,4,2,1,0,0,0
77493,-100,4,2,1,60,0,0
86736,-100,4,1,1,60,0,0
97844,-100,4,2,1,50,0,0
98006,-100,4,1,1,60,0,0
108790,-100,4,2,1,0,0,0

[Colours]
Combo1 : 255,255,255
Combo2 : 159,207,255
Combo3 : 228,202,255
Combo4 : 183,219,219

[HitObjects]
176,256,1277,2,0,B|144:192|192:136,1,120,2|2
344,144,2412,2,0,B|384:224|320:304,1,160,2|2
128,248,3871,6,0,B|56:224|32:104|120:48,1,240,2|2
192,48,5168,2,0,B|264:72|288:192|200:248,1,240,2|2
205,244,6466,6,0,B|336:272,1,120,2|2
464,200,7601,2,0,B|296:160,1,160,2|2
128,88,9060,6,0,B|96:168|184:232|112:328,1,240,2|0
40,320,10358,2,0,B|-26:231|61:167|29:87,1,240,2|0
384,264,12952,6,0,B|352:344|256:376|152:336|128:264,1,320,4|4
256,216,14736,1,4
128,120,15547,6,0,B|160:40|256:8|360:48|384:120,1,320,4|4
256,168,17331,1,4
152,336,18141,6,0,B|72:336,1,80,4|0
168,240,18790,2,0,B|96:192,1,80
184,136,19439,6,0,B|256:184,1,80,4|0
344,184,20087,2,0,B|344:96,1,80
440,144,20736,6,4,B|480:192|448:264,2,120
376,208,22033,2,0,B|288:176|232:272|128:208,1,240,4|0
88,144,23331,6,0,B|144:112|216:152,1,120,4|4
312,264,24466,2,0,B|392:304|472:256,2,160,4|4|0
312,264,25925,6,0,B|272:192|320:104|392:104,1,200,4|2
456,136,27060,2,0,B|496:208|448:296|376:296,1,200,2|0
304,296,28195,1,0
216,296,28520,6,0,B|80:296,1,120,4|4
16,136,29655,2,4,B|192:136,1,160
312,136,30790,1,4
400,136,31114,6,0,B|424:176|400:216,1,80,4|0
320,248,31763,1,0
376,320,32087,1,0
456,280,32412,6,0,B|432:232|360:208|312:256,1,160
264,288,33222,2,0,B|208:328|144:288,1,120,0|4
88,176,34195,5,4
256,136,34844,1,4
424,176,35493,1,4
312,240,35979,1,4
336,160,36304,6,0,B|360:72,2,80,4|0|0
256,200,37276,1,0
176,160,37601,2,0,B|152:72,2,80
256,120,38574,1,0
176,160,38898,6,0,B|136:216|56:184,1,120,4|4
200,72,40033,2,4,B|256:8|352:48,1,160,4|4
288,168,41168,1,4
371,205,41493,6,0,B|416:272,1,80,8|0
340,322,42141,2,0,B|296:256,1,80,0|0
216,256,42790,6,0,B|168:328,1,80
96,272,43438,2,0,B|144:200,1,80
216,168,44087,6,0,B|272:104|240:8,1,160,4|0
80,80,45385,2,0,B|24:144|56:240,1,160
136,256,46358,1,0
224,264,46682,6,0,B|304:256,3,80,4|2|2|2
296,192,47817,2,4,B|365:200|372:247|381:312|312:331,1,200
224,336,48952,1,0
136,352,49276,6,0,B|120:256,3,80,4|0|0|0
208,256,50574,2,0,B|192:160,3,80,4|0|0|0
176,88,51871,6,0,B|248:56|320:104|336:176|296:232,1,240,4|0
352,296,53168,2,0,B|280:328|208:280|192:208|232:152,1,240,4|0
304,208,54466,6,0,B|360:136,1,80,4|0
208,208,55114,2,0,B|152:136,1,80
320,232,55763,6,0,B|376:175,1,80
192,232,56412,2,0,B|135:175,1,80
80,232,57060,6,0,B|200:352,1,160,4|2
256,280,58033,1,2
319,345,58358,2,0,B|432:232,1,160,2|0
496,168,59331,1,0
408,152,59655,6,0,B|376:72|280:40|176:80|152:152,2,320,4|4|4
368,232,62574,1,0
280,256,62898,1,0
192,232,63222,1,0
264,176,63547,1,4
304,176,63709,2,4,B|368:144|352:64,2,120,4|4|2
256,192,64844,12,0,67439
192,72,77817,6,0,B|152:144|152:144|200:216,1,160,2|2
328,328,79114,2,0,B|368:256|368:256|320:184,1,160,2|2
256,136,80087,1,2
208,208,80412,6,0,B|176:272|88:296|24:256,1,200,2|0
8,176,81547,2,0,B|40:112|128:88|192:128,1,200,2|0
256,168,82682,1,2
344,192,83006,5,2
288,312,83493,1,2
200,160,84141,1,2
112,312,84790,1,2
64,192,85276,1,2
144,232,85601,6,0,B|216:280|312:224,1,160,2|0
328,152,86574,1,2
344,64,86898,2,0,B|352:16,2,40
256,80,87547,2,0,B|184:32|88:88,1,160,0|4
40,136,88520,5,0
56,224,88844,1,0
144,208,89168,1,0
128,120,89493,6,0,B|216:104,1,80,4|0
296,88,90141,1,0
320,176,90466,1,0
232,192,90790,6,0,B|192:248|240:312,1,120,4|4
320,304,91601,1,4
408,304,91925,1,4
408,216,92249,1,4
320,216,92574,2,0,B|320:160,3,40
320,216,93385,6,0,B|248:272|160:208,1,160,4|0
168,128,94358,1,0
168,40,94682,2,0,B|240:-16|328:48,1,160,4|0
320,128,95655,1,0
232,128,95979,6,0,B|232:160|232:160|208:208|232:264|232:264|232:296,1,160,4|0
320,264,96952,1,0
408,280,97276,2,0,B|408:248|408:248|432:200|408:144|408:144|408:112,1,160,4|2
320,128,98249,1,4
232,128,98574,6,0,B|192:112|144:128,1,80,4|0
120,208,99222,2,0,B|160:224|208:208,1,80
313,173,99871,6,0,B|352:160|392:176,1,80
358,258,100520,2,0,B|320:272|280:256,1,80
216,192,101168,5,4
136,160,101493,1,0
136,160,101655,2,0,B|128:112|176:80,4,80,4|4|4|4|0
152,200,103114,5,4
216,264,103439,1,4
288,312,103763,6,0,B|376:312,1,80,4|0
352,224,104412,2,0,B|440:224,1,80
264,232,105060,6,0,B|176:232,1,80,4|0
328,144,105709,2,0,B|240:144,1,80
168,104,106358,5,4
96,48,106682,1,0
24,104,107006,1,0
96,160,107331,1,0
168,208,107655,5,4
240,264,107979,1,0
168,320,108304,1,0
96,264,108628,1,0
256,192,108952,12,0,111547
