osu file format v13

[General]
AudioFilename: DJ Weaver - Hardcore Mania.mp3
AudioLeadIn: 0
PreviewTime: 82237
Countdown: 0
SampleSet: Soft
StackLeniency: 0.4
Mode: 3
LetterboxInBreaks: 0
SpecialStyle: 0
WidescreenStoryboard: 1

[Editor]
DistanceSpacing: 2
BeatDivisor: 4
GridSize: 16
TimelineZoom: 1

[Metadata]
Title:Hardcore Mania
TitleUnicode:Hardcore Mania
Artist:DJ Weaver
ArtistUnicode:DJ Weaver
Creator:Mike Ace
Version:8K Hyper
Source:Beatmania IIDX 18 Resort Anthem
Tags:Nijigen-kun ichia7x DE-CADE Mike91Lau xLoupGarou Kuo Kyoka [Shana Lesus] lordraika WORLD TOUR
BeatmapID:473120
BeatmapSetID:189484

[Difficulty]
HPDrainRate:7
CircleSize:8
OverallDifficulty:8
ApproachRate:5
SliderMultiplier:3
SliderTickRate:2

[Events]
//Background and Video events
0,0,"HDM.jpg",0,0
//Break Periods
//Storyboard Layer 0 (Background)
//Storyboard Layer 1 (Fail)
//Storyboard Layer 2 (Pass)
//Storyboard Layer 3 (Foreground)
//Storyboard Sound Samples
//Background Colour Transformations
3,100,163,162,255

[TimingPoints]
1767,352.941176470588,4,2,1,30,1,0
37061,-100,4,2,1,30,0,1
46943,-100,4,2,1,30,0,0
48355,-100,4,2,1,30,0,1
58237,-100,4,2,1,30,0,0
82237,-100,4,2,1,30,0,1
92119,-100,4,2,1,30,0,0
93531,-100,4,2,1,30,0,1
103414,-100,4,2,1,30,0,0

[HitObjects]
480,192,1766,128,0,3178:0:0:0:0:
352,192,3178,1,0,0:0:0:0:
416,192,3266,1,0,0:0:0:0:
352,192,3355,1,0,0:0:0:0:
224,192,3531,1,0,0:0:0:0:
288,192,3619,1,0,0:0:0:0:
352,192,3708,1,0,0:0:0:0:
288,192,3796,1,0,0:0:0:0:
96,192,3972,1,0,0:0:0:0:
160,192,4061,1,0,0:0:0:0:
224,192,4237,1,0,0:0:0:0:
288,192,4325,1,0,0:0:0:0:
352,192,4502,1,0,0:0:0:0:
224,192,4590,1,0,0:0:0:0:
416,192,4590,1,0,0:0:0:0:
352,192,4678,1,0,0:0:0:0:
288,192,4766,1,0,0:0:0:0:
32,192,4943,1,0,0:0:0:0:
96,192,5031,1,0,0:0:0:0:
32,192,5119,1,0,0:0:0:0:
96,192,5208,1,0,0:0:0:0:
416,192,5384,1,0,0:0:0:0:
352,192,5472,1,0,0:0:0:0:
288,192,5649,1,0,0:0:0:0:
416,192,5649,1,0,0:0:0:0:
352,192,5737,1,0,0:0:0:0:
288,192,5825,1,0,0:0:0:0:
352,192,5914,1,0,0:0:0:0:
416,192,6002,1,0,0:0:0:0:
480,192,6002,1,0,0:0:0:0:
352,192,6090,1,0,0:0:0:0:
288,192,6178,1,0,0:0:0:0:
160,192,6355,1,0,0:0:0:0:
96,192,6443,1,0,0:0:0:0:
32,192,6531,1,0,0:0:0:0:
96,192,6619,1,0,0:0:0:0:
224,192,6619,1,0,0:0:0:0:
160,192,6796,1,0,0:0:0:0:
224,192,6884,1,0,0:0:0:0:
288,192,7061,1,0,0:0:0:0:
224,192,7149,1,0,0:0:0:0:
288,192,7325,1,0,0:0:0:0:
224,192,7414,1,0,0:0:0:0:
160,192,7502,1,0,0:0:0:0:
96,192,7590,1,0,0:0:0:0:
224,192,7766,1,0,0:0:0:0:
288,192,7855,1,0,0:0:0:0:
224,192,7943,1,0,0:0:0:0:
288,192,8031,1,0,0:0:0:0:
352,192,8208,1,0,0:0:0:0:
288,192,8296,1,0,0:0:0:0:
96,192,8472,1,0,0:0:0:0:
160,192,8561,1,0,0:0:0:0:
96,192,8649,1,0,0:0:0:0:
160,192,8737,1,0,0:0:0:0:
224,192,8825,1,0,0:0:0:0:
32,192,8825,1,0,0:0:0:0:
352,192,8825,1,0,0:0:0:0:
288,192,8914,1,0,0:0:0:0:
224,192,9002,1,0,0:0:0:0:
96,192,9178,1,0,0:0:0:0:
160,192,9266,1,0,0:0:0:0:
96,192,9355,1,0,0:0:0:0:
160,192,9443,1,0,0:0:0:0:
416,192,9619,1,0,0:0:0:0:
480,192,9708,1,0,0:0:0:0:
416,192,9884,1,0,0:0:0:0:
352,192,9972,1,0,0:0:0:0:
416,192,10149,1,0,0:0:0:0:
480,192,10237,1,0,0:0:0:0:
288,192,10237,1,0,0:0:0:0:
96,192,10237,1,0,0:0:0:0:
416,192,10325,1,0,0:0:0:0:
352,192,10414,1,0,0:0:0:0:
416,192,10590,1,0,0:0:0:0:
352,192,10678,1,0,0:0:0:0:
288,192,10766,1,0,0:0:0:0:
352,192,10855,1,0,0:0:0:0:
160,192,11031,1,0,0:0:0:0:
224,192,11119,1,0,0:0:0:0:
288,192,11296,1,0,0:0:0:0:
224,192,11384,1,0,0:0:0:0:
96,192,11561,1,0,0:0:0:0:
160,192,11649,1,0,0:0:0:0:
32,192,11649,1,0,0:0:0:0:
288,192,11649,1,0,0:0:0:0:
224,192,11737,1,0,0:0:0:0:
288,192,11825,1,0,0:0:0:0:
224,192,11914,1,0,0:0:0:0:
160,192,12002,1,0,0:0:0:0:
224,192,12090,1,0,0:0:0:0:
288,192,12178,1,0,0:0:0:0:
352,192,12266,1,0,0:0:0:0:
288,192,12355,1,0,0:0:0:0:
224,192,12443,1,0,0:0:0:0:
160,192,12531,1,0,0:0:0:0:
96,192,12619,1,0,0:0:0:0:
160,192,12708,1,0,0:0:0:0:
224,192,12796,1,0,0:0:0:0:
288,192,12884,1,0,0:0:0:0:
352,192,12972,1,0,0:0:0:0:
288,192,13061,1,0,0:0:0:0:
480,192,13061,1,0,0:0:0:0:
160,192,13061,1,0,0:0:0:0:
32,192,14472,1,0,0:0:0:0:
224,192,14472,1,0,0:0:0:0:
416,192,14472,1,0,0:0:0:0:
160,192,14825,1,0,0:0:0:0:
288,192,14825,1,0,0:0:0:0:
224,192,15178,1,0,0:0:0:0:
352,192,15178,1,0,0:0:0:0:
96,192,15178,1,0,0:0:0:0:
160,192,15531,1,0,0:0:0:0:
288,192,15531,1,0,0:0:0:0:
224,192,15884,1,0,0:0:0:0:
480,192,15884,1,0,0:0:0:0:
352,192,15884,1,0,0:0:0:0:
96,192,16237,1,0,0:0:0:0:
416,192,16237,1,0,0:0:0:0:
224,192,16590,1,0,0:0:0:0:
352,192,16590,1,0,0:0:0:0:
288,192,16943,1,0,0:0:0:0:
32,192,16943,1,0,0:0:0:0:
160,192,16943,1,0,0:0:0:0:
224,192,17296,1,0,0:0:0:0:
416,192,17296,1,0,0:0:0:0:
288,192,17649,1,0,0:0:0:0:
480,192,17649,1,0,0:0:0:0:
160,192,17649,1,0,0:0:0:0:
416,192,18002,1,0,0:0:0:0:
224,192,18002,1,0,0:0:0:0:
352,192,18002,1,0,0:0:0:0:
288,192,18355,1,0,0:0:0:0:
480,192,18355,1,0,0:0:0:0:
224,192,18708,1,0,0:0:0:0:
352,192,18708,1,0,0:0:0:0:
96,192,18708,1,0,0:0:0:0:
160,192,19061,1,0,0:0:0:0:
288,192,19061,1,0,0:0:0:0:
32,192,19414,1,0,0:0:0:0:
480,192,19414,1,0,0:0:0:0:
224,192,19414,1,0,0:0:0:0:
160,192,19766,1,0,0:0:0:0:
352,192,19766,1,0,0:0:0:0:
96,192,20119,1,0,0:0:0:0:
288,192,20119,1,0,0:0:0:0:
480,192,20119,1,0,0:0:0:0:
416,192,20296,1,0,0:0:0:0:
352,192,20472,1,0,0:0:0:0:
480,192,20472,1,0,0:0:0:0:
160,192,20825,1,0,0:0:0:0:
288,192,20825,1,0,0:0:0:0:
224,192,20825,1,0,0:0:0:0:
352,192,21178,1,0,0:0:0:0:
96,192,21178,1,0,0:0:0:0:
224,192,21531,1,0,0:0:0:0:
480,192,21531,1,0,0:0:0:0:
32,192,21531,1,0,0:0:0:0:
160,192,21708,1,0,0:0:0:0:
224,192,21884,1,0,0:0:0:0:
288,192,21884,1,0,0:0:0:0:
352,192,22237,1,0,0:0:0:0:
160,192,22237,1,0,0:0:0:0:
416,192,22237,1,0,0:0:0:0:
288,192,22414,1,0,0:0:0:0:
224,192,22590,1,0,0:0:0:0:
96,192,22590,1,0,0:0:0:0:
160,192,22766,1,0,0:0:0:0:
224,192,22943,1,0,0:0:0:0:
96,192,22943,1,0,0:0:0:0:
32,192,22943,1,0,0:0:0:0:
288,192,23119,1,0,0:0:0:0:
352,192,23296,1,0,0:0:0:0:
416,192,23296,1,0,0:0:0:0:
224,192,23649,1,0,0:0:0:0:
480,192,23649,1,0,0:0:0:0:
96,192,23649,1,0,0:0:0:0:
288,192,24002,1,0,0:0:0:0:
160,192,24002,1,0,0:0:0:0:
224,192,24178,1,0,0:0:0:0:
96,192,24355,1,0,0:0:0:0:
288,192,24355,1,0,0:0:0:0:
416,192,24355,1,0,0:0:0:0:
224,192,24531,1,0,0:0:0:0:
160,192,24708,1,0,0:0:0:0:
352,192,24708,1,0,0:0:0:0:
288,192,25061,1,0,0:0:0:0:
416,192,25061,1,0,0:0:0:0:
96,192,25061,1,0,0:0:0:0:
352,192,25237,1,0,0:0:0:0:
224,192,25414,1,0,0:0:0:0:
480,192,25414,1,0,0:0:0:0:
288,192,25590,1,0,0:0:0:0:
160,192,25766,1,0,0:0:0:0:
352,192,25766,1,0,0:0:0:0:
32,192,25766,1,0,0:0:0:0:
224,192,25855,1,0,0:0:0:0:
288,192,25943,1,0,0:0:0:0:
352,192,26031,1,0,0:0:0:0:
288,192,26119,1,0,0:0:0:0:
224,192,26208,1,0,0:0:0:0:
288,192,26296,1,0,0:0:0:0:
352,192,26384,1,0,0:0:0:0:
416,192,26472,1,0,0:0:0:0:
160,192,26825,1,0,0:0:0:0:
288,192,26825,1,0,0:0:0:0:
416,192,26825,1,0,0:0:0:0:
352,192,27178,1,0,0:0:0:0:
224,192,27178,1,0,0:0:0:0:
288,192,27355,1,0,0:0:0:0:
224,192,27443,1,0,0:0:0:0:
160,192,27531,1,0,0:0:0:0:
224,192,27619,1,0,0:0:0:0:
288,192,27708,1,0,0:0:0:0:
32,192,27796,1,0,0:0:0:0:
96,192,27884,1,0,0:0:0:0:
160,192,27972,1,0,0:0:0:0:
224,192,28061,1,0,0:0:0:0:
288,192,28149,1,0,0:0:0:0:
160,192,28237,1,0,0:0:0:0:
224,192,28325,1,0,0:0:0:0:
288,192,28414,1,0,0:0:0:0:
352,192,28502,1,0,0:0:0:0:
416,192,28590,1,0,0:0:0:0:
224,192,28590,1,0,0:0:0:0:
352,192,28678,1,0,0:0:0:0:
288,192,28766,1,0,0:0:0:0:
224,192,28855,1,0,0:0:0:0:
32,192,28943,1,0,0:0:0:0:
96,192,29031,1,0,0:0:0:0:
160,192,29119,1,0,0:0:0:0:
224,192,29208,1,0,0:0:0:0:
288,192,29296,1,0,0:0:0:0:
160,192,29296,1,0,0:0:0:0:
160,192,29649,1,0,0:0:0:0:
32,192,29649,1,0,0:0:0:0:
480,192,29649,1,0,0:0:0:0:
96,192,30002,1,0,0:0:0:0:
288,192,30002,1,0,0:0:0:0:
480,192,30002,1,0,0:0:0:0:
32,192,30090,1,0,0:0:0:0:
96,192,30178,1,0,0:0:0:0:
160,192,30266,1,0,0:0:0:0:
96,192,30355,1,0,0:0:0:0:
160,192,30443,1,0,0:0:0:0:
224,192,30531,1,0,0:0:0:0:
288,192,30619,1,0,0:0:0:0:
32,192,30708,1,0,0:0:0:0:
96,192,30796,1,0,0:0:0:0:
160,192,30884,1,0,0:0:0:0:
480,192,30972,1,0,0:0:0:0:
416,192,31061,1,0,0:0:0:0:
352,192,31149,1,0,0:0:0:0:
224,192,31237,1,0,0:0:0:0:
288,192,31325,1,0,0:0:0:0:
352,192,31414,1,0,0:0:0:0:
480,192,31414,1,0,0:0:0:0:
224,192,31414,1,0,0:0:0:0:
160,192,31590,1,0,0:0:0:0:
224,192,31766,1,0,0:0:0:0:
288,192,31943,1,0,0:0:0:0:
352,192,32119,1,0,0:0:0:0:
160,192,32296,1,0,0:0:0:0:
224,192,32472,1,0,0:0:0:0:
160,192,32649,1,0,0:0:0:0:
96,192,32825,1,0,0:0:0:0:
416,192,33002,1,0,0:0:0:0:
352,192,33178,1,0,0:0:0:0:
416,192,33355,1,0,0:0:0:0:
352,192,33531,1,0,0:0:0:0:
288,192,33708,1,0,0:0:0:0:
160,192,33884,1,0,0:0:0:0:
288,192,34061,1,0,0:0:0:0:
224,192,34237,1,0,0:0:0:0:
352,192,34237,1,0,0:0:0:0:
96,192,34237,1,0,0:0:0:0:
32,192,34325,1,0,0:0:0:0:
96,192,34414,1,0,0:0:0:0:
160,192,34502,1,0,0:0:0:0:
288,192,34590,1,0,0:0:0:0:
224,192,34678,1,0,0:0:0:0:
160,192,34766,1,0,0:0:0:0:
224,192,34855,1,0,0:0:0:0:
288,192,34943,1,0,0:0:0:0:
416,192,35031,1,0,0:0:0:0:
352,192,35119,1,0,0:0:0:0:
288,192,35208,1,0,0:0:0:0:
160,192,35296,1,0,0:0:0:0:
224,192,35384,1,0,0:0:0:0:
288,192,35472,1,0,0:0:0:0:
352,192,35561,1,0,0:0:0:0:
224,192,35649,1,0,0:0:0:0:
480,192,35649,1,0,0:0:0:0:
32,192,35649,1,0,0:0:0:0:
96,192,37061,1,0,0:0:0:0:
288,192,37061,1,0,0:0:0:0:
480,192,37061,1,0,0:0:0:0:
160,192,37061,1,0,0:0:0:0:
352,192,37414,1,0,0:0:0:0:
224,192,37414,1,0,0:0:0:0:
32,192,37414,1,0,0:0:0:0:
96,192,37766,1,0,0:0:0:0:
288,192,37766,1,0,0:0:0:0:
32,192,38119,1,0,0:0:0:0:
160,192,38119,1,0,0:0:0:0:
352,192,38119,1,0,0:0:0:0:
224,192,38472,1,0,0:0:0:0:
416,192,38472,1,0,0:0:0:0:
96,192,38472,1,0,0:0:0:0:
480,192,38472,1,0,0:0:0:0:
352,192,38825,1,0,0:0:0:0:
160,192,38825,1,0,0:0:0:0:
32,192,38825,1,0,0:0:0:0:
96,192,39178,1,0,0:0:0:0:
224,192,39178,1,0,0:0:0:0:
160,192,39531,1,0,0:0:0:0:
288,192,39531,1,0,0:0:0:0:
480,192,39531,1,0,0:0:0:0:
224,192,39884,1,0,0:0:0:0:
96,192,39884,1,0,0:0:0:0:
352,192,39884,1,0,0:0:0:0:
160,192,40237,1,0,0:0:0:0:
288,192,40237,1,0,0:0:0:0:
480,192,40237,1,0,0:0:0:0:
224,192,40590,1,0,0:0:0:0:
416,192,40590,1,0,0:0:0:0:
32,192,40943,1,0,0:0:0:0:
160,192,40943,1,0,0:0:0:0:
480,192,40943,1,0,0:0:0:0:
224,192,41296,1,0,0:0:0:0:
416,192,41296,1,0,0:0:0:0:
96,192,41296,1,0,0:0:0:0:
288,192,41649,1,0,0:0:0:0:
352,192,41649,1,0,0:0:0:0:
160,192,42002,1,0,0:0:0:0:
224,192,42002,1,0,0:0:0:0:
96,192,42002,1,0,0:0:0:0:
32,192,42002,1,0,0:0:0:0:
352,192,42355,1,0,0:0:0:0:
416,192,42355,1,0,0:0:0:0:
480,192,42355,1,0,0:0:0:0:
288,192,42708,1,0,0:0:0:0:
32,192,42708,1,0,0:0:0:0:
160,192,42708,1,0,0:0:0:0:
224,192,43061,1,0,0:0:0:0:
96,192,43061,1,0,0:0:0:0:
160,192,43414,1,0,0:0:0:0:
288,192,43414,1,0,0:0:0:0:
480,192,43414,1,0,0:0:0:0:
96,192,43766,1,0,0:0:0:0:
224,192,43766,1,0,0:0:0:0:
160,192,44119,1,0,0:0:0:0:
32,192,44119,1,0,0:0:0:0:
288,192,44119,1,0,0:0:0:0:
352,192,44119,1,0,0:0:0:0:
224,192,44472,1,0,0:0:0:0:
416,192,44472,1,0,0:0:0:0:
288,192,44825,1,0,0:0:0:0:
352,192,44825,1,0,0:0:0:0:
480,192,44825,1,0,0:0:0:0:
160,192,44825,1,0,0:0:0:0:
96,192,45178,1,0,0:0:0:0:
224,192,45178,1,0,0:0:0:0:
416,192,45178,1,0,0:0:0:0:
160,192,45531,1,0,0:0:0:0:
352,192,45531,1,0,0:0:0:0:
224,192,45884,1,0,0:0:0:0:
288,192,45884,1,0,0:0:0:0:
96,192,45884,1,0,0:0:0:0:
32,192,45884,1,0,0:0:0:0:
160,192,46237,1,0,0:0:0:0:
352,192,46237,1,0,0:0:0:0:
480,192,46237,1,0,0:0:0:0:
288,192,46590,1,0,0:0:0:0:
416,192,46590,1,0,0:0:0:0:
224,192,46943,1,0,0:0:0:0:
352,192,46943,1,0,0:0:0:0:
96,192,46943,1,0,0:0:0:0:
96,192,48355,1,0,0:0:0:0:
288,192,48355,1,0,0:0:0:0:
480,192,48355,1,0,0:0:0:0:
224,192,48708,1,0,0:0:0:0:
160,192,48708,1,0,0:0:0:0:
288,192,49061,1,0,0:0:0:0:
480,192,49061,1,0,0:0:0:0:
416,192,49061,1,0,0:0:0:0:
352,192,49061,1,0,0:0:0:0:
32,192,49414,1,0,0:0:0:0:
224,192,49414,1,0,0:0:0:0:
96,192,49766,1,0,0:0:0:0:
160,192,49766,1,0,0:0:0:0:
288,192,49766,1,0,0:0:0:0:
224,192,50119,1,0,0:0:0:0:
352,192,50119,1,0,0:0:0:0:
480,192,50119,1,0,0:0:0:0:
288,192,50472,1,0,0:0:0:0:
160,192,50472,1,0,0:0:0:0:
32,192,50825,1,0,0:0:0:0:
224,192,50825,1,0,0:0:0:0:
352,192,50825,1,0,0:0:0:0:
416,192,50825,1,0,0:0:0:0:
160,192,51178,1,0,0:0:0:0:
96,192,51178,1,0,0:0:0:0:
32,192,51531,1,0,0:0:0:0:
224,192,51531,1,0,0:0:0:0:
480,192,51531,1,0,0:0:0:0:
416,192,51884,1,0,0:0:0:0:
160,192,51884,1,0,0:0:0:0:
224,192,52237,1,0,0:0:0:0:
352,192,52237,1,0,0:0:0:0:
96,192,52237,1,0,0:0:0:0:
160,192,52590,1,0,0:0:0:0:
288,192,52590,1,0,0:0:0:0:
416,192,52590,1,0,0:0:0:0:
32,192,52590,1,0,0:0:0:0:
224,192,52943,1,0,0:0:0:0:
352,192,52943,1,0,0:0:0:0:
160,192,53296,1,0,0:0:0:0:
288,192,53296,1,0,0:0:0:0:
224,192,53649,1,0,0:0:0:0:
352,192,53649,1,0,0:0:0:0:
480,192,53649,1,0,0:0:0:0:
416,192,54002,1,0,0:0:0:0:
288,192,54002,1,0,0:0:0:0:
32,192,54002,1,0,0:0:0:0:
160,192,54002,1,0,0:0:0:0:
96,192,54178,1,0,0:0:0:0:
160,192,54355,1,0,0:0:0:0:
224,192,54531,1,0,0:0:0:0:
480,192,54708,1,0,0:0:0:0:
352,192,54884,1,0,0:0:0:0:
224,192,55061,1,0,0:0:0:0:
288,192,55237,1,0,0:0:0:0:
352,192,55414,1,0,0:0:0:0:
224,192,55414,1,0,0:0:0:0:
480,192,55414,1,0,0:0:0:0:
288,192,55590,1,0,0:0:0:0:
224,192,55766,1,0,0:0:0:0:
160,192,55943,1,0,0:0:0:0:
32,192,56119,1,0,0:0:0:0:
96,192,56296,1,0,0:0:0:0:
160,192,56472,1,0,0:0:0:0:
288,192,56649,1,0,0:0:0:0:
224,192,56825,1,0,0:0:0:0:
352,192,56825,1,0,0:0:0:0:
96,192,56825,1,0,0:0:0:0:
160,192,56914,1,0,0:0:0:0:
224,192,57002,1,0,0:0:0:0:
288,192,57090,1,0,0:0:0:0:
224,192,57178,1,0,0:0:0:0:
160,192,57266,1,0,0:0:0:0:
224,192,57355,1,0,0:0:0:0:
32,192,57443,1,0,0:0:0:0:
96,192,57531,1,0,0:0:0:0:
160,192,57619,1,0,0:0:0:0:
224,192,57708,1,0,0:0:0:0:
352,192,57884,1,0,0:0:0:0:
288,192,57972,1,0,0:0:0:0:
224,192,58061,1,0,0:0:0:0:
160,192,58149,1,0,0:0:0:0:
96,192,58237,1,0,0:0:0:0:
224,192,58237,1,0,0:0:0:0:
352,192,58237,1,0,0:0:0:0:
480,192,58237,1,0,0:0:0:0:
96,192,59649,1,0,0:0:0:0:
288,192,59649,1,0,0:0:0:0:
480,192,59649,1,0,0:0:0:0:
160,192,61061,1,0,0:0:0:0:
288,192,61590,1,0,0:0:0:0:
288,192,62119,1,0,0:0:0:0:
224,192,62472,1,0,0:0:0:0:
160,192,63002,1,0,0:0:0:0:
96,192,63531,128,0,65296:0:0:0:0:
224,192,65296,1,0,0:0:0:0:
32,192,65296,1,0,0:0:0:0:
416,192,65296,1,0,0:0:0:0:
32,192,66708,1,0,0:0:0:0:
224,192,66708,1,0,0:0:0:0:
160,192,67237,1,0,0:0:0:0:
96,192,67766,1,0,0:0:0:0:
160,192,68119,1,0,0:0:0:0:
352,192,68649,1,0,0:0:0:0:
480,192,69178,128,0,70943:0:0:0:0:
32,192,70943,1,0,0:0:0:0:
96,192,71031,1,0,0:0:0:0:
160,192,71119,1,0,0:0:0:0:
224,192,71296,1,0,0:0:0:0:
160,192,71384,1,0,0:0:0:0:
288,192,71472,1,0,0:0:0:0:
224,192,71561,1,0,0:0:0:0:
160,192,71737,1,0,0:0:0:0:
224,192,71825,1,0,0:0:0:0:
160,192,72002,1,0,0:0:0:0:
224,192,72090,1,0,0:0:0:0:
288,192,72178,1,0,0:0:0:0:
352,192,72266,1,0,0:0:0:0:
416,192,72443,1,0,0:0:0:0:
352,192,72531,1,0,0:0:0:0:
224,192,72619,1,0,0:0:0:0:
288,192,72708,1,0,0:0:0:0:
352,192,72796,1,0,0:0:0:0:
288,192,72884,1,0,0:0:0:0:
224,192,72972,1,0,0:0:0:0:
96,192,73149,1,0,0:0:0:0:
160,192,73237,1,0,0:0:0:0:
224,192,73414,1,0,0:0:0:0:
288,192,73502,1,0,0:0:0:0:
352,192,73590,1,0,0:0:0:0:
288,192,73678,1,0,0:0:0:0:
32,192,73855,1,0,0:0:0:0:
96,192,73943,1,0,0:0:0:0:
32,192,74119,1,0,0:0:0:0:
96,192,74208,1,0,0:0:0:0:
224,192,74296,1,0,0:0:0:0:
160,192,74384,1,0,0:0:0:0:
32,192,74561,1,0,0:0:0:0:
96,192,74649,1,0,0:0:0:0:
288,192,74825,1,0,0:0:0:0:
224,192,74914,1,0,0:0:0:0:
160,192,75002,1,0,0:0:0:0:
224,192,75090,1,0,0:0:0:0:
288,192,75266,1,0,0:0:0:0:
224,192,75355,1,0,0:0:0:0:
160,192,75531,1,0,0:0:0:0:
288,192,75619,1,0,0:0:0:0:
224,192,75708,1,0,0:0:0:0:
160,192,75796,1,0,0:0:0:0:
416,192,75972,1,0,0:0:0:0:
352,192,76061,1,0,0:0:0:0:
224,192,76237,1,0,0:0:0:0:
288,192,76325,1,0,0:0:0:0:
352,192,76414,1,0,0:0:0:0:
416,192,76502,1,0,0:0:0:0:
352,192,76590,1,0,0:0:0:0:
480,192,76590,1,0,0:0:0:0:
224,192,76590,1,0,0:0:0:0:
96,192,76590,1,0,0:0:0:0:
416,192,76678,1,0,0:0:0:0:
352,192,76766,1,0,0:0:0:0:
288,192,76855,1,0,0:0:0:0:
224,192,76943,1,0,0:0:0:0:
288,192,77031,1,0,0:0:0:0:
352,192,77119,1,0,0:0:0:0:
288,192,77208,1,0,0:0:0:0:
160,192,77384,1,0,0:0:0:0:
224,192,77472,1,0,0:0:0:0:
352,192,77649,1,0,0:0:0:0:
288,192,77737,1,0,0:0:0:0:
224,192,77825,1,0,0:0:0:0:
160,192,77914,1,0,0:0:0:0:
96,192,78090,1,0,0:0:0:0:
160,192,78178,1,0,0:0:0:0:
352,192,78355,1,0,0:0:0:0:
288,192,78443,1,0,0:0:0:0:
224,192,78531,1,0,0:0:0:0:
288,192,78619,1,0,0:0:0:0:
480,192,78796,1,0,0:0:0:0:
416,192,78884,1,0,0:0:0:0:
32,192,79061,1,0,0:0:0:0:
96,192,79149,1,0,0:0:0:0:
160,192,79237,1,0,0:0:0:0:
224,192,79325,1,0,0:0:0:0:
160,192,79414,1,0,0:0:0:0:
288,192,79414,1,0,0:0:0:0:
416,192,79414,1,0,0:0:0:0:
32,192,79414,1,0,0:0:0:0:
352,192,79502,1,0,0:0:0:0:
288,192,79590,1,0,0:0:0:0:
224,192,79678,1,0,0:0:0:0:
160,192,79766,1,0,0:0:0:0:
96,192,79855,1,0,0:0:0:0:
32,192,79943,1,0,0:0:0:0:
480,192,80031,1,0,0:0:0:0:
416,192,80119,1,0,0:0:0:0:
352,192,80208,1,0,0:0:0:0:
288,192,80296,1,0,0:0:0:0:
224,192,80384,1,0,0:0:0:0:
160,192,80472,1,0,0:0:0:0:
96,192,80561,1,0,0:0:0:0:
160,192,80649,1,0,0:0:0:0:
96,192,80737,1,0,0:0:0:0:
32,192,80825,1,0,0:0:0:0:
160,192,80825,1,0,0:0:0:0:
288,192,80825,1,0,0:0:0:0:
416,192,80825,1,0,0:0:0:0:
96,192,82237,1,0,0:0:0:0:
352,192,82237,1,0,0:0:0:0:
480,192,82237,1,0,0:0:0:0:
288,192,82590,1,0,0:0:0:0:
416,192,82590,1,0,0:0:0:0:
224,192,82943,1,0,0:0:0:0:
352,192,82943,1,0,0:0:0:0:
32,192,82943,1,0,0:0:0:0:
160,192,82943,1,0,0:0:0:0:
288,192,83296,1,0,0:0:0:0:
480,192,83296,1,0,0:0:0:0:
96,192,83296,1,0,0:0:0:0:
224,192,83649,1,0,0:0:0:0:
352,192,83649,1,0,0:0:0:0:
160,192,84002,1,0,0:0:0:0:
288,192,84002,1,0,0:0:0:0:
480,192,84002,1,0,0:0:0:0:
352,192,84355,1,0,0:0:0:0:
224,192,84355,1,0,0:0:0:0:
288,192,84708,1,0,0:0:0:0:
416,192,84708,1,0,0:0:0:0:
160,192,84708,1,0,0:0:0:0:
32,192,84708,1,0,0:0:0:0:
96,192,85061,1,0,0:0:0:0:
352,192,85061,1,0,0:0:0:0:
480,192,85061,1,0,0:0:0:0:
288,192,85414,1,0,0:0:0:0:
416,192,85414,1,0,0:0:0:0:
32,192,85414,1,0,0:0:0:0:
224,192,85414,1,0,0:0:0:0:
160,192,85766,1,0,0:0:0:0:
352,192,85766,1,0,0:0:0:0:
288,192,86119,1,0,0:0:0:0:
480,192,86119,1,0,0:0:0:0:
96,192,86119,1,0,0:0:0:0:
224,192,86472,1,0,0:0:0:0:
160,192,86472,1,0,0:0:0:0:
288,192,86825,1,0,0:0:0:0:
96,192,86825,1,0,0:0:0:0:
480,192,86825,1,0,0:0:0:0:
32,192,86825,1,0,0:0:0:0:
224,192,87178,1,0,0:0:0:0:
416,192,87178,1,0,0:0:0:0:
352,192,87531,1,0,0:0:0:0:
160,192,87531,1,0,0:0:0:0:
32,192,87531,1,0,0:0:0:0:
224,192,87884,1,0,0:0:0:0:
96,192,87884,1,0,0:0:0:0:
352,192,87884,1,0,0:0:0:0:
480,192,87884,1,0,0:0:0:0:
288,192,88237,1,0,0:0:0:0:
160,192,88237,1,0,0:0:0:0:
96,192,88590,1,0,0:0:0:0:
224,192,88590,1,0,0:0:0:0:
416,192,88590,1,0,0:0:0:0:
160,192,88943,1,0,0:0:0:0:
480,192,88943,1,0,0:0:0:0:
352,192,89296,1,0,0:0:0:0:
480,192,89296,1,0,0:0:0:0:
288,192,89296,1,0,0:0:0:0:
32,192,89296,1,0,0:0:0:0:
224,192,89649,1,0,0:0:0:0:
416,192,89649,1,0,0:0:0:0:
160,192,90002,1,0,0:0:0:0:
288,192,90002,1,0,0:0:0:0:
352,192,90002,1,0,0:0:0:0:
224,192,90355,1,0,0:0:0:0:
480,192,90355,1,0,0:0:0:0:
416,192,90355,1,0,0:0:0:0:
96,192,90355,1,0,0:0:0:0:
160,192,90708,1,0,0:0:0:0:
32,192,90708,1,0,0:0:0:0:
288,192,90708,1,0,0:0:0:0:
480,192,90708,1,0,0:0:0:0:
224,192,91061,1,0,0:0:0:0:
352,192,91061,1,0,0:0:0:0:
288,192,91414,1,0,0:0:0:0:
160,192,91414,1,0,0:0:0:0:
96,192,91414,1,0,0:0:0:0:
224,192,91766,1,0,0:0:0:0:
416,192,91766,1,0,0:0:0:0:
288,192,92119,1,0,0:0:0:0:
480,192,92119,1,0,0:0:0:0:
352,192,92119,1,0,0:0:0:0:
96,192,92119,1,0,0:0:0:0:
96,192,93531,1,0,0:0:0:0:
288,192,93531,1,0,0:0:0:0:
480,192,93531,1,0,0:0:0:0:
160,192,93531,1,0,0:0:0:0:
224,192,93884,1,0,0:0:0:0:
352,192,93884,1,0,0:0:0:0:
288,192,94237,1,0,0:0:0:0:
160,192,94237,1,0,0:0:0:0:
32,192,94237,1,0,0:0:0:0:
224,192,94590,1,0,0:0:0:0:
96,192,94590,1,0,0:0:0:0:
160,192,94943,1,0,0:0:0:0:
352,192,94943,1,0,0:0:0:0:
480,192,94943,1,0,0:0:0:0:
288,192,95296,1,0,0:0:0:0:
96,192,95296,1,0,0:0:0:0:
160,192,95649,1,0,0:0:0:0:
416,192,95649,1,0,0:0:0:0:
32,192,95649,1,0,0:0:0:0:
224,192,95649,1,0,0:0:0:0:
288,192,96002,1,0,0:0:0:0:
480,192,96002,1,0,0:0:0:0:
416,192,96355,1,0,0:0:0:0:
96,192,96355,1,0,0:0:0:0:
224,192,96355,1,0,0:0:0:0:
160,192,96708,1,0,0:0:0:0:
288,192,96708,1,0,0:0:0:0:
480,192,96708,1,0,0:0:0:0:
416,192,97061,1,0,0:0:0:0:
224,192,97061,1,0,0:0:0:0:
96,192,97414,1,0,0:0:0:0:
288,192,97414,1,0,0:0:0:0:
224,192,97766,1,0,0:0:0:0:
480,192,97766,1,0,0:0:0:0:
32,192,97766,1,0,0:0:0:0:
96,192,98119,1,0,0:0:0:0:
288,192,98119,1,0,0:0:0:0:
160,192,98472,1,0,0:0:0:0:
352,192,98472,1,0,0:0:0:0:
224,192,98825,1,0,0:0:0:0:
416,192,98825,1,0,0:0:0:0:
96,192,98825,1,0,0:0:0:0:
160,192,99178,1,0,0:0:0:0:
288,192,99178,1,0,0:0:0:0:
352,192,99178,1,0,0:0:0:0:
480,192,99178,1,0,0:0:0:0:
416,192,99355,1,0,0:0:0:0:
352,192,99531,1,0,0:0:0:0:
160,192,99708,1,0,0:0:0:0:
224,192,99884,1,0,0:0:0:0:
288,192,100061,1,0,0:0:0:0:
416,192,100237,1,0,0:0:0:0:
480,192,100414,1,0,0:0:0:0:
416,192,100590,1,0,0:0:0:0:
288,192,100590,1,0,0:0:0:0:
160,192,100766,1,0,0:0:0:0:
224,192,100943,1,0,0:0:0:0:
288,192,101119,1,0,0:0:0:0:
224,192,101296,1,0,0:0:0:0:
352,192,101472,1,0,0:0:0:0:
288,192,101649,1,0,0:0:0:0:
224,192,101825,1,0,0:0:0:0:
160,192,102002,1,0,0:0:0:0:
288,192,102002,1,0,0:0:0:0:
416,192,102002,1,0,0:0:0:0:
224,192,102090,1,0,0:0:0:0:
288,192,102178,1,0,0:0:0:0:
352,192,102266,1,0,0:0:0:0:
416,192,102355,1,0,0:0:0:0:
352,192,102443,1,0,0:0:0:0:
288,192,102531,1,0,0:0:0:0:
352,192,102619,1,0,0:0:0:0:
288,192,102708,1,0,0:0:0:0:
352,192,102796,1,0,0:0:0:0:
416,192,102884,1,0,0:0:0:0:
480,192,102972,1,0,0:0:0:0:
32,192,103061,1,0,0:0:0:0:
96,192,103149,1,0,0:0:0:0:
160,192,103237,1,0,0:0:0:0:
224,192,103325,1,0,0:0:0:0:
96,192,103414,1,0,0:0:0:0:
288,192,103414,1,0,0:0:0:0:
416,192,103414,1,0,0:0:0:0:
352,192,104825,128,0,105708:0:0:0:0:
288,192,104825,128,0,106325:0:0:0:0:
32,192,104825,128,0,107649:0:0:0:0:
96,192,104825,128,0,106943:0:0:0:0:
