osu file format v5

[General]
AudioFilename: Power This Techno (Original Mix).mp3
AudioLeadIn: 0
PreviewTime: -1
Countdown: 1
SampleSet: Normal
StackLeniency: 0.7
Mode: 0
LetterboxInBreaks: 1

[Metadata]
Title:Power this techno
Artist:DJ Tizzue
Creator:SeymourLyon
Version:Hard
Source:
Tags:Dj Tizzue Power Techno

[Difficulty]
HPDrainRate:6
CircleSize:6
OverallDifficulty:6
SliderMultiplier:1
SliderTickRate:4

[Events]
//Background and Video events
0,0,"graffiti_girl.jpg"
//Break Periods
//Storyboard Layer 0 (Background)
//Storyboard Layer 1 (Failing)
//Storyboard Layer 2 (Passing)
//Storyboard Layer 3 (Foreground)
//Storyboard Sound Samples
//Background Colour Transformations
3,100,163,162,255

[TimingPoints]
17220,428.571428571429,4,1,0,91,1

[HitObjects]
256,192,17219,1,0
320,192,17648,1,0
384,192,18077,1,0
448,208,18505,5,8
464,256,18719,1,8
448,304,18933,1,8
384,320,19362,1,0
288,336,19791,6,10,L|144:336,1,100
144,336,20434,6,10,L|144:256|144:256,1,50
224,240,21077,5,0
152,184,21505,1,0
224,128,21934,1,8
272,128,22148,1,8
304,160,22362,1,8
224,192,22791,1,0
128,184,23219,6,10,L|128:40|128:40,1,100
128,85,23862,2,10,L|209:85|209:85,1,50
272,96,24505,1,0
336,176,24934,1,0
336,64,25362,5,2
384,64,25577,1,2
432,64,25791,1,2
432,160,26220,5,0
352,224,26648,2,10,B|352:256|304:256|304:224|256:224|256:256|278:292|278:292,1,100
296,288,27291,1,10
336,312,27505,1,10
480,336,27934,5,2
384,272,28362,1,8
272,336,28791,1,2
160,272,29220,1,8
48,336,29648,1,2
48,256,30077,6,8,B|16:224|48:192,1,50
80,208,30505,2,2,B|160:208,1,50
176,216,30934,2,8,B|208:216|224:200|224:168|245:158|225:140|202:116|192:123|192:126|192:126|192:120,1,100
352,144,31791,5,0
464,192,32220,1,0
416,288,32648,1,0
320,240,33077,1,0
400,160,33505,5,2
400,112,33720,2,2,B|480:112,1,50
368,32,34362,5,0
304,112,34791,1,2
240,192,35220,1,0
304,272,35648,1,2
192,272,36077,1,0
288,336,36505,1,2
304,240,36934,6,0,B|368:240,2,50
272,240,37577,2,0,B|192:240,1,50
128,240,38220,5,2
48,304,38648,1,0
48,176,39077,1,2
160,112,39505,1,0
272,176,39934,1,2
400,160,40362,5,0
400,208,40577,1,0
400,256,40791,1,0
400,304,41005,1,0
352,304,41220,1,0
304,304,41434,1,0
304,256,41648,1,0
304,232,41755,5,0
304,208,41862,1,0
304,184,41970,1,0
304,160,42077,1,0
304,136,42184,1,0
328,136,42291,1,0
352,136,42398,1,0
376,136,42505,1,0
400,136,42612,1,0
400,160,42720,1,0
400,184,42827,1,0
400,208,42934,5,0
256,192,43362,12,4,44648
256,192,44862,12,4,45505
256,192,45720,12,4,46362
256,192,48077,5,0
144,96,48934,5,0
144,144,49148,1,2
144,192,49362,1,0
144,240,49577,1,2
144,288,49791,1,0
256,288,50220,5,0
352,288,50648,5,0
352,192,51077,6,0,L|352:80,1,100
256,96,51934,6,0,L|192:96,1,50
160,96,52362,6,0,L|160:160,3,50
160,192,53220,5,0
160,288,53648,1,2
64,288,54077,5,0
64,192,54505,1,2
64,96,54934,1,0
160,96,55362,1,2
240,176,55791,5,8
272,208,56005,1,8
304,240,56220,1,8
384,320,56648,5,0
480,320,57077,5,0
480,272,57291,6,2,L|480:208,1,50
480,176,57720,2,0,L|480:112,1,50
480,80,58148,2,2,L|480:16,1,50
432,32,58577,2,0,L|368:32,1,50
336,32,59005,6,10,L|336:96,5,50
336,192,60505,5,0
224,192,60934,1,2
112,192,61362,1,0
176,112,61791,1,2
288,112,62220,1,0
352,192,62648,5,2
304,192,62862,6,2,L|240:192,1,50
208,192,63291,2,2,L|144:192,1,50
112,192,63720,5,2
256,192,63934,12,8,66934
256,192,67362,12,2,70362
256,192,70791,12,2,72077
160,112,72934,6,0,L|160:192,1,50
160,208,73362,2,0,L|160:272,1,50
208,256,73791,2,0,L|288:256,1,50
304,256,74220,1,0
400,112,75077,6,0,L|416:160,1,50
416,208,75505,2,0,L|400:256,1,50
352,256,75934,1,0
256,80,76791,6,0,L|256:144,1,50
256,184,77220,2,0,L|256:296,1,100,2|0
232,64,78934,6,0,L|168:64,2,50
280,64,79577,2,0,L|344:64,2,50
256,104,80220,2,0,L|256:160,1,50
256,192,80648,5,2
256,272,81077,1,0
336,272,81505,1,2
336,192,81934,5,8
296,192,82148,1,8
256,192,82362,1,8
176,192,82791,5,2
176,112,83220,1,8
216,112,83434,1,8
256,112,83648,1,8
336,112,84077,1,8
416,112,84505,1,2
416,192,84934,5,8
376,192,85148,1,8
336,192,85362,1,8
256,192,85791,1,8
256,272,86220,5,2
336,272,86648,6,0,L|392:272,2,50
296,272,87291,2,0,L|240:272,3,50
208,272,88148,2,0,L|144:272,3,50
120,272,89005,5,0
120,232,89220,1,0
120,152,89648,1,2
200,152,90077,6,0,L|256:152,3,50
288,152,90934,1,0
368,152,91362,1,2
368,232,91791,6,0,L|368:296,3,50
368,320,92648,1,0
288,320,93077,1,2
288,240,93505,5,0
248,240,93720,1,0
208,240,93934,1,2
208,320,94362,5,0
168,320,94577,1,0
128,320,94791,1,0
128,280,95005,1,2
128,240,95220,2,8,L|128:128,1,100
128,96,95862,6,8,L|200:96,1,50
256,96,96505,1,2
336,96,96934,2,8,L|400:96,2,50
336,136,97577,1,8
336,176,97791,2,0,L|336:288,1,100
256,296,98648,6,0,L|256:232,2,50
216,296,99291,1,0
176,296,99505,1,0
168,216,99934,5,2
248,216,100362,1,0
288,216,100577,1,0
328,216,100791,1,0
328,136,101220,1,0
288,136,101434,1,0
248,136,101648,1,0
208,136,101862,1,0
168,136,102077,1,0
168,176,102291,6,0,L|168:240|176:240,1,50
168,226,102720,2,0,L|168:280|176:280,1,50
248,280,103362,5,2
248,200,103791,1,0
248,120,104220,1,0
248,160,104434,1,0
248,200,104648,1,0
248,280,105077,1,2
328,280,105505,6,0,L|392:280,3,50
416,280,106362,2,8,L|416:176,1,100
336,184,107220,5,0
296,184,107434,1,0
256,184,107648,1,0
216,184,107862,1,0
176,184,108077,6,0,L|176:312,2,100
176,184,109362,2,0,L|176:80,2,100
176,184,110648,2,0,L|72:184,1,100
72,104,111505,5,0
72,184,111934,1,0
72,264,112362,1,2
112,264,112577,1,0
152,264,112791,1,2
152,184,113220,5,2
192,184,113434,1,0
232,184,113648,1,2
232,104,114077,5,2
192,104,114291,1,0
152,104,114505,1,2
176,72,114720,1,0
216,72,114934,1,2
192,152,115362,5,2
136,208,115791,1,2
168,232,116005,1,0
200,256,116220,1,2
256,200,116648,5,2
224,168,116862,1,0
256,136,117077,1,2
336,136,117505,5,2
360,168,117720,1,0
328,192,117934,1,2
304,160,118148,1,0
264,160,118362,1,2
184,160,118791,6,0,L|96:160,1,50
96,160,119220,6,2,L|40:160,2,50
176,160,120077,6,0,L|232:160,2,50
176,240,120934,6,2,L|120:240,2,50
216,240,121577,1,0
256,240,121791,1,2
256,320,122220,5,2
336,320,122648,1,2
368,344,122862,1,0
400,320,123077,1,2
480,320,123505,5,2
456,288,123720,1,0
480,256,123934,1,2
480,176,124362,6,0,L|424:176,2,50
430,176,125005,2,0,L|376:176,2,50
380,176,125648,1,0
296,176,126077,5,8
264,200,126291,1,8
232,176,126505,1,8
264,152,126720,1,8
264,112,126934,6,2,L|264:48,6,50
264,192,128648,5,2
264,192,128862,1,8
264,192,129077,1,2
264,272,129505,5,2
264,272,129720,1,8
264,272,129934,1,2
264,272,130148,2,2,L|264:328,1,50
256,192,130577,12,0,133791
256,192,134220,5,2
112,192,134648,1,2
168,232,134862,1,8
240,232,135077,1,2
376,192,135505,5,2
328,144,135720,1,8
256,144,135934,1,2
128,192,136362,5,2
176,248,136577,1,8
248,264,136791,1,2
320,248,137005,1,8
368,192,137220,1,2
376,80,137648,6,8,L|488:80,1,100
488,136,138291,1,0
432,136,138505,1,8
488,232,138934,5,8
432,232,139148,1,0
400,288,139362,2,10,L|512:288,1,100,0|0
496,344,140005,5,0
440,344,140219,1,8
384,344,140433,1,0
328,344,140647,1,8
312,248,141077,5,0
424,248,141505,5,8
424,192,141720,1,0
424,136,141934,1,8
312,136,142362,5,8
312,80,142577,1,0
312,24,142791,1,8
200,32,143220,6,2,L|200:96,3,50
200,136,144077,1,8
200,248,144505,5,2
152,344,144934,1,8
200,360,145148,1,0
248,344,145362,1,8
248,232,145791,5,8
200,200,146005,1,0
152,232,146220,1,8
152,120,146648,5,8
200,96,146862,1,0
248,120,147077,2,8,L|296:160,2,50
360,120,147934,5,2
360,232,148362,1,8
360,176,148577,1,0
416,176,148791,1,8
304,176,149220,5,8
360,176,149434,1,0
360,120,149648,1,8
472,120,150077,5,8
472,176,150291,1,0
416,176,150505,1,2
360,176,150720,1,0
304,176,150934,1,8
192,184,151362,6,8,L|192:296,1,100
248,288,152005,2,10,L|248:232,1,50
248,128,152648,2,8,L|248:232,1,100
256,192,153505,12,4,154362
