osu file format v14

[General]
AudioFilename: 005 - illumina.mp3
AudioLeadIn: 0
PreviewTime: 44133
Countdown: 0
SampleSet: Normal
StackLeniency: 0.7
Mode: 1
LetterboxInBreaks: 0
WidescreenStoryboard: 0

[Editor]
DistanceSpacing: 1.2
BeatDivisor: 4
GridSize: 32
TimelineZoom: 3.5

[Metadata]
Title:Illumina
TitleUnicode:Illumina
Artist:DJ TOTTO feat. *spiLa*
ArtistUnicode:DJ TOTTO feat. *spiLa*
Creator:KinomiCandy
Version:Oni
Source:pop'n music ラピストリア
Tags:lapistoria rhythmin julie chromoxx
BeatmapID:1098812
BeatmapSetID:457263

[Difficulty]
HPDrainRate:5
CircleSize:5
OverallDifficulty:6
ApproachRate:5
SliderMultiplier:1.4
SliderTickRate:1

[Events]
//Background and Video events
0,0,"bg.jpg",0,50
//Break Periods
//Storyboard Layer 0 (Background)
//Storyboard Layer 1 (Fail)
//Storyboard Layer 2 (Pass)
//Storyboard Layer 3 (Foreground)
//Storyboard Sound Samples

[TimingPoints]
3706,320.855614973262,4,1,0,75,1,0
44775,-100,4,1,0,75,0,1
64026,-100,4,1,0,75,0,0
65310,-100,4,1,0,75,0,1
85845,-100,4,1,0,75,0,0
96112,-100,4,1,0,75,0,1
105096,-100,4,1,0,75,0,0

[HitObjects]
256,192,978,5,8,0:0:0:0:
256,192,1058,1,8,0:0:0:0:
256,192,1139,1,0,0:0:0:0:
256,192,1299,1,8,0:0:0:0:
256,192,1460,1,0,0:0:0:0:
256,192,1620,1,8,0:0:0:0:
256,192,2101,1,0,0:0:0:0:
256,192,2262,1,0,0:0:0:0:
256,192,2422,1,8,0:0:0:0:
256,192,2583,1,8,0:0:0:0:
256,192,2903,1,0,0:0:0:0:
256,192,3064,1,8,0:0:0:0:
256,192,3224,1,0,0:0:0:0:
256,192,3385,1,8,0:0:0:0:
256,192,3465,1,8,0:0:0:0:
256,192,3545,1,8,0:0:0:0:
256,192,3625,1,8,0:0:0:0:
256,192,3705,1,0,0:0:0:0:
256,192,3866,1,0,0:0:0:0:
256,192,4187,1,0,0:0:0:0:
256,192,4347,1,8,0:0:0:0:
256,192,4828,1,8,0:0:0:0:
256,192,4909,1,8,0:0:0:0:
256,192,4989,1,0,0:0:0:0:
256,192,5149,1,8,0:0:0:0:
256,192,5310,1,0,0:0:0:0:
256,192,5470,1,0,0:0:0:0:
256,192,5631,1,8,0:0:0:0:
256,192,5791,1,0,0:0:0:0:
256,192,6112,1,0,0:0:0:0:
256,192,6272,1,8,0:0:0:0:
256,192,6433,1,0,0:0:0:0:
256,192,6593,1,0,0:0:0:0:
256,192,6754,1,0,0:0:0:0:
256,192,6914,1,8,0:0:0:0:
256,192,7395,1,8,0:0:0:0:
256,192,7475,1,8,0:0:0:0:
256,192,7556,1,8,0:0:0:0:
256,192,7716,1,0,0:0:0:0:
256,192,7877,1,8,0:0:0:0:
256,192,8037,1,0,0:0:0:0:
256,192,8197,1,8,0:0:0:0:
256,192,8358,1,0,0:0:0:0:
256,192,8518,1,8,0:0:0:0:
256,192,8599,1,8,0:0:0:0:
256,192,8679,1,8,0:0:0:0:
256,192,8759,1,8,0:0:0:0:
256,192,8839,1,0,0:0:0:0:
256,192,9000,1,0,0:0:0:0:
256,192,9320,1,0,0:0:0:0:
256,192,9480,1,8,0:0:0:0:
256,192,9962,1,8,0:0:0:0:
256,192,10043,1,8,0:0:0:0:
256,192,10123,1,0,0:0:0:0:
256,192,10283,1,8,0:0:0:0:
256,192,10443,1,0,0:0:0:0:
256,192,10604,1,0,0:0:0:0:
256,192,10764,1,8,0:0:0:0:
256,192,10925,1,0,0:0:0:0:
256,192,11085,1,8,0:0:0:0:
256,192,11246,1,8,0:0:0:0:
256,192,11326,1,8,0:0:0:0:
256,192,11406,1,0,0:0:0:0:
256,192,11566,1,0,0:0:0:0:
256,192,11887,1,0,0:0:0:0:
256,192,12048,1,8,0:0:0:0:
256,192,12529,1,8,0:0:0:0:
256,192,12609,1,8,0:0:0:0:
256,192,12689,1,0,0:0:0:0:
256,192,12850,1,8,0:0:0:0:
256,192,13010,1,0,0:0:0:0:
256,192,13171,1,8,0:0:0:0:
256,192,13331,1,8,0:0:0:0:
256,192,13492,1,0,0:0:0:0:
256,192,13572,1,8,0:0:0:0:
256,192,13732,1,0,0:0:0:0:
256,192,13812,1,8,0:0:0:0:
256,192,13973,1,0,0:0:0:0:
256,192,14133,1,0,0:0:0:0:
256,192,14454,1,0,0:0:0:0:
256,192,14614,1,8,0:0:0:0:
256,192,15095,1,8,0:0:0:0:
256,192,15176,1,8,0:0:0:0:
256,192,15256,1,0,0:0:0:0:
256,192,15416,1,8,0:0:0:0:
256,192,15577,1,0,0:0:0:0:
256,192,15737,1,0,0:0:0:0:
256,192,15898,1,8,0:0:0:0:
256,192,16058,1,0,0:0:0:0:
256,192,16379,1,0,0:0:0:0:
256,192,16539,1,8,0:0:0:0:
256,192,16700,1,0,0:0:0:0:
256,192,16860,1,0,0:0:0:0:
256,192,17021,1,0,0:0:0:0:
256,192,17181,1,8,0:0:0:0:
256,192,17663,1,8,0:0:0:0:
256,192,17743,1,8,0:0:0:0:
256,192,17823,1,8,0:0:0:0:
256,192,17983,1,0,0:0:0:0:
256,192,18144,1,8,0:0:0:0:
256,192,18304,1,0,0:0:0:0:
256,192,18464,1,8,0:0:0:0:
256,192,18545,1,8,0:0:0:0:
256,192,18625,1,0,0:0:0:0:
256,192,18785,1,8,0:0:0:0:
256,192,18866,1,8,0:0:0:0:
256,192,18946,1,8,0:0:0:0:
256,192,19026,1,8,0:0:0:0:
256,192,19106,1,0,0:0:0:0:
256,192,19267,1,0,0:0:0:0:
256,192,19587,1,0,0:0:0:0:
256,192,19747,1,8,0:0:0:0:
256,192,20229,1,8,0:0:0:0:
256,192,20310,1,8,0:0:0:0:
256,192,20390,1,0,0:0:0:0:
256,192,20550,1,8,0:0:0:0:
256,192,20710,1,0,0:0:0:0:
256,192,20871,1,0,0:0:0:0:
256,192,21031,1,8,0:0:0:0:
256,192,21192,1,0,0:0:0:0:
256,192,21352,1,8,0:0:0:0:
256,192,21513,1,8,0:0:0:0:
256,192,21593,1,8,0:0:0:0:
256,192,21673,1,0,0:0:0:0:
256,192,21833,1,0,0:0:0:0:
256,192,22154,1,0,0:0:0:0:
256,192,22315,1,8,0:0:0:0:
256,192,22476,1,0,0:0:0:0:
256,192,22556,1,0,0:0:0:0:
256,192,22636,1,8,0:0:0:0:
256,192,22716,1,8,0:0:0:0:
256,192,22796,1,0,0:0:0:0:
256,192,22957,1,4,0:0:0:0:
256,192,23117,12,0,24080,0:0:0:0:
256,192,24240,5,4,0:0:0:0:
256,192,24561,1,0,0:0:0:0:
256,192,24882,1,0,0:0:0:0:
256,192,25203,1,0,0:0:0:0:
256,192,25363,1,8,0:0:0:0:
256,192,25524,1,0,0:0:0:0:
256,192,25845,1,0,0:0:0:0:
256,192,26165,1,0,0:0:0:0:
256,192,26486,1,0,0:0:0:0:
256,192,26647,1,0,0:0:0:0:
256,192,26807,1,0,0:0:0:0:
256,192,27128,1,0,0:0:0:0:
256,192,27449,1,0,0:0:0:0:
256,192,27770,1,0,0:0:0:0:
256,192,27930,1,8,0:0:0:0:
256,192,28091,1,0,0:0:0:0:
256,192,28411,1,0,0:0:0:0:
256,192,28732,1,0,0:0:0:0:
256,192,28893,1,8,0:0:0:0:
256,192,29053,1,0,0:0:0:0:
256,192,29214,1,8,0:0:0:0:
256,192,29374,1,0,0:0:0:0:
256,192,29695,1,0,0:0:0:0:
256,192,30016,1,0,0:0:0:0:
256,192,30337,1,0,0:0:0:0:
256,192,30497,1,8,0:0:0:0:
256,192,30657,1,0,0:0:0:0:
256,192,30978,1,0,0:0:0:0:
256,192,31299,1,0,0:0:0:0:
256,192,31620,1,0,0:0:0:0:
256,192,31780,1,0,0:0:0:0:
256,192,31941,1,0,0:0:0:0:
256,192,32262,1,0,0:0:0:0:
256,192,32583,1,0,0:0:0:0:
256,192,32743,1,8,0:0:0:0:
256,192,32903,1,0,0:0:0:0:
256,192,33064,1,8,0:0:0:0:
256,192,33224,1,0,0:0:0:0:
256,192,33545,1,0,0:0:0:0:
256,192,33706,1,8,0:0:0:0:
256,192,33866,1,0,0:0:0:0:
256,192,34026,1,8,0:0:0:0:
256,192,34107,1,8,0:0:0:0:
256,192,34187,1,0,0:0:0:0:
256,192,34347,1,8,0:0:0:0:
256,192,34508,1,4,0:0:0:0:
256,192,34828,1,0,0:0:0:0:
256,192,35149,1,0,0:0:0:0:
256,192,35470,1,0,0:0:0:0:
256,192,35631,1,8,0:0:0:0:
256,192,35791,1,0,0:0:0:0:
256,192,36112,1,0,0:0:0:0:
256,192,36433,1,0,0:0:0:0:
256,192,36754,1,0,0:0:0:0:
256,192,36914,1,8,0:0:0:0:
256,192,36994,1,8,0:0:0:0:
256,192,37074,1,0,0:0:0:0:
256,192,37235,1,8,0:0:0:0:
256,192,37395,1,0,0:0:0:0:
256,192,37716,1,0,0:0:0:0:
256,192,38037,1,0,0:0:0:0:
256,192,38197,1,8,0:0:0:0:
256,192,38358,1,0,0:0:0:0:
256,192,38679,1,0,0:0:0:0:
256,192,39000,1,0,0:0:0:0:
256,192,39160,1,8,0:0:0:0:
256,192,39320,1,0,0:0:0:0:
256,192,39481,1,8,0:0:0:0:
256,192,39641,1,4,0:0:0:0:
256,192,39962,1,0,0:0:0:0:
256,192,40283,1,0,0:0:0:0:
256,192,40604,1,0,0:0:0:0:
256,192,40764,1,8,0:0:0:0:
256,192,40925,1,0,0:0:0:0:
256,192,41246,1,0,0:0:0:0:
256,192,41566,1,0,0:0:0:0:
256,192,41887,1,0,0:0:0:0:
256,192,42048,1,8,0:0:0:0:
256,192,42208,1,0,0:0:0:0:
256,192,42369,1,8,0:0:0:0:
256,192,42449,1,8,0:0:0:0:
256,192,42529,1,0,0:0:0:0:
256,192,42689,1,8,0:0:0:0:
256,192,42850,1,0,0:0:0:0:
256,192,43010,1,0,0:0:0:0:
256,192,43171,1,8,0:0:0:0:
256,192,43251,1,8,0:0:0:0:
256,192,43331,1,8,0:0:0:0:
256,192,43411,1,8,0:0:0:0:
256,192,43492,1,0,0:0:0:0:
256,192,44133,1,0,0:0:0:0:
256,192,44454,1,8,0:0:0:0:
256,192,44775,1,4,0:0:0:0:
256,192,45096,1,8,0:0:0:0:
256,192,45256,1,0,0:0:0:0:
256,192,45337,1,0,0:0:0:0:
256,192,45417,1,0,0:0:0:0:
256,192,45577,1,0,0:0:0:0:
256,192,45738,1,8,0:0:0:0:
256,192,45898,1,0,0:0:0:0:
256,192,46219,1,0,0:0:0:0:
256,192,46379,1,8,0:0:0:0:
256,192,46540,1,0,0:0:0:0:
256,192,46620,1,8,0:0:0:0:
256,192,46700,1,0,0:0:0:0:
256,192,46861,1,0,0:0:0:0:
256,192,47021,1,8,0:0:0:0:
256,192,47342,1,0,0:0:0:0:
256,192,47502,1,0,0:0:0:0:
256,192,47663,1,8,0:0:0:0:
256,192,47743,1,8,0:0:0:0:
256,192,47823,1,8,0:0:0:0:
256,192,47903,1,8,0:0:0:0:
256,192,47984,1,0,0:0:0:0:
256,192,48144,1,0,0:0:0:0:
256,192,48304,1,8,0:0:0:0:
256,192,48465,1,0,0:0:0:0:
256,192,48625,1,0,0:0:0:0:
256,192,48786,1,8,0:0:0:0:
256,192,48946,1,8,0:0:0:0:
256,192,49107,1,0,0:0:0:0:
256,192,49267,1,0,0:0:0:0:
256,192,49427,1,8,0:0:0:0:
256,192,49508,1,8,0:0:0:0:
256,192,49588,1,0,0:0:0:0:
256,192,49748,1,8,0:0:0:0:
256,192,49909,1,4,0:0:0:0:
256,192,50230,1,8,0:0:0:0:
256,192,50390,1,0,0:0:0:0:
256,192,50470,1,0,0:0:0:0:
256,192,50550,1,0,0:0:0:0:
256,192,50711,1,0,0:0:0:0:
256,192,50871,1,8,0:0:0:0:
256,192,51032,1,0,0:0:0:0:
256,192,51353,1,0,0:0:0:0:
256,192,51513,1,8,0:0:0:0:
256,192,51673,1,0,0:0:0:0:
256,192,51754,1,8,0:0:0:0:
256,192,51834,1,0,0:0:0:0:
256,192,51994,1,0,0:0:0:0:
256,192,52155,1,8,0:0:0:0:
256,192,52315,1,8,0:0:0:0:
256,192,52395,1,8,0:0:0:0:
256,192,52476,1,0,0:0:0:0:
256,192,52796,1,8,0:0:0:0:
256,192,52957,1,0,0:0:0:0:
256,192,53037,1,0,0:0:0:0:
256,192,53117,1,0,0:0:0:0:
256,192,53278,1,0,0:0:0:0:
256,192,53438,1,8,0:0:0:0:
256,192,53599,1,4,0:0:0:0:
256,192,53919,1,0,0:0:0:0:
256,192,54080,1,8,0:0:0:0:
256,192,54240,1,0,0:0:0:0:
256,192,54401,1,8,0:0:0:0:
256,192,54481,1,8,0:0:0:0:
256,192,54561,1,8,0:0:0:0:
256,192,54641,1,8,0:0:0:0:
256,192,54722,1,0,0:0:0:0:
256,192,54802,1,0,0:0:0:0:
256,192,54882,1,8,0:0:0:0:
256,192,54962,1,8,0:0:0:0:
256,192,55042,1,0,0:0:0:0:
256,192,55363,1,8,0:0:0:0:
256,192,55524,1,0,0:0:0:0:
256,192,55604,1,0,0:0:0:0:
256,192,55684,1,0,0:0:0:0:
256,192,55845,1,0,0:0:0:0:
256,192,56005,1,8,0:0:0:0:
256,192,56165,1,0,0:0:0:0:
256,192,56486,1,0,0:0:0:0:
256,192,56647,1,8,0:0:0:0:
256,192,56727,1,8,0:0:0:0:
256,192,56807,1,0,0:0:0:0:
256,192,56887,1,0,0:0:0:0:
256,192,56968,1,0,0:0:0:0:
256,192,57128,1,0,0:0:0:0:
256,192,57288,1,8,0:0:0:0:
256,192,57449,1,8,0:0:0:0:
256,192,57529,1,8,0:0:0:0:
256,192,57609,1,0,0:0:0:0:
256,192,57930,1,8,0:0:0:0:
256,192,58091,1,0,0:0:0:0:
256,192,58171,1,0,0:0:0:0:
256,192,58251,1,0,0:0:0:0:
256,192,58411,1,0,0:0:0:0:
256,192,58572,1,8,0:0:0:0:
256,192,58732,1,0,0:0:0:0:
256,192,58812,1,8,0:0:0:0:
256,192,58893,1,0,0:0:0:0:
256,192,59053,1,0,0:0:0:0:
256,192,59214,1,8,0:0:0:0:
256,192,59374,1,8,0:0:0:0:
256,192,59454,1,8,0:0:0:0:
256,192,59534,1,0,0:0:0:0:
256,192,59695,1,0,0:0:0:0:
256,192,59855,1,8,0:0:0:0:
256,192,60016,1,0,0:0:0:0:
256,192,60176,1,4,0:0:0:0:
256,192,60497,1,8,0:0:0:0:
256,192,60657,1,0,0:0:0:0:
256,192,60738,1,0,0:0:0:0:
256,192,60818,1,0,0:0:0:0:
256,192,60978,1,0,0:0:0:0:
256,192,61139,1,8,0:0:0:0:
256,192,61299,1,4,0:0:0:0:
256,192,61620,1,0,0:0:0:0:
256,192,61780,1,8,0:0:0:0:
256,192,61941,1,0,0:0:0:0:
256,192,62021,1,8,0:0:0:0:
256,192,62101,1,0,0:0:0:0:
256,192,62262,1,0,0:0:0:0:
256,192,62422,1,8,0:0:0:0:
256,192,62583,1,0,0:0:0:0:
256,192,62743,1,4,0:0:0:0:
256,192,62903,1,8,0:0:0:0:
256,192,62984,1,8,0:0:0:0:
256,192,63064,1,0,0:0:0:0:
256,192,63224,1,8,0:0:0:0:
256,192,63385,1,0,0:0:0:0:
256,192,63465,1,0,0:0:0:0:
256,192,63545,1,8,0:0:0:0:
256,192,63625,1,8,0:0:0:0:
256,192,63705,1,0,0:0:0:0:
256,192,63866,1,8,0:0:0:0:
256,192,64026,1,4,0:0:0:0:
256,192,64347,1,8,0:0:0:0:
256,192,64668,1,0,0:0:0:0:
256,192,64828,1,0,0:0:0:0:
256,192,64989,1,8,0:0:0:0:
256,192,65310,1,4,0:0:0:0:
256,192,65631,1,8,0:0:0:0:
256,192,65791,1,0,0:0:0:0:
256,192,65951,1,8,0:0:0:0:
256,192,66032,1,8,0:0:0:0:
256,192,66112,1,0,0:0:0:0:
256,192,66192,1,0,0:0:0:0:
256,192,66272,1,8,0:0:0:0:
256,192,66433,1,8,0:0:0:0:
256,192,66513,1,8,0:0:0:0:
256,192,66593,1,0,0:0:0:0:
256,192,66754,1,0,0:0:0:0:
256,192,66914,1,8,0:0:0:0:
256,192,67155,1,8,0:0:0:0:
256,192,67235,1,0,0:0:0:0:
256,192,67395,1,0,0:0:0:0:
256,192,67556,1,8,0:0:0:0:
256,192,67716,1,8,0:0:0:0:
256,192,67796,1,8,0:0:0:0:
256,192,67877,1,0,0:0:0:0:
256,192,68037,1,0,0:0:0:0:
256,192,68197,1,8,0:0:0:0:
256,192,68278,1,8,0:0:0:0:
256,192,68358,1,0,0:0:0:0:
256,192,68438,1,0,0:0:0:0:
256,192,68518,1,0,0:0:0:0:
256,192,68679,1,0,0:0:0:0:
256,192,68839,1,8,0:0:0:0:
256,192,69000,1,0,0:0:0:0:
256,192,69320,1,0,0:0:0:0:
256,192,69481,1,8,0:0:0:0:
256,192,69641,1,0,0:0:0:0:
256,192,69722,1,0,0:0:0:0:
256,192,69802,1,0,0:0:0:0:
256,192,69962,1,0,0:0:0:0:
256,192,70123,1,8,0:0:0:0:
256,192,70283,1,8,0:0:0:0:
256,192,70443,1,4,0:0:0:0:
256,192,70764,1,8,0:0:0:0:
256,192,70925,1,8,0:0:0:0:
256,192,71005,1,8,0:0:0:0:
256,192,71085,1,0,0:0:0:0:
256,192,71166,1,0,0:0:0:0:
256,192,71246,1,0,0:0:0:0:
256,192,71326,1,0,0:0:0:0:
256,192,71406,1,8,0:0:0:0:
256,192,71566,1,8,0:0:0:0:
256,192,71647,1,8,0:0:0:0:
256,192,71727,1,0,0:0:0:0:
256,192,71887,1,0,0:0:0:0:
256,192,72048,1,8,0:0:0:0:
256,192,72288,1,8,0:0:0:0:
256,192,72369,1,0,0:0:0:0:
256,192,72529,1,0,0:0:0:0:
256,192,72689,1,8,0:0:0:0:
256,192,72850,1,8,0:0:0:0:
256,192,73010,1,0,0:0:0:0:
256,192,73171,1,0,0:0:0:0:
256,192,73331,1,8,0:0:0:0:
256,192,73492,1,0,0:0:0:0:
256,192,73652,1,0,0:0:0:0:
256,192,73812,1,8,0:0:0:0:
256,192,73973,1,8,0:0:0:0:
256,192,74133,1,4,0:0:0:0:
256,192,74454,1,0,0:0:0:0:
256,192,74615,1,8,0:0:0:0:
256,192,74775,1,0,0:0:0:0:
256,192,74855,1,8,0:0:0:0:
256,192,74935,1,0,0:0:0:0:
256,192,75016,1,0,0:0:0:0:
256,192,75096,1,8,0:0:0:0:
256,192,75176,1,8,0:0:0:0:
256,192,75256,1,0,0:0:0:0:
256,192,75417,1,8,0:0:0:0:
256,192,75577,1,0,0:0:0:0:
256,192,75657,1,0,0:0:0:0:
256,192,75738,1,0,0:0:0:0:
256,192,75818,1,0,0:0:0:0:
256,192,75898,1,8,0:0:0:0:
256,192,76139,1,8,0:0:0:0:
256,192,76219,1,0,0:0:0:0:
256,192,76379,1,0,0:0:0:0:
256,192,76540,1,8,0:0:0:0:
256,192,76700,1,0,0:0:0:0:
256,192,76780,1,0,0:0:0:0:
256,192,76861,1,0,0:0:0:0:
256,192,77021,1,0,0:0:0:0:
256,192,77181,1,8,0:0:0:0:
256,192,77342,1,8,0:0:0:0:
256,192,77422,1,8,0:0:0:0:
256,192,77502,1,0,0:0:0:0:
256,192,77663,1,0,0:0:0:0:
256,192,77823,1,8,0:0:0:0:
256,192,77984,1,8,0:0:0:0:
256,192,78144,1,0,0:0:0:0:
256,192,78465,1,8,0:0:0:0:
256,192,78705,1,8,0:0:0:0:
256,192,78786,1,0,0:0:0:0:
256,192,78946,1,0,0:0:0:0:
256,192,79107,1,8,0:0:0:0:
256,192,79267,1,0,0:0:0:0:
256,192,79588,1,0,0:0:0:0:
256,192,79748,1,8,0:0:0:0:
256,192,79909,1,0,0:0:0:0:
256,192,79989,1,8,0:0:0:0:
256,192,80069,1,0,0:0:0:0:
256,192,80230,1,0,0:0:0:0:
256,192,80390,1,8,0:0:0:0:
256,192,80550,1,8,0:0:0:0:
256,192,80631,1,8,0:0:0:0:
256,192,80711,1,0,0:0:0:0:
256,192,80871,1,0,0:0:0:0:
256,192,80951,1,0,0:0:0:0:
256,192,81032,1,8,0:0:0:0:
256,192,81112,1,8,0:0:0:0:
256,192,81192,1,0,0:0:0:0:
256,192,81353,1,0,0:0:0:0:
256,192,81513,1,8,0:0:0:0:
256,192,81673,1,8,0:0:0:0:
256,192,81834,1,4,0:0:0:0:
256,192,82155,1,0,0:0:0:0:
256,192,82315,1,8,0:0:0:0:
256,192,82476,1,0,0:0:0:0:
256,192,82556,1,8,0:0:0:0:
256,192,82636,1,0,0:0:0:0:
256,192,82796,1,0,0:0:0:0:
256,192,82957,1,8,0:0:0:0:
256,192,83037,1,8,0:0:0:0:
256,192,83117,1,8,0:0:0:0:
256,192,83197,1,8,0:0:0:0:
256,192,83278,1,0,0:0:0:0:
256,192,83599,1,8,0:0:0:0:
256,192,83759,1,0,0:0:0:0:
256,192,83839,1,0,0:0:0:0:
256,192,83919,1,8,0:0:0:0:
256,192,84080,1,0,0:0:0:0:
256,192,84240,1,8,0:0:0:0:
256,192,84320,1,8,0:0:0:0:
256,192,84401,1,8,0:0:0:0:
256,192,84481,1,8,0:0:0:0:
256,192,84561,1,0,0:0:0:0:
256,192,84722,1,0,0:0:0:0:
256,192,84882,1,8,0:0:0:0:
256,192,85042,1,8,0:0:0:0:
256,192,85845,1,4,0:0:0:0:
256,192,86006,1,0,0:0:0:0:
256,192,86327,1,0,0:0:0:0:
256,192,86487,1,8,0:0:0:0:
256,192,86968,1,8,0:0:0:0:
256,192,87049,1,8,0:0:0:0:
256,192,87129,1,0,0:0:0:0:
256,192,87289,1,8,0:0:0:0:
256,192,87450,1,0,0:0:0:0:
256,192,87610,1,0,0:0:0:0:
256,192,87771,1,8,0:0:0:0:
256,192,87931,1,0,0:0:0:0:
256,192,88252,1,0,0:0:0:0:
256,192,88412,1,8,0:0:0:0:
256,192,88573,1,0,0:0:0:0:
256,192,88733,1,0,0:0:0:0:
256,192,88894,1,0,0:0:0:0:
256,192,89054,1,8,0:0:0:0:
256,192,89535,1,8,0:0:0:0:
256,192,89616,1,8,0:0:0:0:
256,192,89696,1,0,0:0:0:0:
256,192,89856,1,8,0:0:0:0:
256,192,90017,1,0,0:0:0:0:
256,192,90177,1,8,0:0:0:0:
256,192,90337,1,8,0:0:0:0:
256,192,90498,1,0,0:0:0:0:
256,192,90819,1,8,0:0:0:0:
256,192,90899,1,8,0:0:0:0:
256,192,90979,1,0,0:0:0:0:
256,192,91140,1,0,0:0:0:0:
256,192,91299,1,0,0:0:0:0:
256,192,91379,1,0,0:0:0:0:
256,192,91460,1,0,0:0:0:0:
256,192,91540,1,0,0:0:0:0:
256,192,91620,1,8,0:0:0:0:
256,192,92102,1,8,0:0:0:0:
256,192,92181,1,8,0:0:0:0:
256,192,92263,1,0,0:0:0:0:
256,192,92423,1,8,0:0:0:0:
256,192,92583,1,0,0:0:0:0:
256,192,92744,1,0,0:0:0:0:
256,192,92904,1,8,0:0:0:0:
256,192,93065,1,0,0:0:0:0:
256,192,93546,1,4,0:0:0:0:
256,192,94508,1,8,0:0:0:0:
256,192,94668,1,4,0:0:0:0:
256,192,94989,1,0,0:0:0:0:
256,192,95149,1,4,0:0:0:0:
256,192,95310,1,8,0:0:0:0:
256,192,95390,1,8,0:0:0:0:
256,192,95470,1,0,0:0:0:0:
256,192,95631,1,8,0:0:0:0:
256,192,95791,1,0,0:0:0:0:
256,192,95871,1,0,0:0:0:0:
256,192,95951,1,8,0:0:0:0:
256,192,96032,1,8,0:0:0:0:
256,192,96112,1,0,0:0:0:0:
256,192,96353,1,8,0:0:0:0:
256,192,96433,1,0,0:0:0:0:
256,192,96593,1,8,0:0:0:0:
256,192,96754,1,0,0:0:0:0:
256,192,96834,1,0,0:0:0:0:
256,192,96914,1,8,0:0:0:0:
256,192,96994,1,8,0:0:0:0:
256,192,97074,1,0,0:0:0:0:
256,192,97235,1,8,0:0:0:0:
256,192,97315,1,8,0:0:0:0:
256,192,97395,1,0,0:0:0:0:
256,192,97556,1,8,0:0:0:0:
256,192,97716,1,0,0:0:0:0:
256,192,97877,1,8,0:0:0:0:
256,192,97957,1,8,0:0:0:0:
256,192,98037,1,0,0:0:0:0:
256,192,98197,1,8,0:0:0:0:
256,192,98358,1,0,0:0:0:0:
256,192,98438,1,0,0:0:0:0:
256,192,98518,1,8,0:0:0:0:
256,192,98599,1,8,0:0:0:0:
256,192,98679,1,0,0:0:0:0:
256,192,98919,1,8,0:0:0:0:
256,192,99000,1,0,0:0:0:0:
256,192,99160,1,8,0:0:0:0:
256,192,99240,1,8,0:0:0:0:
256,192,99320,1,0,0:0:0:0:
256,192,99481,1,8,0:0:0:0:
256,192,99641,1,0,0:0:0:0:
256,192,99722,1,0,0:0:0:0:
256,192,99802,1,0,0:0:0:0:
256,192,99882,1,8,0:0:0:0:
256,192,99962,1,0,0:0:0:0:
256,192,100123,1,8,0:0:0:0:
256,192,100283,1,8,0:0:0:0:
256,192,100443,1,0,0:0:0:0:
256,192,100604,1,0,0:0:0:0:
256,192,100764,1,8,0:0:0:0:
256,192,100845,1,8,0:0:0:0:
256,192,100925,1,0,0:0:0:0:
256,192,101085,1,8,0:0:0:0:
256,192,101246,1,4,0:0:0:0:
256,192,101486,1,8,0:0:0:0:
256,192,101566,1,0,0:0:0:0:
256,192,101727,1,8,0:0:0:0:
256,192,101807,1,8,0:0:0:0:
256,192,101887,1,0,0:0:0:0:
256,192,102048,1,8,0:0:0:0:
256,192,102208,1,0,0:0:0:0:
256,192,102288,1,0,0:0:0:0:
256,192,102369,1,8,0:0:0:0:
256,192,102449,1,8,0:0:0:0:
256,192,102529,1,0,0:0:0:0:
256,192,102689,1,8,0:0:0:0:
256,192,102850,1,0,0:0:0:0:
256,192,102930,1,0,0:0:0:0:
256,192,103010,1,8,0:0:0:0:
256,192,103171,1,0,0:0:0:0:
256,192,103331,1,8,0:0:0:0:
256,192,103411,1,8,0:0:0:0:
256,192,103492,1,0,0:0:0:0:
256,192,103652,1,8,0:0:0:0:
256,192,103812,1,4,0:0:0:0:
256,192,103973,1,8,0:0:0:0:
256,192,104053,1,8,0:0:0:0:
256,192,104133,1,0,0:0:0:0:
256,192,104214,1,0,0:0:0:0:
256,192,104294,1,8,0:0:0:0:
256,192,104374,1,8,0:0:0:0:
256,192,104454,1,0,0:0:0:0:
256,192,104534,1,0,0:0:0:0:
256,192,104615,1,0,0:0:0:0:
256,192,104695,1,0,0:0:0:0:
256,192,104775,1,8,0:0:0:0:
256,192,104855,1,8,0:0:0:0:
256,192,104935,1,8,0:0:0:0:
256,192,105016,1,8,0:0:0:0:
256,192,105096,1,0,0:0:0:0:
256,192,106379,1,12,0:0:0:0:
