osu file format v14

[General]
AudioFilename: df.mp3
AudioLeadIn: 0
PreviewTime: 79670
Countdown: 0
SampleSet: Soft
StackLeniency: 0.4
Mode: 0
LetterboxInBreaks: 0
WidescreenStoryboard: 1

[Editor]
Bookmarks: 21421,47780,69976,81075,103254,114352
DistanceSpacing: 0.5
BeatDivisor: 4
GridSize: 32
TimelineZoom: 8

[Metadata]
Title:vajra
TitleUnicode:伐折羅-vajra-
Artist:DJ TOTTO VS TOTTO
ArtistUnicode:DJ TOTTO VS 兎々
Creator:Kloyd
Version:Expert
Source:REFLEC BEAT groovin'!! Upper
Tags:Urushi38 Underflow BEMANI The 4th KONAMI Arcade Championship KAC2014 リフレクダービー derby The 4th KONAMI Arcade Championship KAC2014 リフレクダービー
BeatmapID:648443
BeatmapSetID:287377

[Difficulty]
HPDrainRate:7
CircleSize:5
OverallDifficulty:8
ApproachRate:9
SliderMultiplier:1.74
SliderTickRate:1

[Events]
//Background and Video events
0,0,"bg.jpg",0,0
//Break Periods
//Storyboard Layer 0 (Background)
//Storyboard Layer 1 (Fail)
//Storyboard Layer 2 (Pass)
//Storyboard Layer 3 (Foreground)
//Storyboard Sound Samples

[TimingPoints]
1983,346.820809248555,4,2,0,60,1,0
6491,-200,4,2,0,60,0,0
8919,-100,4,2,0,60,0,0
9613,-200,4,2,0,60,0,0
11693,-100,4,2,0,60,0,0
12387,-200,4,2,0,60,0,0
21231,-100,4,2,0,60,0,0
35277,-83.3333333333333,4,2,0,60,0,0
36665,-100,4,2,0,60,0,0
47069,-200,4,2,0,60,0,0
47763,-133.333333333333,4,2,0,60,0,0
69959,-200,4,2,0,60,0,0
75509,-125,4,2,0,60,0,0
79670,-400,4,2,0,30,0,0
80364,-200,4,2,0,45,0,0
81058,-100,4,2,0,60,0,1
101867,-200,4,2,0,60,0,0
102561,-100,4,2,0,60,0,1
103254,-100,4,2,2,60,0,0

[Colours]
Combo1 : 208,115,210
Combo2 : 255,142,142
Combo3 : 213,213,213
Combo4 : 255,255,172

[HitObjects]
144,68,1983,5,4,3:2:0:0:
144,68,2329,1,4,0:3:0:0:
62,104,3370,5,4,0:3:0:0:
63,112,3456,1,0,0:0:0:0:
64,120,3543,1,0,0:0:0:0:
74,196,3717,1,0,0:3:0:0:
0,311,4757,5,4,0:3:0:0:
0,311,5104,1,4,0:3:0:0:
108,270,5624,1,0,0:0:0:0:
106,278,5711,1,0,0:0:0:0:
104,286,5798,1,0,0:0:0:0:
177,355,5971,1,0,0:0:0:0:
267,261,6144,5,4,0:3:0:0:
269,269,6231,1,0,0:0:0:0:
271,277,6318,1,0,0:0:0:0:
345,330,6491,6,0,P|380:328|411:304,1,65.25,4|0,0:3|0:0,0:0:0:0:
482,351,6838,5,0,0:0:0:0:
471,264,7011,1,0,0:0:0:0:
471,264,7098,1,0,0:0:0:0:
385,227,7272,1,0,0:0:0:0:
385,227,7358,1,0,0:0:0:0:
508,167,7532,5,4,0:3:0:0:
508,167,7878,1,4,0:3:0:0:
493,25,8919,5,4,0:3:0:0:
490,33,9006,1,0,0:0:0:0:
487,41,9092,1,0,0:0:0:0:
388,100,9266,1,4,0:3:0:0:
463,105,9439,1,0,0:0:0:0:
352,167,9613,2,0,P|354:136|378:105,1,65.25
377,30,9959,1,0,0:0:0:0:
377,30,10046,1,0,0:0:0:0:
257,140,10306,5,4,0:3:0:0:
257,140,10653,1,4,0:3:0:0:
281,69,11693,5,2,0:0:0:0:
195,179,11867,1,0,0:0:0:0:
177,177,11954,1,0,0:0:0:0:
159,176,12040,1,4,0:3:0:0:
141,175,12127,1,0,0:0:0:0:
123,174,12214,1,0,0:0:0:0:
201,114,12387,2,0,L|208:84,2,21.75,8|0|0,0:0|0:0|0:0,0:0:0:0:
116,241,12734,1,8,0:0:0:0:
49,163,12907,2,0,L|56:133,1,21.75,8|0,0:0|0:0,0:0:0:0:
76,32,13081,5,4,0:3:0:0:
76,32,13428,1,4,0:3:0:0:
284,20,13774,1,0,0:0:0:0:
283,24,13861,1,0,0:0:0:0:
282,28,13948,1,0,0:0:0:0:
281,32,14035,1,0,0:0:0:0:
280,36,14121,1,2,0:0:0:0:
279,40,14208,1,0,0:0:0:0:
278,44,14295,1,2,0:0:0:0:
277,48,14381,1,0,0:0:0:0:
277,52,14468,5,4,0:3:0:0:
436,32,14815,1,4,0:3:0:0:
227,94,15162,1,0,0:0:0:0:
228,98,15249,1,0,0:0:0:0:
229,102,15336,1,0,0:0:0:0:
230,106,15423,1,0,0:0:0:0:
231,110,15509,1,2,0:0:0:0:
232,114,15596,1,0,0:0:0:0:
233,118,15683,1,2,0:0:0:0:
234,122,15769,1,0,0:0:0:0:
234,126,15856,5,4,0:3:0:0:
75,215,16203,1,4,0:3:0:0:
283,227,16550,1,0,0:0:0:0:
282,223,16636,1,0,0:0:0:0:
281,219,16723,1,0,0:0:0:0:
280,215,16810,1,0,0:0:0:0:
279,211,16897,1,2,0:0:0:0:
278,207,16983,1,0,0:0:0:0:
277,203,17070,1,2,0:0:0:0:
276,199,17157,1,0,0:0:0:0:
276,195,17243,5,4,0:3:0:0:
435,215,17590,1,4,0:3:0:0:
224,299,17937,1,0,0:0:0:0:
225,295,18024,1,0,0:0:0:0:
226,291,18110,1,0,0:0:0:0:
227,287,18197,1,0,0:0:0:0:
228,283,18284,1,2,0:0:0:0:
229,279,18370,1,0,0:0:0:0:
230,275,18457,1,2,0:0:0:0:
231,271,18544,1,0,0:0:0:0:
232,266,18630,5,0,0:3:0:0:
256,372,18977,1,4,0:3:0:0:
154,333,19324,1,0,0:0:0:0:
142,338,19410,1,0,0:0:0:0:
129,342,19497,1,2,0:0:0:0:
117,344,19584,1,0,0:0:0:0:
104,345,19670,1,2,0:0:0:0:
91,343,19757,1,0,0:0:0:0:
78,339,19844,1,2,0:0:0:0:
66,334,19930,1,0,0:0:0:0:
55,326,20017,5,4,0:3:0:0:
30,192,20364,1,4,0:3:0:0:
148,113,20711,1,0,0:0:0:0:
137,120,20798,1,0,0:0:0:0:
129,130,20884,1,2,0:0:0:0:
122,142,20971,1,0,0:0:0:0:
117,154,21058,1,2,0:0:0:0:
113,167,21144,1,0,0:0:0:0:
113,179,21231,2,0,L|170:201,1,43.5,6|4,0:3|0:3,0:0:0:0:
240,160,21404,5,4,3:2:0:0:
30,192,21578,1,4,0:3:0:0:
15,182,21925,5,4,3:2:0:0:
209,267,22099,1,4,3:2:0:0:
221,279,22445,5,0,3:2:0:0:
95,108,22619,1,4,3:2:0:0:
72,231,22792,6,0,L|104:236,1,21.75,4|0,0:0|0:0,0:0:0:0:
43,354,22965,1,4,0:3:0:0:
160,336,23139,1,4,0:3:0:0:
258,155,23312,2,0,L|237:146,2,21.75,4|4|4,3:0|3:0|3:0,0:0:0:0:
276,166,23485,6,0,L|222:182,1,43.5,14|0,3:2|0:0,0:0:0:0:
305,240,23659,2,0,L|267:281,1,43.5,14|0,3:2|0:0,0:0:0:0:
384,275,23832,2,0,L|371:329,1,43.5,14|0,3:2|0:0,0:0:0:0:
464,269,24006,2,0,L|480:322,1,43.5,14|0,3:2|0:0,0:0:0:0:
512,203,24179,5,4,0:3:0:0:
427,15,24526,1,2,0:3:0:0:
404,160,24699,1,0,0:0:0:0:
406,168,24786,1,0,0:0:0:0:
408,176,24873,5,2,0:0:0:0:
375,164,24959,1,0,0:0:0:0:
340,159,25046,1,0,0:0:0:0:
308,173,25133,1,0,0:0:0:0:
289,202,25219,5,2,0:0:0:0:
283,149,25306,1,0,0:0:0:0:
258,102,25393,1,2,0:0:0:0:
210,79,25480,1,0,0:0:0:0:
159,67,25566,6,0,L|255:52,1,87,4|0,0:3|0:0,0:0:0:0:
104,31,25826,1,0,0:0:0:0:
104,31,25913,2,0,P|118:73|115:116,1,87,4|0,0:3|0:0,0:0:0:0:
30,280,26260,2,0,P|16:238|19:195,1,87,4|0,0:3|0:0,0:0:0:0:
10,180,26520,2,0,L|107:190,1,87
192,176,26780,2,0,L|182:228,1,43.5
242,318,26954,6,0,L|250:360,2,43.5,4|0|0,0:3|0:0|0:0,0:0:0:0:
291,261,27214,1,0,0:0:0:0:
291,261,27300,2,0,B|335:254|335:254|373:270,1,87,4|0,0:3|0:0,0:0:0:0:
411,332,27561,1,0,0:0:0:0:
411,332,27647,6,0,L|399:374,2,43.5,4|0|0,0:3|0:0|0:0,0:0:0:0:
473,298,27907,2,0,B|487:253|487:253|465:161,1,130.5
476,156,28254,1,0,0:0:0:0:
484,140,28341,6,0,L|398:148,1,87,4|0,0:3|0:0,0:0:0:0:
302,298,28601,1,0,0:0:0:0:
302,298,28688,2,0,P|288:256|291:213,1,87,4|0,0:3|0:0,0:0:0:0:
376,49,29035,2,0,P|389:90|386:133,1,87,4|0,0:3|0:0,0:0:0:0:
398,148,29295,2,0,L|310:142,1,87
218,154,29555,2,0,L|228:102,1,43.5,0|0,3:3|0:0,0:0:0:0:
247,25,29728,5,2,0:3:0:0:
247,25,29815,1,0,0:0:0:0:
247,25,29902,1,0,0:0:0:0:
218,154,30075,1,2,0:3:0:0:
184,163,30162,1,0,0:0:0:0:
149,166,30248,1,2,0:0:0:0:
116,152,30335,1,0,0:0:0:0:
95,123,30422,2,0,L|81:177,2,43.5,4|0|8,0:2|0:0|0:3,0:0:0:0:
283,81,30769,2,0,P|290:105|290:135,1,43.5,4|0,0:3|0:0,0:0:0:0:
282,199,30942,2,0,P|276:223|261:249,1,43.5,4|0,0:3|0:0,0:0:0:0:
218,300,31115,5,4,0:3:0:0:
212,306,31202,1,0,0:0:0:0:
205,312,31289,1,0,0:0:0:0:
198,317,31376,1,0,0:0:0:0:
190,320,31462,2,0,L|289:314,1,87,0|0,0:3|0:0,0:0:0:0:
495,349,31809,2,0,L|396:343,1,87,0|0,0:3|0:0,0:0:0:0:
392,349,32069,2,0,B|379:306|379:306|391:265,1,87
362,192,32329,2,0,L|380:147,1,43.5
439,36,32503,5,4,0:3:0:0:
442,44,32589,1,0,0:0:0:0:
445,52,32676,1,0,0:0:0:0:
448,60,32763,1,0,0:0:0:0:
451,68,32850,2,0,L|357:54,1,87,4|0,0:3|0:0,0:0:0:0:
153,24,33196,2,0,B|196:22|196:22|237:39,1,87,4|0,0:3|0:0,0:0:0:0:
248,51,33456,1,0,0:0:0:0:
256,66,33543,2,0,L|250:111,1,43.5,4|0,0:3|0:0,0:0:0:0:
132,167,33717,2,0,L|137:123,1,43.5,4|0,0:3|0:0,0:0:0:0:
238,194,33890,5,4,0:3:0:0:
236,202,33976,1,0,0:0:0:0:
235,211,34063,1,0,0:0:0:0:
234,219,34150,1,0,0:0:0:0:
233,228,34236,1,4,0:3:0:0:
172,289,34410,1,0,0:0:0:0:
343,314,34584,1,4,0:3:0:0:
343,314,34670,2,0,L|326:221,1,87
344,197,34930,1,4,0:3:0:0:
378,192,35017,1,0,0:0:0:0:
411,201,35104,1,0,0:0:0:0:
433,227,35191,1,0,0:0:0:0:
444,259,35277,6,0,P|453:230|471:205,1,52.1999984069825,4|0,3:2|0:0,0:0:0:0:
344,197,35451,2,0,P|329:170|324:139,1,52.1999984069825,4|0,0:0|0:0,0:0:0:0:
230,224,35624,2,0,B|195:221|178:201|178:201|195:218|198:254,1,104.399996813965,4|0,3:2|0:0,0:0:0:0:
201,263,35884,6,0,P|171:256|140:259,1,52.1999984069825,4|0,3:2|0:0,0:0:0:0:
52,321,36058,2,0,P|69:271|33:236,1,104.399996813965,4|0,3:2|0:0,0:0:0:0:
4,208,36318,6,0,B|-1:232|-1:232|23:220,1,52.1999984069825,4|0,3:2|0:0,0:0:0:0:
80,163,36491,2,0,P|80:138|69:114,1,52.1999984069825,4|0,3:2|0:0,0:0:0:0:
29,64,36665,6,0,L|125:72,1,87,4|0,1:3|0:0,0:0:0:0:
195,36,37011,2,0,B|225:32|225:32|251:88,1,87,4|0,0:3|0:0,0:0:0:0:
262,208,37358,2,0,B|232:212|232:212|209:161,1,87,4|0,0:3|0:0,0:0:0:0:
219,146,37618,2,0,L|122:155,1,87
56,132,37878,1,0,0:0:0:0:
48,127,37965,1,0,0:0:0:0:
40,122,38052,6,0,L|51:80,2,43.5,4|0|0,0:3|0:0|0:0,0:0:0:0:
48,208,38399,2,0,B|84:232|84:232|128:232,1,87,4|0,0:3|0:0,0:0:0:0:
144,238,38659,1,0,0:0:0:0:
160,244,38746,2,0,L|147:185,2,43.5,4|0|0,0:3|0:0|0:0,0:0:0:0:
236,266,39006,2,0,B|244:302|244:302|222:363|222:363|207:339,1,130.5
142,314,39352,1,0,0:0:0:0:
142,314,39439,6,0,P|96:318|55:352,1,87,4|0,0:3|0:0,0:0:0:0:
208,339,39786,2,0,P|251:323|282:279,1,87,4|0,0:3|0:0,0:0:0:0:
271,126,40133,2,0,P|286:169|330:200,1,87,4|0,0:3|0:0,0:0:0:0:
310,211,40393,2,0,L|415:196,1,87
413,198,40653,2,0,P|414:224|403:255,1,43.5
379,311,40826,5,4,0:3:0:0:
381,328,40913,1,0,0:0:0:0:
384,345,41000,1,0,0:0:0:0:
310,211,41173,1,4,0:3:0:0:
344,206,41259,1,0,0:0:0:0:
378,201,41346,1,0,0:0:0:0:
413,197,41433,1,0,0:0:0:0:
447,190,41520,6,0,P|448:145|429:108,1,87,4|0,0:3|0:0,0:0:0:0:
346,31,41780,2,0,P|322:69|320:111,1,87,4|0,0:3|0:0,0:0:0:0:
314,188,42040,2,0,P|336:188|355:179,1,43.5,4|0,0:3|0:0,0:0:0:0:
482,82,42214,6,0,L|385:91,1,87,4|0,0:3|0:0,0:0:0:0:
265,39,42561,1,4,0:3:0:0:
281,176,42734,1,0,0:0:0:0:
357,116,42907,1,4,0:3:0:0:
341,112,42993,1,0,0:0:0:0:
325,108,43080,1,0,0:0:0:0:
309,104,43167,2,0,L|211:112,1,87
154,153,43428,2,0,P|154:180|164:207,1,43.5
184,269,43601,6,0,L|281:278,1,87,4|0,0:3|0:0,0:0:0:0:
401,226,43948,1,4,0:3:0:0:
381,364,44121,1,0,0:0:0:0:
270,277,44295,5,4,0:3:0:0:
471,199,44468,1,0,0:0:0:0:
471,199,44555,1,0,0:0:0:0:
471,199,44641,2,0,L|461:259,1,43.5,4|0,0:3|0:0,0:0:0:0:
401,226,44815,2,0,L|391:286,1,43.5,4|0,0:3|0:0,0:0:0:0:
332,249,44988,5,4,3:1:0:0:
307,224,45075,1,0,0:0:0:0:
301,189,45162,1,4,0:3:0:0:
310,155,45248,1,0,0:0:0:0:
333,129,45335,5,4,0:3:0:0:
315,132,45422,1,0,0:0:0:0:
297,135,45509,1,4,0:3:0:0:
280,138,45595,1,0,0:0:0:0:
263,142,45682,6,0,L|234:132,4,21.75,4|0|0|0|4,0:0|0:0|0:0|0:0|0:3,0:0:0:0:
219,112,45942,1,0,0:0:0:0:
201,81,46029,2,0,P|203:57|216:36,1,43.5,4|4,0:3|0:3,0:0:0:0:
113,19,46202,2,0,P|123:40|122:65,1,43.5,4|4,0:3|0:3,0:0:0:0:
72,126,46376,6,0,L|44:117,1,21.75,4|0,3:1|0:0,0:0:0:0:
80,203,46549,2,0,L|52:194,1,21.75,4|0,0:3|0:0,0:0:0:0:
184,95,46722,6,0,L|207:76,1,21.75,4|0,3:1|0:0,0:0:0:0:
217,161,46895,2,0,L|240:142,1,21.75,4|0,0:3|0:0,0:0:0:0:
197,330,47069,6,0,B|147:256|185:256|149:188,1,152.25,4|0,0:0|0:0,0:0:0:0:
138,174,47763,6,0,L|85:202,2,43.5000016593934,8|0|0,0:3|0:0|0:0,0:0:0:0:
126,92,48110,2,0,L|66:89,2,43.5000016593934,4|0|0,0:3|0:0|0:0,0:0:0:0:
232,160,48456,2,0,L|290:173,2,43.5000016593934,2|0|0,0:3|0:0|0:0,0:0:0:0:
223,78,48803,2,0,L|280:60,2,43.5000016593934,8|0|0,0:3|0:0|0:0,0:0:0:0:
342,21,49150,6,0,P|367:69|360:117,1,87.0000033187868,8|0,0:3|0:0,0:0:0:0:
357,138,49497,2,0,P|375:140|409:163,2,43.5000016593934,4|0|0,0:3|0:0|0:0,0:0:0:0:
317,218,49844,2,0,P|328:232|336:272,2,43.5000016593934,2|0|0,0:3|0:0|0:0,0:0:0:0:
246,267,50191,2,0,P|243:285|221:318,2,43.5000016593934,8|0|0,0:3|0:0|0:0,0:0:0:0:
184,343,50537,6,0,B|228:336|228:336|270:354,1,87.0000033187868,8|0,0:3|0:0,0:0:0:0:
304,360,50884,2,0,L|354:355,2,43.5000016593934,4|0|0,0:3|0:0|0:0,0:0:0:0:
445,304,51231,2,0,L|395:299,2,43.5000016593934,2|0|0,0:3|0:0|0:0,0:0:0:0:
299,249,51578,2,0,L|349:244,2,43.5000016593934,8|0|0,0:3|0:0|0:0,0:0:0:0:
446,185,51925,6,0,L|396:180,1,43.5000016593934,8|0,0:3|0:0,0:0:0:0:
345,75,52156,1,0,0:0:0:0:
345,75,52272,2,0,L|340:125,1,43.5000016593934,4|0,0:3|0:0,0:0:0:0:
246,41,52503,1,0,0:0:0:0:
246,41,52618,2,0,L|251:91,2,43.5000016593934,2|2|0,0:3|0:3|0:0,0:0:0:0:
172,177,52965,2,0,L|177:127,2,43.5000016593934,8|0|0,0:3|0:0|0:0,0:0:0:0:
97,47,53312,6,0,L|102:97,1,43.5000016593934,8|0,0:3|0:0,0:0:0:0:
53,204,53543,1,0,0:0:0:0:
53,204,53659,2,0,L|58:154,1,43.5000016593934,4|0,0:3|0:0,0:0:0:0:
170,22,53890,1,0,0:0:0:0:
170,22,54006,6,0,L|175:72,1,43.5000016593934,2|0,0:3|0:0,0:0:0:0:
172,178,54237,1,0,0:0:0:0:
172,178,54352,2,0,L|177:228,2,43.5000016593934,4|0|0,0:3|0:0|0:0,0:0:0:0:
252,349,54699,6,0,L|247:299,1,43.5000016593934,8|0,0:3|0:0,0:0:0:0:
287,187,54930,1,0,0:0:0:0:
287,187,55046,2,0,L|282:230,1,43.5000016593934,4|0,0:3|0:0,0:0:0:0:
177,364,55277,1,0,0:0:0:0:
177,364,55393,6,0,L|172:314,1,43.5000016593934,2|0,0:3|0:0,0:0:0:0:
177,218,55624,1,0,0:0:0:0:
249,252,55739,2,0,L|292:256,2,43.5000016593934,2|0|0,0:3|0:0|0:0,0:0:0:0:
122,157,56087,6,0,P|161:136|210:145,1,87.0000033187868,8|0,0:3|0:0,0:0:0:0:
314,187,56433,2,0,P|326:163|326:135,1,43.5000016593934,4|0,0:3|0:0,0:0:0:0:
313,77,56665,1,0,0:0:0:0:
213,40,56780,2,0,P|233:57|260:65,1,43.5000016593934,2|0,0:3|0:0,0:0:0:0:
313,77,57012,1,0,0:0:0:0:
443,40,57127,2,0,P|469:42|494:56,2,43.5000016593934,4|0|0,3:3|0:0|0:0,0:0:0:0:
369,14,57474,5,8,0:3:0:0:
370,18,57589,1,0,0:0:0:0:
371,22,57705,1,0,0:0:0:0:
412,124,57821,5,0,0:0:0:0:
411,120,57937,1,0,0:0:0:0:
410,116,58052,1,8,0:3:0:0:
307,99,58167,6,0,L|248:93,1,43.5000016593934,4|0,0:0|0:0,0:0:0:0:
146,53,58399,1,0,0:0:0:0:
146,53,58514,2,0,L|203:59,2,43.5000016593934,8|0|0,0:3|0:0|0:0,0:0:0:0:
133,121,58861,6,0,B|150:161|150:161|143:204,1,87.0000033187868,8|0,0:3|0:0,0:0:0:0:
54,246,59208,1,4,0:3:0:0:
72,247,59323,1,0,0:0:0:0:
90,249,59439,1,0,0:0:0:0:
216,292,59555,5,2,0:3:0:0:
208,276,59670,1,0,0:0:0:0:
201,260,59786,1,0,0:0:0:0:
182,132,59902,5,4,0:3:0:0:
172,146,60017,1,0,0:0:0:0:
161,160,60133,1,0,0:0:0:0:
202,261,60248,6,0,L|255:185,1,87.0000033187868,8|0,0:3|0:0,0:0:0:0:
340,136,60595,1,4,0:3:0:0:
344,152,60711,1,0,0:0:0:0:
345,169,60826,1,0,0:0:0:0:
447,276,60942,5,2,0:3:0:0:
431,271,61058,1,0,0:0:0:0:
415,263,61173,1,0,0:0:0:0:
275,291,61289,5,4,0:3:0:0:
287,279,61405,1,0,0:0:0:0:
302,269,61520,1,0,0:0:0:0:
328,356,61636,6,0,L|236:368,1,87.0000033187868,8|0,0:3|0:0,0:0:0:0:
80,348,61983,1,4,0:3:0:0:
97,342,62098,1,0,0:0:0:0:
113,335,62214,1,0,0:0:0:0:
224,280,62329,5,2,0:3:0:0:
207,274,62444,1,0,0:0:0:0:
191,267,62560,1,0,0:0:0:0:
88,220,62676,5,4,0:3:0:0:
105,214,62791,1,0,0:0:0:0:
121,207,62907,1,0,0:0:0:0:
216,156,63023,6,0,L|172:140,1,43.5000016593934,8|0,0:3|0:0,0:0:0:0:
175,141,63254,1,0,0:0:0:0:
64,168,63370,6,0,L|80:124,1,43.5000016593934,4|0,0:3|0:0,0:0:0:0:
79,128,63601,1,0,0:0:0:0:
56,24,63717,6,0,L|100:40,1,43.5000016593934,2|0,0:3|0:0,0:0:0:0:
208,12,63948,2,0,L|192:56,1,43.5000016593934,0|4,0:0|0:3,0:0:0:0:
288,128,64179,2,0,L|304:84,1,43.5000016593934
400,100,64410,6,0,B|436:112|436:112|412:64,1,87.0000033187868,8|0,0:3|0:0,0:0:0:0:
336,8,64757,1,4,0:3:0:0:
338,25,64873,1,0,0:0:0:0:
340,42,64988,1,0,0:0:0:0:
394,148,65104,5,2,0:3:0:0:
396,131,65220,1,0,0:0:0:0:
398,114,65335,1,0,0:0:0:0:
291,145,65451,5,4,0:3:0:0:
293,162,65567,1,0,0:0:0:0:
295,179,65682,1,0,0:0:0:0:
365,241,65798,6,0,B|400:257|400:257|348:274,1,87.0000033187868,8|0,0:3|0:0,0:0:0:0:
215,350,66144,1,4,0:3:0:0:
219,333,66260,1,0,0:0:0:0:
223,316,66376,1,0,0:0:0:0:
227,299,66491,5,2,0:3:0:0:
123,364,66607,1,0,0:0:0:0:
126,249,66722,1,0,0:0:0:0:
190,222,66838,5,2,0:3:0:0:
259,219,66954,1,0,0:0:0:0:
320,250,67069,1,0,0:0:0:0:
363,304,67185,6,0,L|354:210,1,87.0000033187868,8|0,0:3|0:0,0:0:0:0:
350,147,67532,2,0,L|345:95,2,43.5000016593934,4|0|0,0:3|0:0|0:0,0:0:0:0:
271,103,67878,2,0,L|266:51,2,43.5000016593934,2|0|0,0:3|0:0|0:0,0:0:0:0:
201,158,68225,2,0,L|196:106,2,43.5000016593934,4|0|0,0:3|0:0|0:0,0:0:0:0:
125,105,68572,5,4,0:3:0:0:
61,133,68688,1,0,0:0:0:0:
38,198,68803,1,2,0:0:0:0:
23,129,68919,2,0,P|16:105|3:85,2,43.5000016593934,4|2|0,0:3|0:0|0:0,0:0:0:0:
12,217,69266,6,0,P|18:240|32:261,1,43.5000016593934,4|0,0:3|0:0,0:0:0:0:
16,367,69497,2,0,P|32:350|44:327,1,43.5000016593934,2|0,0:0|0:0,0:0:0:0:
149,292,69728,2,0,P|125:285|100:287,1,43.5000016593934,0|2,0:0|0:0,0:0:0:0:
58,295,69959,6,0,B|120:307|120:307|188:276|188:276|291:331|271:262|381:280,1,326.25,4|0,0:3|0:0,0:0:0:0:
386,282,71347,5,2,0:0:0:0:
400,290,71433,1,0,0:0:0:0:
412,302,71520,1,2,0:0:0:0:
420,317,71607,1,0,0:0:0:0:
424,333,71693,1,2,0:0:0:0:
438,323,71780,1,0,0:0:0:0:
450,310,71867,1,2,0:0:0:0:
458,294,71954,1,0,0:0:0:0:
462,277,72040,1,2,0:0:0:0:
465,259,72127,1,0,0:0:0:0:
466,241,72214,1,2,0:0:0:0:
465,223,72300,1,0,0:0:0:0:
462,205,72387,1,2,0:0:0:0:
457,188,72474,1,0,0:0:0:0:
446,174,72561,1,2,0:0:0:0:
430,165,72647,1,0,0:0:0:0:
400,146,72734,6,0,B|451:121|451:121|368:80|297:124|297:124|295:66|244:35,1,326.25,4|0,0:0|0:0,0:0:0:0:
230,46,74121,5,2,0:0:0:0:
216,56,74208,1,0,0:0:0:0:
201,65,74295,1,2,0:0:0:0:
184,71,74381,1,0,0:0:0:0:
167,75,74468,1,2,0:0:0:0:
149,78,74555,1,0,0:0:0:0:
131,79,74641,1,2,0:0:0:0:
113,77,74728,1,0,0:0:0:0:
95,74,74815,1,2,0:0:0:0:
78,69,74902,1,0,0:0:0:0:
61,63,74988,1,2,0:0:0:0:
45,54,75075,1,0,0:0:0:0:
32,42,75162,1,2,0:0:0:0:
24,57,75248,1,0,0:0:0:0:
19,73,75335,1,2,0:0:0:0:
18,90,75422,1,0,0:0:0:0:
35,161,75509,6,0,L|-6:179,7,34.8,4|0|0|0|0|0|0|0,1:0|0:0|0:0|0:0|0:0|0:0|0:0|0:0,0:0:0:0:
102,226,76202,6,0,L|87:270,7,34.8,0|0|0|0|0|0|0|0,1:0|0:0|0:0|0:0|0:0|0:0|0:0|0:0,0:0:0:0:
203,235,76896,6,0,L|207:268,7,34.8,0|0|0|0|0|0|0|0,1:0|0:0|0:0|0:0|1:0|0:0|0:0|0:0,0:0:0:0:
290,188,77589,6,0,L|314:200,5,23.2,0|0|0|0|0|0,1:0|0:0|0:0|1:0|0:0|0:0,0:0:0:0:
292,98,77936,6,0,L|323:95,5,23.2,0|0|0|0|0|0,1:0|0:0|0:0|1:0|0:0|0:0,0:0:0:0:
243,19,78283,5,4,1:0:0:0:
243,19,79670,6,2,P|280:40|316:32,1,76.125,0|0,0:1|0:0,0:1:0:0:
324,24,80364,6,2,P|288:80|304:144,1,130.5,2|0,0:1|0:1,0:1:0:0:
296,156,80971,1,0,0:0:0:0:
288,176,81058,6,0,L|380:160,1,87,4|0,1:2|0:0,0:0:0:0:
343,241,81404,2,0,L|435:225,1,87,0|0,1:0|0:0,0:0:0:0:
428,226,81665,1,0,0:0:0:0:
428,226,81751,2,0,P|435:272|412:319,1,87,0|0,1:0|0:0,0:0:0:0:
262,250,82098,2,0,L|247:108,1,130.5,0|0,1:0|0:0,0:0:0:0:
246,102,82445,6,0,P|204:111|170:152,1,87,0|0,1:0|0:0,0:0:0:0:
20,269,82792,2,0,P|56:292|109:287,1,87,0|0,1:0|0:0,0:0:0:0:
98,291,83052,1,0,0:0:0:0:
98,291,83139,1,0,1:0:0:0:
8,175,83312,1,0,0:0:0:0:
91,203,83485,2,0,B|137:206|137:206|166:224|166:224|216:227,1,130.5,0|0,1:0|0:0,0:0:0:0:
231,219,83832,6,0,B|243:257|243:257|229:302,1,87,0|0,1:0|0:0,0:0:0:0:
313,373,84179,2,0,B|301:335|301:335|314:289,1,87,0|0,1:0|0:0,0:0:0:0:
329,298,84439,1,0,0:0:0:0:
343,307,84526,1,0,1:0:0:0:
258,241,84699,1,0,0:0:0:0:
294,139,84873,1,0,1:0:0:0:
401,141,85046,2,0,L|416:191,1,43.5
432,243,85219,6,0,P|389:248|350:229,1,87,0|0,1:0|0:0,0:0:0:0:
267,61,85566,2,0,P|291:96|294:138,1,87,0|0,1:0|0:0,0:0:0:0:
258,241,85913,1,0,1:0:0:0:
258,241,86000,1,2,0:0:0:0:
258,241,86087,2,0,L|196:237,1,43.5
114,191,86260,2,0,P|115:168|124:144,1,43.5,0|0,1:0|0:0,0:0:0:0:
145,25,86433,2,0,P|155:45|159:70,1,43.5,0|0,1:0|0:0,0:0:0:0:
208,115,86607,6,0,B|65:103|65:103|101:87,1,174,4|0,1:2|0:0,0:0:0:0:
264,57,87127,1,0,0:0:0:0:
264,57,87214,1,0,0:0:0:0:
264,57,87300,2,0,P|287:100|283:146,1,87,0|0,1:0|0:0,0:0:0:0:
242,270,87647,1,0,1:0:0:0:
121,121,87821,1,0,0:0:0:0:
121,121,87907,1,0,0:0:0:0:
121,121,87994,6,0,L|208:115,1,87,0|0,1:0|0:0,0:0:0:0:
56,248,88341,2,0,L|142:241,1,87,0|0,1:0|0:0,0:0:0:0:
254,350,88688,2,0,P|260:308|242:270,1,87,0|0,1:0|0:0,0:0:0:0:
214,248,88948,1,0,0:0:0:0:
246,259,89035,1,4,1:3:0:0:
280,258,89121,1,0,0:0:0:0:
313,248,89208,1,0,0:0:0:0:
341,227,89295,1,0,0:0:0:0:
360,198,89381,6,0,L|347:111,1,87,4|0,1:2|0:0,0:0:0:0:
313,152,89728,2,0,L|281:185,1,43.5,0|0,1:0|0:0,0:0:0:0:
394,143,89902,2,0,L|432:166,1,43.5,0|0,1:0|0:0,0:0:0:0:
350,133,90075,6,0,L|337:46,1,87,4|0,1:2|0:0,0:0:0:0:
337,46,90335,1,0,1:0:0:0:
337,46,90422,1,0,1:0:0:0:
374,263,90595,1,4,1:3:0:0:
281,138,90769,6,0,L|276:105,1,21.75,4|0,1:2|0:0,0:0:0:0:
420,122,90942,2,0,L|415:89,1,21.75,0|0,1:0|0:0,0:0:0:0:
250,63,91115,6,0,L|243:21,1,21.75,4|0,1:2|0:0,0:0:0:0:
423,42,91288,2,0,L|416:0,1,21.75,0|0,1:0|0:0,0:0:0:0:
350,133,91462,5,4,1:3:0:0:
350,133,91549,1,2,1:3:0:0:
350,133,91636,1,8,1:3:0:0:
332,3,91809,6,0,L|339:53,1,43.5,8|0,1:3|0:0,0:0:0:0:
281,138,91983,2,0,L|288:188,1,43.5,4|0,1:3|0:0,0:0:0:0:
230,271,92156,6,0,L|244:371,1,87,4|0,1:0|0:0,0:0:0:0:
112,374,92503,2,0,L|124:287,1,87,0|0,1:0|0:0,0:0:0:0:
124,287,92763,1,0,0:0:0:0:
124,287,92850,2,0,P|85:304|39:302,1,87,0|0,1:0|0:0,0:0:0:0:
18,89,93196,2,0,L|61:215,1,130.5,0|0,1:0|0:0,0:0:0:0:
68,227,93543,6,0,P|102:201|122:163,1,87,0|0,1:0|0:0,0:0:0:0:
178,11,93890,2,0,L|191:97,1,87,0|0,1:0|0:0,0:0:0:0:
191,97,94150,1,0,0:0:0:0:
191,97,94237,1,0,1:0:0:0:
396,80,94410,1,0,0:0:0:0:
396,80,94497,1,8,1:3:0:0:
396,80,94584,2,0,P|335:57|272:68,1,130.5,0|0,1:0|0:0,0:0:0:0:
255,55,94930,6,0,L|268:141,1,87,0|0,1:0|0:0,0:0:0:0:
227,237,95277,1,0,1:0:0:0:
347,166,95451,1,0,0:0:0:0:
347,166,95537,1,0,0:0:0:0:
347,166,95624,1,0,1:0:0:0:
327,268,95798,1,0,0:0:0:0:
249,337,95971,1,0,1:0:0:0:
59,271,96144,1,0,0:0:0:0:
59,271,96230,1,0,0:0:0:0:
59,271,96317,6,0,P|88:308|132:323,1,87,0|0,1:0|0:0,0:0:0:0:
331,348,96665,2,0,P|287:330|241:339,1,87,0|0,1:0|0:0,0:0:0:0:
180,381,97011,1,8,0:3:0:0:
180,381,97098,1,2,0:3:0:0:
180,381,97185,2,0,L|187:329,1,43.5,4|0,1:3|0:0,0:0:0:0:
217,206,97358,2,0,P|241:220|265:225,1,43.5,0|0,1:0|0:0,0:0:0:0:
379,164,97532,2,0,P|357:159|336:160,1,43.5,0|0,1:0|0:0,0:0:0:0:
286,109,97705,6,0,L|303:284,1,174,4|0,1:2|0:0,0:0:0:0:
428,349,98225,1,0,0:0:0:0:
428,349,98312,1,0,0:0:0:0:
428,349,98399,2,0,B|439:303|439:303|422:266,1,87,0|0,1:0|0:0,0:0:0:0:
297,205,98746,1,0,1:0:0:0:
261,339,98919,1,0,0:0:0:0:
428,349,99092,6,0,B|423:298|423:298|434:266|434:266|428:211,1,130.5,4|8,1:2|0:3,0:0:0:0:
444,228,99439,2,0,L|436:140,1,87,0|0,1:0|0:0,0:0:0:0:
468,15,99786,1,0,1:0:0:0:
440,36,99873,1,0,0:0:0:0:
407,47,99959,1,0,0:0:0:0:
372,51,100046,1,0,0:0:0:0:
337,44,100133,1,0,1:0:0:0:
338,81,100219,1,0,0:0:0:0:
325,113,100306,1,0,0:0:0:0:
302,139,100393,1,0,0:0:0:0:
274,160,100480,6,0,L|246:155,1,21.75,4|0,1:2|0:0,0:0:0:0:
165,78,100653,2,0,L|170:50,1,21.75,8|0,1:3|0:0,0:0:0:0:
257,241,100826,6,0,L|229:236,1,21.75,4|0,1:2|0:0,0:0:0:0:
148,159,100999,2,0,L|153:131,1,21.75,8|0,1:3|0:0,0:0:0:0:
242,317,101173,5,4,1:2:0:0:
243,321,101261,1,2,1:3:0:0:
244,325,101347,1,4,1:3:0:0:
245,329,101434,1,0,0:0:0:0:
246,333,101520,2,0,L|286:323,3,29,4|0|4|0,1:2|0:0|3:0|0:0,0:0:0:0:
244,372,101780,5,0,0:0:0:0:
244,372,101867,2,0,P|206:362|156:385,1,87,4|0,3:0|0:0,0:0:0:0:
149,376,102300,1,0,0:0:0:0:
136,373,102387,1,0,0:0:0:0:
122,373,102474,1,0,0:0:0:0:
109,377,102561,6,0,L|115:331,2,43.5,0|0|0,1:0|0:0|0:0,0:0:0:0:
85,264,102907,2,0,P|42:270|11:305,1,87,0|0,1:0|0:0,0:0:0:0:
144,223,103254,5,14,0:0:0:0:
155,199,103341,1,8,0:0:0:0:
151,173,103428,1,10,0:0:0:0:
161,149,103514,1,8,0:0:0:0:
146,19,103688,1,8,0:0:0:0:
146,19,103774,2,8,L|178:54,1,43.5,2|8,0:0|0:0,0:0:0:0:
276,67,104035,5,0,0:0:0:0:
302,64,104121,1,2,0:0:0:0:
326,75,104208,1,8,0:0:0:0:
352,70,104295,1,10,0:0:0:0:
507,12,104468,5,10,0:0:0:0:
500,28,104555,1,10,0:0:0:0:
493,43,104641,5,10,0:0:0:0:
459,34,104728,1,8,0:0:0:0:
424,35,104815,1,10,0:0:0:0:
392,50,104902,1,8,0:0:0:0:
373,79,104988,1,0,0:0:0:0:
373,79,105075,2,0,L|385:127,1,43.5
403,188,105248,1,0,0:0:0:0:
403,188,105335,5,0,0:0:0:0:
457,353,105509,1,0,0:0:0:0:
483,330,105595,1,10,0:0:0:0:
494,296,105682,2,0,L|437:300,1,43.5,10|8,0:0|0:0,0:0:0:0:
391,336,105855,2,0,L|334:340,1,43.5,10|8,0:0|0:0,0:0:0:0:
242,311,106029,5,10,0:0:0:0:
258,280,106115,1,8,0:0:0:0:
261,245,106202,1,10,0:0:0:0:
252,211,106289,1,8,0:0:0:0:
227,186,106376,2,0,L|178:195,1,43.5
117,206,106549,2,0,L|68:215,1,43.5
75,214,106896,5,0,0:0:0:0:
75,214,106983,1,0,0:0:0:0:
75,214,107069,1,10,0:0:0:0:
101,173,107156,1,8,0:0:0:0:
107,125,107243,1,10,0:0:0:0:
92,79,107329,1,10,0:0:0:0:
54,49,107416,5,10,0:0:0:0:
47,55,107503,1,8,0:0:0:0:
41,61,107589,1,8,0:0:0:0:
35,67,107676,1,8,0:0:0:0:
29,73,107763,2,0,L|34:117,1,43.5,0|8,0:0|0:0,0:0:0:0:
5,269,107936,1,10,0:0:0:0:
12,263,108023,1,8,0:0:0:0:
18,257,108110,6,0,L|12:197,1,43.5,10|0,0:0|0:0,0:0:0:0:
18,197,108283,2,0,L|12:165,3,21.75,0|0|0|0,1:0|0:0|0:0|0:0,0:0:0:0:
110,289,108456,2,0,L|104:229,1,43.5,8|0,1:0|0:0,0:0:0:0:
110,229,108630,2,0,L|104:197,3,21.75,0|0|0|0,1:0|0:0|0:0|0:0,0:0:0:0:
152,158,108803,5,14,0:0:0:0:
186,164,108890,1,10,0:0:0:0:
219,154,108977,1,10,0:0:0:0:
253,158,109063,1,8,0:0:0:0:
284,143,109150,2,0,L|266:191,1,43.5,0|8,0:0|0:0,0:0:0:0:
299,287,109324,2,0,L|314:246,1,43.5,0|8,0:0|0:0,0:0:0:0:
347,115,109497,5,0,0:0:0:0:
428,224,109670,1,2,0:0:0:0:
415,240,109757,1,8,0:0:0:0:
401,257,109844,2,0,L|308:246,1,87,10|10,0:0|0:0,0:0:0:0:
247,265,110104,1,10,0:0:0:0:
264,332,110191,5,10,0:0:0:0:
296,343,110277,1,8,0:0:0:0:
330,337,110364,1,10,0:0:0:0:
361,351,110451,1,8,0:0:0:0:
394,342,110537,2,0,L|446:331,1,43.5,0|8,0:0|0:0,0:0:0:0:
401,257,110711,2,0,L|358:266,1,43.5,0|8,0:0|0:0,0:0:0:0:
303,212,110884,1,0,0:0:0:0:
199,333,111057,5,10,0:0:0:0:
166,348,111144,1,10,0:0:0:0:
141,375,111230,1,10,0:0:0:0:
155,333,111318,1,8,0:0:0:0:
150,290,111404,1,10,0:0:0:0:
131,250,111491,1,8,0:0:0:0:
96,222,111578,6,0,L|81:192,1,21.75,14|0,0:0|0:0,0:0:0:0:
130,224,111665,2,0,L|122:186,1,21.75,2|0,0:0|0:0,0:0:0:0:
159,205,111751,1,10,0:0:0:0:
182,179,111838,1,10,0:0:0:0:
199,148,111925,5,10,0:0:0:0:
196,130,112011,1,8,0:0:0:0:
193,112,112098,1,10,0:0:0:0:
190,94,112185,1,8,0:0:0:0:
188,76,112272,6,0,L|177:46,1,21.75,14|0,0:0|0:0,0:0:0:0:
222,77,112358,2,0,L|226:44,1,21.75,10|0,0:0|0:0,0:0:0:0:
256,73,112445,1,10,0:0:0:0:
286,56,112532,1,10,0:0:0:0:
309,30,112618,5,10,0:0:0:0:
313,46,112705,1,8,0:0:0:0:
317,62,112792,1,10,0:0:0:0:
321,78,112878,1,8,0:0:0:0:
326,94,112965,6,0,L|333:124,3,21.75,12|0|0|0,1:0|0:0|0:0|0:0,0:0:0:0:
399,93,113139,2,0,L|385:52,1,43.5,8|0,1:0|0:0,0:0:0:0:
380,158,113312,6,0,L|387:188,3,21.75,12|0|0|0,1:0|0:0|0:0|0:0,0:0:0:0:
454,158,113485,2,0,L|439:116,1,43.5,8|0,1:0|0:0,0:0:0:0:
427,229,113659,6,0,L|434:259,3,21.75,12|0|0|0,1:0|0:0|0:0|0:0,0:0:0:0:
374,309,113832,6,0,L|404:302,3,21.75,12|0|0|0,1:0|0:0|0:0|0:0,0:0:0:0:
459,361,114006,6,0,L|452:331,3,21.75,12|0|0|0,1:0|0:0|0:0|0:0,0:0:0:0:
508,279,114179,6,0,L|478:286,3,21.75,12|0|0|0,1:0|0:0|0:0|0:0,0:0:0:0:
441,296,114352,5,12,0:0:0:0:
