osu file format v14

[General]
AudioFilename: df.mp3
AudioLeadIn: 0
PreviewTime: 79670
Countdown: 0
SampleSet: Soft
StackLeniency: 0.7
Mode: 0
LetterboxInBreaks: 0
WidescreenStoryboard: 1

[Editor]
Bookmarks: 21421,47780,69976,81075,103254,114352
DistanceSpacing: 0.8
BeatDivisor: 4
GridSize: 32
TimelineZoom: 3.299999

[Metadata]
Title:vajra
TitleUnicode:伐折羅-vajra-
Artist:DJ TOTTO VS TOTTO
ArtistUnicode:DJ TOTTO VS 兎々
Creator:Kloyd
Version:Easy
Source:REFLEC BEAT groovin'!! Upper
Tags:Urushi38 Underflow BEMANI The 4th KONAMI Arcade Championship KAC2014 リフレクダービー derby The 4th KONAMI Arcade Championship KAC2014 リフレクダービー
BeatmapID:666471
BeatmapSetID:287377

[Difficulty]
HPDrainRate:2
CircleSize:3
OverallDifficulty:2
ApproachRate:3
SliderMultiplier:1
SliderTickRate:1

[Events]
//Background and Video events
0,0,"bg.jpg",0,0
//Break Periods
2,70159,74069
//Storyboard Layer 0 (Background)
//Storyboard Layer 1 (Fail)
//Storyboard Layer 2 (Pass)
//Storyboard Layer 3 (Foreground)
//Storyboard Sound Samples

[TimingPoints]
1983,346.820809248555,4,2,0,60,1,0
79670,-100,4,2,0,30,0,0
80364,-100,4,2,0,45,0,0
81058,-100,4,2,0,60,0,1
101867,-100,4,2,0,60,0,0
102561,-100,4,2,0,60,0,1
103254,-100,4,2,2,60,0,0

[Colours]
Combo1 : 208,115,210
Combo2 : 255,142,142
Combo3 : 213,213,213
Combo4 : 255,255,172

[HitObjects]
36,343,1983,6,0,P|75:317|111:347,1,100,4|4,3:2|0:3,0:0:0:0:
382,276,4757,6,0,P|356:315|386:351,1,100,4|4,0:3|0:3,0:0:0:0:
456,80,7532,6,0,P|416:105|380:75,1,100,4|4,0:3|0:3,0:0:0:0:
101,51,10306,6,0,P|126:90|96:126,1,100,4|4,0:3|0:3,0:0:0:0:
81,365,11693,6,0,B|205:215|217:312|317:187,1,300,2|8,0:0|0:0,0:0:0:0:
387,149,13081,6,0,L|377:47,1,100,4|4,0:3|0:3,0:0:0:0:
467,272,14468,2,0,L|477:170,1,100,4|4,0:3|0:3,0:0:0:0:
313,348,15855,6,0,P|268:317|233:282,1,100,4|4,0:3|0:3,0:0:0:0:
8,363,17243,2,0,P|48:336|87:297,1,100,4|4,0:3|0:3,0:0:0:0:
140,65,18630,5,4,0:3:0:0:
60,52,18977,1,4,0:3:0:0:
288,124,20017,1,4,0:3:0:0:
208,137,20364,1,4,0:3:0:0:
256,192,21231,12,4,24179,0:3:0:0:
434,44,25566,6,0,P|453:90|446:143,1,100,4|4,0:3|0:3,0:0:0:0:
405,206,26260,1,4,0:3:0:0:
454,268,26607,1,0,0:0:0:0:
425,342,26954,2,0,L|321:333,1,100,4|4,0:3|0:3,0:0:0:0:
259,288,27647,2,0,B|252:238|252:238|274:189,1,100,4|0,0:3|0:0,0:0:0:0:
321,129,28341,6,0,B|328:79|328:79|306:30,1,100,4|4,0:3|0:3,0:0:0:0:
231,58,29035,1,4,0:3:0:0:
153,37,29381,1,0,0:0:0:0:
80,70,29728,2,0,L|90:171,1,100,2|2,0:3|0:3,0:0:0:0:
49,238,30422,1,4,0:2:0:0:
195,302,31115,6,0,P|211:253|203:200,1,100,4|0,0:3|0:3,0:0:0:0:
170,133,31809,1,0,0:3:0:0:
100,93,32156,1,0,0:0:0:0:
168,50,32503,2,0,P|218:47|267:80,1,100,4|4,0:3|0:3,0:0:0:0:
317,127,33196,2,0,P|344:168|340:227,1,100,4|4,0:3|0:3,0:0:0:0:
308,288,33890,6,0,P|285:332|232:358,2,100,4|4|4,0:3|0:3|0:3,0:0:0:0:
228,276,34930,1,4,0:3:0:0:
240,197,35277,2,0,P|333:164|400:333,1,300
330,312,36665,6,0,P|300:323|254:274,1,100
182,318,37358,2,0,L|70:302,1,100
37,237,38052,2,0,L|54:137,1,100,4|4,0:3|0:3,0:0:0:0:
104,73,38746,1,4,0:3:0:0:
179,98,39092,1,0,0:0:0:0:
253,68,39439,6,0,B|283:58|283:58|368:77,1,100,4|4,0:3|0:3,0:0:0:0:
421,109,40133,2,0,B|458:143|458:143|463:192,1,100,4|0,0:3|0:0,0:0:0:0:
462,272,40826,2,0,B|441:337|441:337|417:358,2,100,4|4|4,0:3|0:3|0:3,0:0:0:0:
306,309,42214,6,0,L|317:206,1,100,4|4,0:3|0:3,0:0:0:0:
289,134,42907,2,0,P|255:102|224:135,1,100,4|0,0:3|0:0,0:0:0:0:
195,209,43601,2,0,L|206:309,1,100,4|4,0:3|0:3,0:0:0:0:
145,361,44295,1,4,0:3:0:0:
73,325,44641,1,4,0:3:0:0:
46,249,44988,6,0,B|54:173|54:173|35:128|35:128|45:53,2,200,4|4|4,3:1|0:0|3:1,0:0:0:0:
7,319,46722,1,4,3:1:0:0:
87,318,47069,2,0,P|185:314|273:370,1,200,4|8,0:0|0:3,0:0:0:0:
344,336,48110,5,4,0:3:0:0:
418,307,48456,1,2,0:3:0:0:
497,168,49150,5,8,0:3:0:0:
499,248,49497,1,4,0:3:0:0:
426,214,49844,1,2,0:3:0:0:
310,103,50537,5,8,0:3:0:0:
326,181,50884,1,4,0:3:0:0:
343,259,51231,1,2,0:3:0:0:
198,327,51925,5,8,0:3:0:0:
244,261,52272,1,4,0:3:0:0:
279,332,52618,1,2,0:3:0:0:
119,344,53312,5,8,0:3:0:0:
80,273,53659,1,4,0:3:0:0:
105,197,54006,1,2,0:3:0:0:
167,49,54699,5,8,0:3:0:0:
93,80,55046,1,4,0:3:0:0:
19,112,55393,1,2,0:3:0:0:
175,146,56087,5,8,0:3:0:0:
253,131,56433,1,4,0:3:0:0:
321,172,56780,1,2,0:3:0:0:
425,293,57474,6,0,L|413:187,2,100,8|4|4,0:3|0:3|0:0,0:0:0:0:
273,344,58861,6,0,P|223:348|174:323,1,100,8|4,0:3|0:3,0:0:0:0:
128,264,59555,1,2,0:3:0:0:
42,128,60248,2,0,L|52:230,2,100,8|4|2,0:3|0:3|0:3,0:0:0:0:
176,41,61636,6,0,L|292:64,1,100,8|4,0:3|0:3,0:0:0:0:
352,77,62329,1,2,0:3:0:0:
489,159,63023,2,0,P|494:105|473:57,2,100,8|4|2,0:3|0:3|0:3,0:0:0:0:
348,235,64410,6,0,P|373:280|424:306,1,100,8|4,0:3|0:3,0:0:0:0:
493,312,65104,1,2,0:3:0:0:
483,152,65798,5,8,0:3:0:0:
405,169,66144,1,4,0:3:0:0:
326,186,66491,1,2,0:3:0:0:
171,144,67185,6,0,L|150:38,1,100,8|4,0:3|0:3,0:0:0:0:
70,38,67878,2,0,P|32:70|8:127,1,100,2|4,0:3|0:3,0:0:0:0:
20,194,68572,6,0,P|21:246|148:332,1,200
190,282,69613,1,2,0:0:0:0:
209,359,69959,5,4,0:3:0:0:
256,192,75509,12,4,78283,1:0:0:0:
352,304,79670,6,0,P|435:324|332:228,1,400,0|4,0:1|1:2,0:0:0:0:
261,193,81404,5,0,1:0:0:0:
215,258,81751,1,0,1:0:0:0:
136,244,82098,1,0,1:0:0:0:
73,294,82445,2,0,P|56:247|70:196,1,100,0|0,1:0|1:0,0:0:0:0:
8,145,83139,2,0,P|-8:98|4:46,1,100,0|0,1:0|1:0,0:0:0:0:
79,25,83832,5,0,1:0:0:0:
150,61,84179,1,0,1:0:0:0:
222,95,84526,2,0,P|262:91|302:48,1,100
376,19,85219,2,0,L|401:124,1,100,0|0,1:0|1:0,0:0:0:0:
469,77,85913,1,0,1:0:0:0:
483,155,86260,2,0,L|497:221,2,50,0|0|4,1:0|1:0|1:2,0:0:0:0:
412,193,86954,5,0,1:0:0:0:
332,184,87300,2,0,P|288:205|256:255,1,100,0|0,1:0|1:0,0:0:0:0:
287,321,87994,2,0,L|393:306,2,100,0|0|0,1:0|1:0|1:0,0:0:0:0:
207,332,89035,1,4,1:3:0:0:
130,309,89381,6,0,B|65:309|65:309|22:257|50:173,2,200,4|4|4,1:2|1:2|1:2,0:0:0:0:
196,352,91115,1,4,1:2:0:0:
227,278,91462,1,4,1:3:0:0:
273,342,91809,1,8,1:3:0:0:
352,326,92156,6,0,P|398:333|452:303,1,100,0|0,1:0|1:0,0:0:0:0:
494,247,92850,1,0,1:0:0:0:
448,181,93196,1,0,1:0:0:0:
369,197,93543,2,0,P|319:202|261:175,1,100,0|0,1:0|1:0,0:0:0:0:
223,121,94237,1,0,1:0:0:0:
269,55,94584,1,0,1:0:0:0:
346,34,94930,6,0,P|377:69|387:123,1,100,0|0,1:0|1:0,0:0:0:0:
369,198,95624,1,0,1:0:0:0:
298,236,95971,1,0,1:0:0:0:
218,240,96318,2,0,L|235:346,1,100,0|0,1:0|1:0,0:0:0:0:
153,338,97011,2,0,L|111:366,2,50,8|4|0,0:3|1:3|1:0,0:0:0:0:
131,260,97705,5,4,1:2:0:0:
114,181,98052,1,0,0:0:0:0:
39,211,98399,2,0,P|19:176|20:103,1,100
76,64,99092,6,0,B|111:37|111:37|278:48,2,200,4|0|4,1:2|1:0|1:2,0:0:0:0:
39,135,100826,1,4,1:2:0:0:
22,213,101173,2,0,P|20:273|34:322,1,100
102,345,101867,5,4,3:0:0:0:
310,90,103254,6,0,L|423:105,2,100,14|10|10,0:0|0:0|0:0,0:0:0:0:
241,48,104295,1,10,0:0:0:0:
174,91,104641,2,0,P|173:141|191:187,1,100,10|10,0:0|0:0,0:0:0:0:
243,249,105335,1,10,0:0:0:0:
312,289,105682,1,10,0:0:0:0:
389,309,106029,6,0,L|498:324,2,100,10|10|10,0:0|0:0|0:0,0:0:0:0:
369,231,107069,1,10,0:0:0:0:
440,195,107416,2,0,P|463:149|462:91,1,100,10|10,0:0|0:0,0:0:0:0:
407,44,108110,2,0,P|361:21|303:22,1,100,10|8,0:0|1:0,0:0:0:0:
254,73,108803,6,0,L|272:184,2,100,14|10|10,0:0|0:0|0:0,0:0:0:0:
177,47,109844,1,10,0:0:0:0:
98,32,110191,2,0,P|50:46|6:86,1,100,10|10,0:0|0:0,0:0:0:0:
8,157,110884,2,0,L|25:264,1,100,2|2,0:0|0:0,0:0:0:0:
13,335,111578,5,14,0:0:0:0:
91,318,111925,1,10,0:0:0:0:
164,286,112272,2,0,P|215:279|259:300,1,100,8|8,0:0|0:0,0:0:0:0:
321,348,112965,5,12,1:0:0:0:
396,322,113312,1,12,1:0:0:0:
475,328,113659,1,12,1:0:0:0:
502,252,114006,1,12,1:0:0:0:
423,240,114352,5,12,0:0:0:0:
