osu file format v14

[General]
AudioFilename: windyfairy.mp3
AudioLeadIn: 2000
PreviewTime: 24007
Countdown: 0
SampleSet: Soft
StackLeniency: 0.7
Mode: 0
LetterboxInBreaks: 1
EpilepsyWarning: 1
WidescreenStoryboard: 1

[Editor]
DistanceSpacing: 1.2
BeatDivisor: 4
GridSize: 32
TimelineZoom: 1.3

[Metadata]
Title:Windy Fairy
TitleUnicode:Windy Fairy
Artist:DJ TOTTO
ArtistUnicode:DJ TOTTO
Creator:pandorawindy
Version:Standard
Source:jubeat saucer
Tags:reflec beat colette spring konami bemani DanceDanceRevolution ddr alacat
BeatmapID:675181
BeatmapSetID:298245

[Difficulty]
HPDrainRate:4
CircleSize:3.5
OverallDifficulty:4
ApproachRate:5
SliderMultiplier:1.2
SliderTickRate:2

[Events]
//Background and Video events
0,0,"bg.jpg",0,0
//Break Periods
//Storyboard Layer 0 (Background)
//Storyboard Layer 1 (Fail)
//Storyboard Layer 2 (Pass)
//Storyboard Layer 3 (Foreground)
//Storyboard Sound Samples

[TimingPoints]
8,333.333333333333,4,2,1,50,1,0
8007,-100,4,2,1,70,0,0
24007,-100,4,2,1,80,0,0
30007,-100,4,2,2,80,0,0
32007,-100,4,2,1,80,0,0
38007,-100,4,2,2,80,0,0
40007,-100,4,2,1,70,0,1
47841,-100,4,2,1,70,0,0
48007,-100,4,2,1,70,0,1
55674,-133.333333333333,4,2,1,70,0,0
56007,-133.333333333333,4,2,1,60,0,0
68007,-100,4,2,1,60,0,0
76007,-100,4,2,1,70,0,1
83841,-100,4,2,1,70,0,0
84007,-100,4,2,1,70,0,1
91674,-133.333333333333,4,2,1,70,0,0
92007,-133.333333333333,4,2,1,80,0,0
98007,-100,4,2,1,50,0,0
98507,-100,4,2,1,60,0,0
99007,-100,4,2,1,70,0,0
99507,-100,4,2,1,80,0,0
108007,-100,4,2,1,80,0,0
112174,-100,4,2,1,15,0,0
116007,-100,4,2,1,5,0,0

[Colours]
Combo1 : 153,153,153
Combo2 : 131,223,229
Combo3 : 236,186,186
Combo4 : 223,131,229
Combo5 : 62,62,62

[HitObjects]
321,56,8,54,0,P|400:77|399:167,1,180,2|0,0:0|0:0,0:0:0:0:
376,210,674,2,0,L|439:241,1,60
409,286,1007,2,0,B|252:211|252:211|288:237|295:279,1,240,2|0,0:0|0:0,0:0:0:0:
189,300,2007,6,0,P|108:280|86:192,1,180,2|0,0:0|0:0,0:0:0:0:
132,168,2674,2,0,L|78:141,1,60
28,118,3007,1,2,0:0:0:0:
118,59,3341,1,2,0:0:0:0:
216,102,3674,1,2,0:0:0:0:
314,145,4007,54,0,B|450:145|450:145|419:154|404:174,1,180,2|0,0:0|0:0,0:0:0:0:
373,203,4674,2,0,P|353:228|353:261,1,60
357,308,5007,2,0,P|285:221|168:253,1,240,2|0,0:0|0:0,0:0:0:0:
250,322,6007,1,2,0:0:0:0:
229,302,8007,22,0,P|258:251|256:192,1,120,2|0,0:1|0:0,0:0:0:0:
152,226,8674,1,0,0:0:0:0:
53,270,9007,2,0,P|68:156|179:120,1,240,2|0,0:1|0:0,0:0:0:0:
281,136,10007,21,2,0:1:0:0:
386,112,10341,2,0,L|357:232,1,120
275,298,11007,2,0,B|148:266|148:266|130:220,2,180,2|2|2,0:1|0:1|0:1,0:0:0:0:
380,322,12341,54,0,P|378:264|339:211,1,120
250,159,13007,2,0,B|222:141|180:142|180:142|344:93,1,240,2|0,0:1|0:0,0:0:0:0:
449,106,14007,2,0,P|486:186|446:271,2,180,2|2|2,0:1|0:1|0:1,0:0:0:0:
377,187,15341,54,0,B|344:186|322:162|322:162|221:220|260:143|147:195,1,240,0|2,0:0|0:1,3:0:0:0:
66,258,16341,1,2,0:1:0:0:
165,300,16674,1,2,0:1:0:0:
269,274,17007,2,0,P|327:270|377:306,1,120,2|2,0:1|0:1,0:0:0:0:
460,236,17674,2,0,L|475:175,2,60,2|0|2,0:1|0:0|0:1,0:0:0:0:
365,181,18341,6,0,L|299:165,1,60,2|0,0:1|0:0,0:0:0:0:
276,122,18674,2,0,L|210:106,1,60,2|0,0:1|0:0,0:0:0:0:
164,96,19007,1,2,0:1:0:0:
183,202,19341,1,2,0:1:0:0:
79,232,19674,1,2,0:1:0:0:
63,125,20007,6,0,P|63:64|96:15,1,120,2|2,0:1|0:1,0:0:0:0:
164,96,20674,1,2,0:1:0:0:
265,133,21007,2,0,L|386:115,1,120,2|2,0:1|0:1,0:0:0:0:
476,171,21674,1,2,0:1:0:0:
380,222,22007,38,0,B|340:242|340:242|353:321,1,120,2|0,0:1|0:0,0:0:0:0:
400,342,22507,2,0,L|279:362,1,120,2|0,0:1|0:0,0:0:0:0:
228,369,23007,2,0,P|174:273|63:302,1,240,2|2,0:1|0:1,3:0:0:0:
8,207,24007,5,6,0:0:0:0:
80,126,24341,2,0,L|199:146,1,120,2|2,0:0|0:0,0:0:0:0:
304,162,25007,1,2,0:0:0:0:
265,60,25341,1,2,0:0:0:0:
374,80,25674,1,2,0:0:0:0:
413,180,26007,1,2,0:0:0:0:
345,264,26341,54,0,B|309:282|309:282|216:269,2,120,2|2|2,0:0|0:0|0:0,0:0:0:0:
413,180,27341,2,0,L|395:57,1,120,2|2,0:0|0:0,0:0:0:0:
301,114,28007,6,0,P|250:143|188:137,1,120,2|2,0:0|0:0,0:0:0:0:
141,116,28507,1,0,0:0:0:0:
141,116,28674,2,0,L|128:39,2,60,2|0|2,0:0|0:0|0:0,0:0:0:0:
93,213,29341,1,2,0:0:0:0:
153,302,29674,1,2,0:0:0:0:
254,264,30007,6,0,B|270:180|270:180|305:166,2,120,2|2|2,0:0|0:0|0:0,0:0:0:0:
346,322,31007,2,0,P|406:327|459:297,2,120,2|2|2,0:0|0:0|0:0,0:0:0:0:
381,220,32007,37,6,0:0:0:0:
476,168,32341,2,0,P|438:125|378:111,1,120,2|2,0:0|0:0,0:0:0:0:
273,134,33007,1,2,0:0:0:0:
312,33,33341,1,2,0:0:0:0:
203,52,33674,1,2,0:0:0:0:
164,152,34007,1,2,0:0:0:0:
231,236,34341,22,0,L|352:254,2,120,2|2|2,0:0|0:0|0:0,0:0:0:0:
164,321,35341,2,0,L|45:303,1,120,2|2,0:0|0:0,0:0:0:0:
91,206,36007,38,0,P|102:150|66:99,1,120,2|2,0:0|0:0,0:0:0:0:
21,73,36507,1,0,0:0:0:0:
21,73,36674,2,0,L|41:16,2,60,2|0|2,0:0|0:0|0:0,0:0:0:0:
123,39,37341,1,2,0:0:0:0:
212,99,37674,1,2,0:0:0:0:
311,57,38007,6,0,L|437:16,2,120,2|2|2,0:0|0:0|0:0,0:0:0:0:
377,142,39007,2,0,L|417:260,2,120,2|2|2,0:0|0:0|0:0,0:0:0:0:
268,142,40007,6,0,P|208:142|154:180,1,120,6|2,0:1|0:1,0:0:0:0:
119,210,40507,1,0,0:0:0:0:
119,210,40674,2,0,L|92:152,2,60,2|0|2,0:1|0:0|0:1,0:0:0:0:
99,316,41341,37,2,0:1:0:0:
201,281,41674,1,2,0:1:0:0:
281,352,42007,1,2,0:1:0:0:
307,247,42341,6,0,P|359:276|386:329,2,120,2|2|2,0:1|0:1|0:1,0:0:0:0:
201,281,43341,2,0,L|166:231,1,60,2|0,0:1|0:0,0:0:0:0:
113,226,43674,2,0,L|78:177,1,60,2|0,0:1|0:0,0:0:0:0:
78,123,44007,6,0,P|106:71|161:43,2,120,6|2|2,0:1|0:1|0:1,0:0:0:0:
182,149,45007,1,2,0:1:0:0:
261,75,45341,1,2,0:1:0:0:
365,103,45674,1,2,0:1:0:0:
468,131,46007,38,0,L|516:5,2,120,2|2|2,1:1|0:1|0:1,0:0:0:0:
391,207,47007,2,0,L|348:319,2,120,2|2|2,1:1|0:1|0:1,0:0:0:0:
299,150,48007,6,0,P|238:150|188:187,1,120,6|2,0:1|0:1,0:0:0:0:
159,226,48507,1,0,0:0:0:0:
159,226,48674,2,0,L|85:203,2,60,2|0|2,0:1|0:0|0:1,0:0:0:0:
227,309,49341,5,2,0:1:0:0:
330,279,49674,1,2,0:1:0:0:
397,363,50007,1,2,0:1:0:0:
436,262,50341,38,0,P|410:207|361:176,2,120,2|2|2,0:1|0:1|0:1,0:0:0:0:
330,279,51341,2,0,L|266:258,1,60,2|0,0:1|0:0,0:0:0:0:
238,218,51674,2,0,L|174:197,1,60,2|0,0:1|0:0,0:0:0:0:
128,213,52007,6,0,L|168:98,2,120,2|2|2,0:1|0:1|0:1,0:0:0:0:
43,281,53007,1,2,0:1:0:0:
141,321,53341,1,2,0:1:0:0:
242,358,53674,1,2,0:1:0:0:
326,290,54007,6,0,L|199:244,2,120,2|2|2,1:1|0:1|0:1,0:0:0:0:
390,203,55007,2,0,B|474:234|474:234|486:278,2,120,2|2|2,1:1|0:1|0:1,0:0:0:0:
411,96,56007,38,0,P|336:43|253:64,1,180.000006866455,0|0,1:0|0:0,0:0:0:0:
319,149,57007,2,0,L|137:189,1,180.000006866455,8|0,0:1|0:0,0:0:0:0:
191,286,58007,6,0,P|191:331|165:375,1,90.0000034332277,2|2,0:0|0:0,0:0:0:0:
84,303,58674,1,2,0:0:0:0:
62,197,59007,2,0,L|47:105,1,90.0000034332277,8|0,0:1|0:0,0:0:0:0:
152,134,59674,1,0,0:0:0:0:
170,27,60007,6,0,P|243:75|255:162,1,180.000006866455,0|0,1:0|0:0,0:0:0:0:
222,263,61007,2,0,B|346:240|346:240|312:256|299:286,1,180.000006866455,8|0,0:1|0:0,0:0:0:0:
392,337,62007,38,0,L|486:320,1,90.0000034332277,2|2,0:0|0:0,0:0:0:0:
449,217,62674,1,2,0:0:0:0:
479,113,63007,2,0,P|473:69|447:31,1,90.0000034332277,8|0,0:1|0:0,0:0:0:0:
372,109,63674,1,0,0:0:0:0:
334,210,64007,6,0,P|270:151|273:64,1,180.000006866455,0|0,1:0|0:0,0:0:0:0:
171,26,65007,2,0,B|49:45|49:45|31:98,1,180.000006866455,8|0,0:1|0:0,0:0:0:0:
114,167,66007,6,0,P|150:191|172:235,1,90.0000034332277,2|2,0:0|0:0,0:0:0:0:
68,265,66674,1,2,0:0:0:0:
148,336,67007,2,0,L|238:322,1,90.0000034332277,2|2,0:0|0:0,0:0:0:0:
343,304,67674,1,2,0:0:0:0:
272,222,68007,38,2,P|254:109|348:45,1,240,2|2,0:1|0:1,0:0:0:0:
354,154,69007,1,2,0:1:0:0:
444,95,69341,2,0,L|468:216,1,120,2|2,0:1|0:1,0:0:0:0:
392,290,70007,6,2,B|242:258|242:258|291:282|303:323,1,240,2|2,0:1|0:1,0:0:0:0:
201,360,71007,1,2,0:1:0:0:
101,317,71341,2,0,L|82:199,1,120,2|2,0:1|0:1,0:0:0:0:
63,92,72007,6,2,P|125:98|170:136,1,120,2|2,0:1|0:1,0:0:0:0:
186,240,72674,1,2,0:1:0:0:
283,286,73007,2,2,L|401:267,1,120,2|2,0:1|0:1,0:0:0:0:
442,166,73674,1,2,0:1:0:0:
371,84,74007,1,6,0:0:0:0:
178,132,76007,38,0,L|195:253,1,120,2|2,0:1|0:1,0:0:0:0:
248,246,76507,1,0,0:0:0:0:
301,238,76674,2,0,L|368:229,2,60,2|0|2,0:1|0:0|0:1,0:0:0:0:
318,131,77341,5,2,0:1:0:0:
425,143,77674,1,2,0:1:0:0:
385,42,78007,2,0,P|330:20|266:34,1,120,2|2,0:1|0:1,0:0:0:0:
230,65,78507,1,0,0:0:0:0:
211,115,78674,6,0,L|149:115,2,60,2|0|2,0:1|0:0|0:1,0:0:0:0:
278,199,79341,2,0,P|251:214|222:219,1,60,2|0,0:1|0:0,0:0:0:0:
222,274,79674,2,0,P|191:274|163:264,1,60,2|2,0:1|0:1,0:0:0:0:
118,237,80007,38,0,L|132:363,1,120,2|2,0:1|0:1,0:0:0:0:
35,306,80674,1,2,0:1:0:0:
17,199,81007,2,0,L|3:79,1,120,2|2,0:1|0:1,0:0:0:0:
100,126,81674,2,0,L|165:118,1,60,2|0,0:1|0:0,0:0:0:0:
213,113,82007,2,0,P|261:142|291:207,1,120,2|2,0:1|0:1,0:0:0:0:
184,219,82674,5,2,0:1:0:0:
255,299,83007,1,2,0:1:0:0:
361,279,83341,2,0,P|382:257|393:230,1,60,2|2,0:1|0:1,0:0:0:0:
448,242,83674,2,0,P|455:212|452:183,1,60,2|2,0:1|0:1,0:0:0:0:
496,151,84007,6,0,L|378:131,1,120,2|2,0:1|0:1,0:0:0:0:
307,48,84674,2,0,L|242:38,2,60,2|0|2,0:1|0:0|0:1,0:0:0:0:
259,145,85341,37,2,0:1:0:0:
159,102,85674,1,2,0:1:0:0:
169,209,86007,2,0,L|180:336,1,120,2|2,0:1|0:1,0:0:0:0:
125,337,86507,1,0,0:0:0:0:
71,343,86674,6,0,L|0:350,2,60,2|0|2,0:1|0:0|0:1,0:0:0:0:
29,242,87341,2,0,L|23:176,1,60,2|0,0:1|0:0,0:0:0:0:
60,142,87674,2,0,L|54:76,1,60,2|2,0:1|0:1,0:0:0:0:
49,28,88007,6,0,P|103:56|166:47,1,120,2|2,0:1|0:1,0:0:0:0:
266,27,88674,2,0,L|273:94,2,60,2|0|2,0:1|0:0|0:1,0:0:0:0:
372,47,89341,37,2,0:1:0:0:
354,153,89674,2,0,L|421:146,2,60,2|0|2,0:1|0:0|0:1,0:0:0:0:
246,166,90341,1,2,0:1:0:0:
165,92,90674,6,0,P|147:117|139:146,1,60,2|2,0:1|0:1,0:0:0:0:
85,146,91007,2,0,L|21:145,2,60,2|2|2,0:1|0:1|0:1,0:0:0:0:
157,227,91674,1,0,0:0:0:0:
246,166,92007,6,0,P|314:166|359:212,1,135.000005149841,2|0,0:0|0:0,0:0:0:0:
375,262,92674,2,0,L|433:252,1,45.0000017166138,2|0,0:0|0:0,0:0:0:0:
472,245,93007,2,0,B|448:111|448:111|484:153,1,180.000006866455,2|0,0:0|0:0,0:0:0:0:
470,36,94007,38,0,P|406:44|369:104,1,135.000005149841,2|0,0:0|0:0,0:0:0:0:
356,152,94674,2,0,L|309:146,1,45.0000017166138,2|0,0:0|0:0,0:0:0:0:
263,120,95007,2,0,L|250:209,1,90.0000034332277,2|0,0:0|0:0,0:0:0:0:
151,254,95674,1,0,0:0:0:0:
63,190,96007,6,0,L|48:284,2,90.0000034332277,2|2|2,0:0|0:0|0:0,0:0:0:0:
77,82,97007,2,0,P|103:44|154:23,2,90.0000034332277,2|2|2,0:0|0:0|0:0,0:0:0:0:
174,128,98007,5,2,0:1:0:0:
325,71,98507,1,2,0:1:0:0:
457,163,99007,1,2,0:1:0:0:
305,221,99507,1,2,0:1:0:0:
151,168,100007,6,0,P|84:164|29:198,1,120,2|2,0:1|0:1,0:0:0:0:
112,271,100674,1,2,0:1:0:0:
63,368,101007,2,0,P|177:358|219:250,1,240,2|2,0:1|0:1,3:0:0:0:
195,148,102007,5,2,0:1:0:0:
267,67,102341,1,2,0:1:0:0:
374,54,102674,2,0,L|446:45,2,60,2|0|2,0:1|0:0|0:1,0:0:0:0:
435,142,103341,2,0,P|462:193|454:258,1,120,2|2,0:1|0:1,0:0:0:0:
354,216,104007,54,0,L|234:228,1,120,2|2,0:1|0:1,0:0:0:0:
153,300,104674,1,2,0:1:0:0:
131,194,105007,2,0,P|163:144|225:119,1,120,2|2,0:1|0:1,0:0:0:0:
319,86,105674,2,0,L|312:156,1,60,2|0,0:1|0:0,0:0:0:0:
256,107,108007,38,0,P|235:129|224:156,1,60,2|2,0:1|0:1,0:0:0:0:
169,144,108340,2,0,P|162:174|165:203,1,60,2|2,0:1|0:1,0:0:0:0:
114,221,108674,2,0,P|122:250|140:274,1,60,2|2,0:1|0:1,0:0:0:0:
103,313,109007,6,0,B|234:298|234:298|272:332,1,180,2|2,0:1|0:1,3:0:0:0:
310,365,109674,2,0,L|376:358,1,60,2|2,0:1|0:1,0:0:0:0:
423,354,110007,37,2,0:1:0:0:
488,205,110507,1,2,0:1:0:0:
376,87,111007,1,2,0:1:0:0:
378,195,111341,2,0,P|319:179|280:135,1,120,2|2,0:1|0:1,0:0:0:0:
237,37,112007,5,6,0:1:0:0:
256,192,112174,12,0,116007,0:0:0:0:
