osu file format v14

[General]
AudioFilename: windyfairy.mp3
AudioLeadIn: 2000
PreviewTime: 24007
Countdown: 0
SampleSet: Soft
StackLeniency: 0.7
Mode: 0
LetterboxInBreaks: 1
EpilepsyWarning: 1
WidescreenStoryboard: 1

[Editor]
DistanceSpacing: 1.2
BeatDivisor: 4
GridSize: 32
TimelineZoom: 3.699999

[Metadata]
Title:Windy Fairy
TitleUnicode:Windy Fairy
Artist:DJ TOTTO
ArtistUnicode:DJ TOTTO
Creator:pandorawindy
Version:Hyper
Source:jubeat saucer
Tags:reflec beat colette spring konami bemani DanceDanceRevolution ddr alacat
BeatmapID:669358
BeatmapSetID:298245

[Difficulty]
HPDrainRate:5
CircleSize:4
OverallDifficulty:6
ApproachRate:7.5
SliderMultiplier:1.6
SliderTickRate:2

[Events]
//Background and Video events
0,0,"bg.jpg",0,0
//Break Periods
//Storyboard Layer 0 (Background)
//Storyboard Layer 1 (Fail)
//Storyboard Layer 2 (Pass)
//Storyboard Layer 3 (Foreground)
//Storyboard Sound Samples

[TimingPoints]
8,333.333333333333,4,2,1,50,1,0
8,-133.333333333333,4,2,1,50,0,0
6007,-200,4,2,1,50,0,0
8007,-100,4,2,1,70,0,0
15007,-200,4,2,1,70,0,0
16174,-100,4,2,1,70,0,0
23007,-133.333333333333,4,2,1,70,0,0
24007,-100,4,2,1,80,0,0
40007,-100,4,2,1,70,0,1
47841,-100,4,2,1,100,0,0
48007,-100,4,2,1,70,0,1
55674,-133.333333333333,4,2,1,70,0,0
56007,-133.333333333333,4,2,1,60,0,0
58007,-100,4,2,1,60,0,0
60007,-133.333333333333,4,2,1,60,0,0
62007,-100,4,2,1,60,0,0
64007,-133.333333333333,4,2,1,60,0,0
66007,-100,4,2,1,60,0,0
68007,-100,4,2,1,60,0,0
74174,-100,4,2,1,15,0,0
76007,-100,4,2,1,70,0,1
83841,-100,4,2,1,70,0,0
84007,-100,4,2,1,70,0,1
91007,-133.333333333333,4,2,1,70,0,1
91674,-200,4,2,1,70,0,0
92007,-200,4,2,1,80,0,0
98007,-133.333333333333,4,2,1,80,0,0
100007,-100,4,2,1,80,0,0
106007,-100,4,2,1,15,0,0
108007,-100,4,2,1,80,0,0
112174,-100,4,2,1,15,0,0
116007,-100,4,2,1,5,0,0

[Colours]
Combo1 : 153,153,153
Combo2 : 131,223,229
Combo3 : 236,186,186
Combo4 : 223,131,229
Combo5 : 62,62,62

[HitObjects]
86,51,8,54,0,B|123:163|123:163|140:132|176:122,1,180.000006866455,2|0,0:0|0:0,0:0:0:0:
195,208,674,2,0,L|214:268,1,60.0000022888184
293,225,1007,2,0,P|403:241|416:353,1,240.000009155274,2|0,0:0|0:0,0:0:0:0:
159,329,2007,6,0,L|337:304,1,180.000006866455,2|0,0:0|0:0,0:0:0:0:
308,168,2674,2,0,P|295:195|293:225,1,60.0000022888184
381,217,3007,1,2,0:0:0:0:
421,78,3341,1,2,0:0:0:0:
287,23,3674,1,2,0:0:0:0:
32,172,4007,54,0,P|84:103|170:108,1,180.000006866455,2|0,0:0|0:0,0:0:0:0:
135,243,4674,2,0,L|122:185,1,60.0000022888184
212,188,5007,1,2,0:0:0:0:
386,249,5674,1,0,0:0:0:0:
382,339,6007,6,0,P|459:195|300:222,1,400,2|0,0:0|0:0,0:0:0:0:
73,118,8007,5,2,0:1:0:0:
149,59,8174,1,0,0:0:0:0:
149,59,8257,1,0,0:0:0:0:
149,59,8341,2,0,L|168:141,1,80
193,229,8674,2,0,B|217:209|217:209|275:209,1,80
338,271,9007,6,0,P|314:164|415:107,1,240,2|0,0:1|0:0,0:0:0:0:
481,202,9674,2,0,L|401:202,1,80
249,99,10007,1,2,0:1:0:0:
89,186,10341,6,0,B|114:206|114:206|107:253,1,80
33,314,10674,2,0,B|8:294|8:294|14:246,1,80
192,297,11007,1,2,0:1:0:0:
286,315,11174,2,0,L|333:322,2,40
256,223,11507,2,0,P|281:151|357:124,1,160,2|2,0:1|0:1,0:0:0:0:
350,219,12007,53,2,0:1:0:0:
438,181,12174,1,0,0:0:0:0:
438,181,12257,1,0,0:0:0:0:
438,181,12341,2,0,P|446:219|431:266,1,80
364,328,12674,2,0,L|286:315,1,80
255,223,13007,6,0,P|210:120|98:133,1,240,2|0,0:1|0:0,0:0:0:0:
145,282,13674,2,0,L|163:204,1,80
99,133,14007,2,0,L|71:250,2,120,2|0|2,0:1|0:0|0:1,0:0:0:0:
182,83,14674,38,0,P|221:84|250:110,1,80,0|2,0:0|0:1,0:0:0:0:
279,202,15007,22,0,B|363:167|341:73|341:73|356:118|396:134,1,240,2|2,0:1|0:1,3:0:0:0:
482,166,16174,54,0,P|489:145|486:116,2,40,0|0|2,0:0|0:0|0:1,0:0:0:0:
407,226,16507,1,0,0:0:0:0:
424,320,16674,2,0,P|383:320|350:302,1,80,2|0,0:1|0:0,0:0:0:0:
265,255,17007,6,0,B|149:272|149:272|193:289,1,160,2|2,0:1|0:1,0:0:0:0:
226,173,17507,1,0,0:0:0:0:
131,189,17674,2,0,L|42:201,1,80,2|0,0:1|0:0,0:0:0:0:
8,113,18007,2,0,P|59:54|137:50,1,160,2|2,0:1|0:1,0:0:0:0:
229,76,18507,1,0,0:0:0:0:
315,34,18674,38,0,L|337:125,1,80,2|0,0:1|0:0,0:0:0:0:
357,205,19007,1,2,0:1:0:0:
446,170,19174,1,0,0:0:0:0:
446,170,19257,1,0,0:0:0:0:
446,170,19341,2,0,B|469:189|469:189|460:247,1,80,2|0,0:1|0:0,0:0:0:0:
372,273,19674,2,0,B|349:254|349:254|356:204,1,80,2|0,0:1|0:0,0:0:0:0:
224,174,20007,5,2,0:1:0:0:
154,240,20174,1,2,0:1:0:0:
154,240,20257,1,0,0:0:0:0:
154,240,20341,2,0,L|176:321,1,80,2|2,0:1|0:1,0:0:0:0:
270,331,20674,2,0,L|248:254,1,80,2|2,0:1|0:1,0:0:0:0:
129,151,21007,2,0,L|52:172,1,80,2|2,0:1|0:1,0:0:0:0:
224,174,21341,6,0,L|301:153,1,80,2|2,0:1|0:1,0:0:0:0:
341,64,21674,2,0,P|374:86|390:121,1,80,2|2,0:1|0:1,0:0:0:0:
372,217,22007,2,0,P|448:203|487:136,1,160,2|2,0:1|0:1,0:0:0:0:
280,246,22507,2,0,P|329:305|407:305,1,160,2|2,0:1|0:1,0:0:0:0:
306,141,23007,38,0,B|218:127|179:209|179:209|140:185|91:191,1,240.000009155274,2|2,0:1|0:1,3:0:0:0:
178,372,24007,6,0,P|170:299|97:266,1,160,6|2,2:0|2:0,2:0:0:0:
4,291,24507,1,0,0:0:0:0:
27,197,24674,2,0,L|107:173,1,80,2|0,0:0|0:0,0:0:0:0:
170,104,25007,6,0,B|282:66|282:66|271:112,1,160,2|2,0:0|0:0,0:0:0:0:
275,298,25674,2,0,P|208:261|211:185,1,160,2|2,0:0|0:0,0:0:0:0:
403,40,26341,38,0,B|374:57|374:57|384:110,1,80,2|0,0:0|0:0,0:0:0:0:
456,163,26674,2,0,B|485:180|485:180|475:233,1,80,2|0,0:0|0:0,0:0:0:0:
458,320,27007,1,2,0:0:0:0:
367,351,27174,1,0,0:0:0:0:
367,351,27257,1,0,0:0:0:0:
367,351,27341,6,0,L|282:332,1,80,2|0,0:0|0:0,0:0:0:0:
156,235,27674,2,0,L|234:253,1,80,2|0,0:0|0:0,0:0:0:0:
131,327,28007,6,0,P|71:277|68:198,1,160,6|2,0:0|0:0,0:0:0:0:
142,139,28507,1,0,0:0:0:0:
90,57,28674,2,0,L|172:44,1,80,2|0,0:0|0:0,0:0:0:0:
310,88,29007,37,2,2:0:0:0:
279,93,29341,1,2,2:0:0:0:
248,98,29674,1,2,2:0:0:0:
412,82,30007,5,2,0:0:0:0:
371,161,30174,1,0,0:0:0:0:
432,221,30341,1,2,0:0:0:0:
393,297,30507,1,0,0:0:0:0:
456,357,30674,1,2,0:0:0:0:
328,237,31007,5,2,0:0:0:0:
268,300,31174,1,0,0:0:0:0:
191,260,31341,1,2,0:0:0:0:
132,321,31507,1,0,0:0:0:0:
53,281,31674,1,2,0:0:0:0:
48,95,32007,38,0,B|64:75|70:50|70:50|56:113|103:155,1,160,6|2,0:0|0:0,0:0:0:0:
163,80,32507,1,0,0:0:0:0:
258,69,32674,2,0,L|342:59,1,80,2|0,0:0|0:0,0:0:0:0:
426,23,33007,6,0,P|360:64|362:144,1,160,2|2,0:0|0:0,0:0:0:0:
418,323,33674,2,0,P|483:281|481:201,1,160,2|2,0:0|0:0,0:0:0:0:
176,189,34341,6,0,L|185:268,1,80,2|0,0:0|0:0,0:0:0:0:
26,328,34674,2,0,P|52:299|91:289,1,80,2|0,0:0|0:0,0:0:0:0:
155,360,35007,1,2,0:0:0:0:
249,340,35174,1,0,0:0:0:0:
249,340,35257,1,0,0:0:0:0:
249,340,35341,38,0,L|330:320,1,80,2|0,0:0|0:0,0:0:0:0:
420,297,35674,2,0,P|421:336|405:373,1,80,2|0,0:0|0:0,0:0:0:0:
389,205,36007,6,0,B|501:177|501:177|477:215,1,160,6|2,0:0|0:0,0:0:0:0:
407,110,36507,1,0,0:0:0:0:
316,142,36674,2,0,L|238:161,1,80,2|0,0:0|0:0,0:0:0:0:
97,192,37007,5,2,2:0:0:0:
92,161,37341,1,2,2:0:0:0:
87,130,37674,1,2,2:0:0:0:
44,270,38007,37,2,0:0:0:0:
128,303,38174,1,0,0:0:0:0:
180,234,38341,1,2,0:0:0:0:
260,267,38507,1,0,0:0:0:0:
314,198,38674,1,2,0:0:0:0:
453,305,39007,5,2,0:0:0:0:
385,250,39174,1,0,0:0:0:0:
415,171,39341,1,2,0:0:0:0:
349,117,39507,1,0,0:0:0:0:
380,35,39674,1,2,0:0:0:0:
114,114,40007,6,0,P|150:51|238:40,1,160,6|2,0:1|0:1,0:0:0:0:
207,130,40507,1,0,0:0:0:0:
185,223,40674,2,0,L|164:304,1,80,2|0,0:1|0:0,0:0:0:0:
90,207,41007,37,2,0:1:0:0:
268,368,41341,1,2,0:1:0:0:
494,293,41674,1,2,0:1:0:0:
317,134,42007,1,2,0:1:0:0:
194,348,42341,6,0,B|219:368|219:368|268:368,1,80,2|0,0:1|0:0,0:0:0:0:
341,272,42674,2,0,B|317:253|317:253|268:253,1,80,2|0,0:1|0:0,0:0:0:0:
171,253,43007,1,2,0:1:0:0:
147,159,43174,1,0,0:0:0:0:
147,159,43257,1,0,0:0:0:0:
147,159,43341,6,0,L|227:159,1,80,2|0,0:1|0:0,0:0:0:0:
341,83,43674,2,0,P|323:118|322:158,1,80,2|0,0:1|0:0,0:0:0:0:
416,142,44007,38,0,P|484:173|508:253,1,160,6|2,0:1|0:1,0:0:0:0:
412,239,44507,1,0,0:0:0:0:
451,326,44674,2,0,L|365:326,1,80,2|0,0:1|0:0,0:0:0:0:
286,371,45007,5,2,0:1:0:0:
100,318,45341,1,2,0:1:0:0:
240,187,45674,1,2,0:1:0:0:
473,220,46007,5,2,1:1:0:0:
447,139,46174,1,0,0:0:0:0:
420,57,46340,1,2,0:1:0:0:
338,84,46507,1,0,0:0:0:0:
256,110,46674,1,2,0:1:0:0:
256,273,47007,37,2,1:1:0:0:
173,299,47174,1,0,0:0:0:0:
91,326,47341,1,2,0:1:0:0:
64,245,47507,1,0,0:0:0:0:
38,163,47674,1,2,0:1:0:0:
171,71,48007,6,0,B|189:30|189:30|80:70,1,160,6|2,0:1|0:1,0:0:0:0:
38,163,48507,1,0,0:0:0:0:
141,154,48674,2,0,L|168:230,1,80,2|0,0:1|0:0,0:0:0:0:
171,326,49007,5,2,0:1:0:0:
265,106,49341,1,2,0:1:0:0:
502,78,49674,1,2,0:1:0:0:
409,297,50007,1,2,0:1:0:0:
360,110,50341,38,0,B|378:190,1,80,2|0,0:1|0:0,0:0:0:0:
409,297,50674,2,0,P|373:277|330:277,1,80,2|0,0:1|0:0,0:0:0:0:
244,308,51007,1,2,0:1:0:0:
216,215,51174,1,0,0:0:0:0:
216,215,51257,1,0,0:0:0:0:
216,215,51341,6,0,B|198:136,1,80,2|0,0:1|0:0,0:0:0:0:
112,91,51674,2,0,P|136:59|173:44,1,80,2|0,0:1|0:0,0:0:0:0:
266,67,52007,6,0,B|291:174|291:174|340:193,1,160,6|2,0:1|0:1,0:0:0:0:
427,227,52507,1,0,0:0:0:0:
497,161,52674,2,0,L|422:132,1,80,2|0,0:1|0:0,0:0:0:0:
393,40,53007,37,2,0:1:0:0:
345,226,53341,1,2,0:1:0:0:
207,90,53674,1,2,0:1:0:0:
38,163,54007,5,2,1:1:0:0:
64,245,54174,1,0,0:0:0:0:
91,326,54340,1,2,0:1:0:0:
173,299,54507,1,0,0:0:0:0:
256,273,54674,1,2,0:1:0:0:
256,110,55007,5,2,1:1:0:0:
338,84,55174,1,0,0:0:0:0:
420,57,55341,1,2,0:1:0:0:
447,139,55507,1,0,0:0:0:0:
473,220,55674,1,2,0:1:0:0:
256,304,56007,38,0,B|371:272|371:272|392:213|392:213|336:228,1,240.000009155274,0|0,1:0|0:0,0:0:0:0:
175,155,57007,2,0,B|119:170|119:170|140:111|140:111|256:80,1,240.000009155274,8|0,0:1|0:0,0:0:0:0:
444,43,58007,6,0,P|439:82|415:113,1,80,2|0,0:0|0:0,0:0:0:0:
492,171,58341,2,0,P|464:198|426:208,1,80,2|0,0:0|0:0,0:0:0:0:
463,296,58674,2,0,P|425:306|387:295,1,80,2|0,0:0|0:0,0:0:0:0:
332,373,59007,6,0,P|291:308|312:234,2,160,8|0|0,0:1|0:0|0:0,0:0:0:0:
367,153,60007,38,0,B|211:113|211:113|250:143|256:189,1,240.000009155274,0|0,1:0|0:0,0:0:0:0:
47,251,61007,2,0,P|101:162|186:230,1,240.000009155274,8|0,0:1|0:0,0:0:0:0:
371,258,62007,6,0,L|388:336,1,80,2|0,0:0|0:0,0:0:0:0:
404,166,62341,2,0,L|421:244,1,80,2|0,0:0|0:0,0:0:0:0:
440,79,62674,2,0,L|457:157,1,80,2|0,0:0|0:0,0:0:0:0:
323,103,63007,6,0,B|214:127|214:127|196:174,2,160,8|0|0,0:1|0:0|0:0,0:0:0:0:
165,263,64007,38,0,P|63:249|78:356,1,240.000009155274,0|0,1:0|0:0,0:0:0:0:
346,263,65007,2,0,P|449:249|437:353,1,240.000009155274,8|0,0:1|0:0,0:0:0:0:
187,156,66007,6,0,P|174:118|183:79,1,80,2|0,0:0|0:0,0:0:0:0:
327,152,66341,2,0,P|301:181|263:192,1,80,2|0,0:0|0:0,0:0:0:0:
256,36,66674,2,0,P|294:42|323:70,1,80,2|0,0:0|0:0,0:0:0:0:
256,116,67007,6,0,L|91:116,2,160,2|0|0,0:0|0:0|0:0,0:0:0:0:
15,168,68007,38,2,P|7:192|7:220,2,53.3333333333333,2|0|0,0:0|0:0|0:0,0:0:0:0:
84,208,68341,2,2,P|89:232|103:257,2,53.3333333333333,2|0|0,0:0|0:0|0:0,0:0:0:0:
163,205,68674,2,2,P|179:223|204:237,2,53.3333333333333,2|0|0,0:0|0:0|0:0,0:0:0:0:
230,162,69007,5,2,0:0:0:0:
306,137,69174,1,2,0:0:0:0:
384,153,69341,1,2,0:0:0:0:
443,207,69507,1,2,0:0:0:0:
467,283,69674,1,2,0:0:0:0:
451,361,69841,1,2,0:0:0:0:
391,308,70007,6,2,P|378:331|359:349,2,53.3333333333333,2|0|0,0:0|0:0|0:0,0:0:0:0:
313,288,70340,2,2,P|290:301|264:308,2,53.3333333333333,2|0|0,0:0|0:0|0:0,0:0:0:0:
258,228,70674,2,2,P|231:228|206:221,2,53.3333333333333,2|0|0,0:0|0:0|0:0,0:0:0:0:
241,149,71007,37,2,0:0:0:0:
165,124,71174,1,2,0:0:0:0:
87,140,71341,1,2,0:0:0:0:
28,194,71507,1,2,0:0:0:0:
4,270,71674,1,2,0:0:0:0:
20,348,71841,1,2,0:0:0:0:
81,296,72007,6,2,L|124:256,2,53.3333333333333,2|0|0,0:0|0:0|0:0,0:0:0:0:
152,333,72341,2,2,L|188:372,2,53.3333333333333,2|0|0,0:0|0:0|0:0,0:0:0:0:
226,304,72674,2,2,L|269:264,2,53.3333333333333,2|0|0,0:0|0:0|0:0,0:0:0:0:
192,230,73007,6,2,L|156:191,2,53.3333333333333,2|0|0,0:0|0:0|0:0,0:0:0:0:
228,159,73341,2,2,L|271:119,2,53.3333333333333,2|0|0,0:0|0:0|0:0,0:0:0:0:
299,196,73675,2,2,P|332:221|376:226,1,80,2|0,0:0|0:0,0:0:0:0:
369,131,74007,1,6,0:0:0:0:
256,192,74174,12,0,75674,0:0:0:0:
148,98,76007,38,0,L|179:264,1,160,2|2,0:1|0:1,0:0:0:0:
257,308,76507,1,0,0:0:0:0:
260,211,76674,2,0,P|299:221|331:248,1,80,2|0,0:1|0:0,0:0:0:0:
347,340,77007,2,0,B|462:314|462:314|434:349,1,160,2|2,0:1|0:1,0:0:0:0:
461,118,77674,6,0,P|480:154|480:195,1,80,2|0,0:1|0:0,0:0:0:0:
385,178,78007,2,0,P|333:119|253:122,1,160,2|2,0:1|0:1,0:0:0:0:
294,208,78507,1,0,0:0:0:0:
198,196,78674,2,0,B|112:186,1,80,2|0,0:1|0:0,0:0:0:0:
62,264,79007,1,2,0:1:0:0:
62,264,79341,6,0,B|82:285|82:285|75:335,1,80,2|0,0:1|0:0,0:0:0:0:
28,173,79674,2,0,B|8:152|8:152|15:99,1,80,2|2,0:1|0:1,0:0:0:0:
92,44,80007,38,0,L|144:49,4,40,2|0|0|0|2,0:1|0:0|0:0|0:0|0:1,0:0:0:0:
114,137,80507,1,0,0:0:0:0:
206,109,80674,2,0,L|293:118,1,80,2|0,0:1|0:0,0:0:0:0:
352,186,81007,6,0,L|347:238,4,40,2|0|0|0|2,0:1|0:0|0:0|0:0|0:1,0:0:0:0:
259,208,81507,1,0,0:0:0:0:
287,300,81674,2,0,L|278:387,1,80,2|0,0:1|0:0,0:0:0:0:
195,331,82007,6,0,B|89:319|89:319|117:310|133:289,1,160,2|2,0:1|0:1,1:0:0:0:
58,227,82507,2,0,L|79:57,1,160,2|2,0:1|0:1,1:0:0:0:
173,75,83007,1,2,0:1:0:0:
363,45,83341,38,0,P|395:66|414:101,1,80,2|2,0:1|0:1,1:0:0:0:
287,221,83674,2,0,P|254:197|235:162,1,80,2|2,0:1|0:1,1:0:0:0:
325,134,84007,6,0,B|451:118|451:118|432:153,1,160,2|2,0:1|0:1,0:0:0:0:
389,231,84507,1,0,0:0:0:0:
441,311,84674,2,0,L|346:323,1,80,2|0,0:1|0:0,0:0:0:0:
267,343,85007,2,0,P|231:276|154:262,1,160,2|2,0:1|0:1,0:0:0:0:
155,263,85674,6,0,L|182:188,1,80,2|0,0:1|0:0,0:0:0:0:
164,92,86007,2,0,B|270:131|270:131|316:114,1,160,2|2,0:1|0:1,0:0:0:0:
404,81,86507,1,0,0:0:0:0:
474,145,86674,2,0,L|399:174,1,80,2|0,0:1|0:0,0:0:0:0:
310,210,87007,1,2,0:1:0:0:
310,210,87341,38,0,P|330:244|364:263,1,80,2|0,0:1|0:0,0:0:0:0:
213,197,87674,2,0,P|214:236|234:270,1,80,2|2,0:1|0:1,0:3:0:0:
220,101,88007,6,0,P|144:128|116:197,1,160,2|2,0:1|0:1,0:0:0:0:
122,293,88507,1,0,0:0:0:0:
205,340,88674,2,0,L|287:325,1,80,2|0,0:1|0:0,0:0:0:0:
375,354,89007,6,0,B|355:249|355:249|372:273|397:282,1,160,2|2,0:1|0:1,0:0:0:0:
434,193,89507,1,0,0:0:0:0:
345,154,89674,2,0,L|264:169,1,80,2|0,0:1|0:0,0:0:0:0:
177,132,90007,2,0,P|111:119|42:174,1,160,2|2,0:1|0:1,0:0:0:0:
51,355,90674,37,2,0:1:0:0:
51,355,90841,1,2,0:1:0:0:
51,355,91007,2,0,B|80:349|99:323|99:323|206:368|163:289|277:332,1,240.000009155274,2|2,0:1|0:1,3:0:0:0:
423,359,92007,6,0,P|425:299|390:248,1,120,2|0,0:0|0:0,0:0:0:0:
315,231,92674,2,0,L|264:242,1,40,2|0,0:0|0:0,0:0:0:0:
198,217,93007,2,0,P|146:158|159:79,1,160,2|0,0:0|0:0,0:0:0:0:
356,102,94007,6,0,L|240:130,1,120,2|0,0:0|0:0,0:0:0:0:
236,49,94674,2,0,L|283:38,1,40,2|0,0:0|0:0,0:0:0:0:
353,23,95007,2,0,P|407:41|435:99,1,120,2|0,0:0|0:0,0:0:0:0:
420,173,95674,2,0,L|408:226,1,40,2|0,0:0|0:0,0:0:0:0:
449,282,96007,38,2,L|468:287,4,20
380,323,96507,1,0,0:0:0:0:
302,305,96674,2,0,L|255:292,1,40,2|0,0:0|0:0,0:0:0:0:
197,339,97007,6,2,L|191:358,4,20
156,270,97507,1,0,0:0:0:0:
174,192,97674,2,0,L|186:145,1,40,2|0,0:0|0:0,0:0:0:0:
303,137,98007,6,0,B|430:115|430:115|389:152,1,180.000006866455,2|2,0:1|0:1,0:0:0:0:
372,363,99007,2,0,B|350:235|350:235|387:276,1,180.000006866455,2|2,0:1|0:1,0:0:0:0:
270,175,100007,6,0,L|191:190,1,80,2|0,0:1|0:0,0:0:0:0:
171,35,100341,2,0,P|191:69|191:109,1,80,2|0,0:1|0:0,0:0:0:0:
33,105,100674,2,0,L|112:90,1,80,2|0,0:1|0:0,0:0:0:0:
89,183,101007,2,0,P|104:327|252:327,1,320,2|2,0:1|0:1,3:0:0:0:
299,141,102007,6,0,L|320:218,1,80,2|0,0:1|0:3,0:3:0:0:
470,175,102341,2,0,L|392:154,1,80,2|0,0:1|0:3,0:3:0:0:
355,307,102674,2,0,L|411:250,2,80,2|0|2,0:1|0:3|0:1,0:3:0:0:
191,206,103341,1,2,0:1:0:0:
275,33,103674,1,2,0:1:0:0:
120,59,104007,54,0,P|140:93|174:112,1,80,2|0,0:1|0:0,0:0:0:0:
116,188,104340,2,0,P|151:206|191:206,1,80,2|0,0:1|0:3,0:3:0:0:
179,302,104674,2,0,P|218:300|252:280,1,80,2|0,0:1|0:3,0:3:0:0:
284,189,105007,6,0,P|329:128|410:124,1,160,2|2,0:1|0:1,0:0:0:0:
375,213,105507,1,0,0:0:0:0:
470,198,105674,2,0,L|485:283,1,80,2|0,0:1|0:0,0:0:0:0:
256,192,106007,12,0,107674,0:0:0:0:
72,46,108007,6,0,P|34:60|7:95,1,80,2|2,0:1|0:1,0:0:0:0:
93,139,108341,2,0,P|67:170|62:214,1,80,2|2,0:1|0:1,0:0:0:0:
157,209,108674,2,0,P|150:248|167:289,1,80,2|2,0:1|0:1,0:0:0:0:
248,236,109008,5,2,0:1:0:0:
340,203,109174,1,2,0:1:0:0:
432,228,109341,1,2,0:1:0:0:
492,305,109508,1,2,0:1:0:0:
397,319,109674,2,0,L|317:329,1,80,2|2,0:1|0:1,1:0:0:0:
221,338,110007,6,0,P|164:279|89:282,1,160,2|0,0:1|0:0,0:0:0:0:
38,200,110507,2,0,B|57:95|57:95|64:123|84:141,1,160,2|0,0:1|0:0,0:0:0:0:
151,72,111007,2,0,L|317:102,1,160,2|2,0:1|0:1,0:0:0:0:
442,238,111674,1,2,0:1:0:0:
256,192,112007,37,6,0:1:0:0:
256,192,112174,12,0,116007,0:0:0:0:
