osu file format v14

[General]
AudioFilename: windyfairy.mp3
AudioLeadIn: 2000
PreviewTime: 24007
Countdown: 0
SampleSet: Soft
StackLeniency: 0.7
Mode: 0
LetterboxInBreaks: 1
EpilepsyWarning: 1
WidescreenStoryboard: 1

[Editor]
DistanceSpacing: 1
BeatDivisor: 4
GridSize: 32
TimelineZoom: 1.3

[Metadata]
Title:Windy Fairy
TitleUnicode:Windy Fairy
Artist:DJ TOTTO
ArtistUnicode:DJ TOTTO
Creator:pandorawindy
Version:Beginner
Source:jubeat saucer
Tags:reflec beat colette spring konami bemani DanceDanceRevolution ddr alacat
BeatmapID:675999
BeatmapSetID:298245

[Difficulty]
HPDrainRate:3
CircleSize:3
OverallDifficulty:3
ApproachRate:4
SliderMultiplier:0.8
SliderTickRate:1

[Events]
//Background and Video events
0,0,"bg.jpg",0,0
//Break Periods
2,91873,96687
//Storyboard Layer 0 (Background)
//Storyboard Layer 1 (Fail)
//Storyboard Layer 2 (Pass)
//Storyboard Layer 3 (Foreground)
//Storyboard Sound Samples

[TimingPoints]
8,333.333333333333,4,2,1,50,1,0
8007,-100,4,2,1,70,0,0
24007,-100,4,2,1,80,0,0
30007,-100,4,2,2,80,0,0
32007,-100,4,2,1,80,0,0
38007,-100,4,2,2,80,0,0
40007,-100,4,2,1,70,0,1
47841,-100,4,2,1,70,0,0
48007,-100,4,2,1,70,0,1
55674,-100,4,2,1,70,0,0
56007,-100,4,2,1,60,0,0
76007,-100,4,2,1,70,0,1
83841,-100,4,2,1,70,0,0
84007,-100,4,2,1,70,0,1
91674,-100,4,2,1,70,0,0
99007,-100,4,2,1,80,0,0
112174,-100,4,2,1,15,0,0
116007,-100,4,2,1,5,0,0

[Colours]
Combo1 : 153,153,153
Combo2 : 131,223,229
Combo3 : 236,186,186
Combo4 : 223,131,229
Combo5 : 62,62,62

[HitObjects]
28,176,8,54,0,P|53:103|130:89,1,160,2|0,0:0|0:0,0:0:0:0:
107,165,1007,1,2,0:0:0:0:
184,305,1674,1,0,0:0:0:0:
261,326,2007,6,0,L|419:277,1,160,2|0,0:0|0:0,0:0:0:0:
490,256,3007,2,0,P|491:297|466:339,2,80,2|2|2,0:0|0:0|0:0,0:0:0:0:
452,185,4007,54,0,B|348:217|348:217|369:193|371:164,1,160,2|0,0:0|0:0,0:0:0:0:
290,160,5007,2,0,P|214:147|165:206,1,160,2|0,0:0|0:0,0:0:0:0:
243,223,6007,1,2,0:0:0:0:
256,272,8007,22,0,L|256:192,1,80,2|0,0:1|0:0,0:0:0:0:
291,119,8674,1,0,0:0:0:0:
371,115,9007,2,0,P|427:165|411:240,1,160,2|0,0:1|0:0,0:0:0:0:
376,313,10007,22,0,L|458:332,2,80,2|0|0,0:1|0:0|0:0,0:0:0:0:
297,329,11007,2,0,L|219:310,2,80,2|0|0,0:1|0:0|0:0,0:0:0:0:
319,252,12007,54,0,L|339:170,1,80,2|0,0:1|0:0,0:0:0:0:
296,105,12674,1,0,0:0:0:0:
218,125,13007,2,0,P|237:50|310:25,1,160,2|0,0:1|0:0,0:0:0:0:
371,78,14007,54,0,L|491:107,2,120,2|2|2,0:1|0:1|0:1,0:0:0:0:
371,158,15341,2,0,P|352:232|278:253,1,160,0|2,0:0|0:1,0:0:0:0:
200,235,16341,6,0,L|127:283,1,80,2|2,0:1|0:1,0:0:0:0:
87,214,17007,2,0,B|22:117|22:117|70:129,1,160,2|2,0:1|0:1,0:0:0:0:
145,130,18007,2,0,P|184:127|218:104,1,80,2|2,0:1|0:1,0:0:0:0:
279,54,18674,5,2,0:1:0:0:
355,31,19007,2,0,P|394:33|428:56,2,80,2|2|2,0:1|0:1|0:1,0:0:0:0:
369,109,20007,1,2,0:1:0:0:
354,187,20341,2,0,L|337:281,1,80,2|2,0:1|0:1,0:0:0:0:
364,341,21007,2,0,L|447:355,2,80,2|2|2,0:1|0:1|0:1,0:0:0:0:
285,324,22007,54,0,B|253:277|253:277|147:258,1,160,2|0,0:1|0:0,0:0:0:0:
94,201,23007,2,0,P|106:126|181:100,1,160,2|0,0:1|0:0,0:0:0:0:
256,116,24007,6,0,L|255:208,1,80,6|0,0:0|0:0,0:0:0:0:
306,257,24673,1,0,0:0:0:0:
360,198,25007,2,0,P|382:230|385:270,1,80,2|2,0:0|0:0,0:0:0:0:
335,333,25674,2,0,L|245:347,1,80,2|2,0:0|0:0,0:0:0:0:
176,356,26341,38,0,P|137:354|103:331,2,80
162,277,27341,2,0,L|149:197,1,80,2|0,0:0|0:0,0:0:0:0:
154,118,28007,2,0,P|208:57|283:62,1,160,2|0,0:0|0:0,0:0:0:0:
356,87,29007,2,0,L|442:58,2,80,2|2|2,0:0|0:0|0:0,0:0:0:0:
295,140,30007,22,0,B|279:260|279:260|312:223,1,160,2|0,0:0|0:0,0:0:0:0:
378,199,31007,2,0,B|403:169|403:169|387:289,1,160,2|0,0:0|0:0,0:0:0:0:
338,352,32007,38,0,L|258:340,1,80,6|0,0:0|0:0,0:0:0:0:
188,302,32674,1,0,0:0:0:0:
134,361,33008,2,0,P|111:328|108:288,1,80,2|2,0:0|0:0,0:0:0:0:
159,226,33675,2,0,L|249:212,1,80,2|2,0:0|0:0,0:0:0:0:
305,170,34341,6,0,L|387:157,2,80
233,133,35341,2,0,P|213:100|216:54,1,80,2|0,0:0|0:0,0:0:0:0:
291,79,36007,2,0,L|448:53,1,160,2|0,0:0|0:0,0:0:0:0:
472,129,37007,2,0,P|473:168|452:202,1,80,2|2,0:0|0:0,0:0:0:0:
386,247,37674,1,2,0:0:0:0:
314,210,38007,54,0,P|238:197|190:256,1,160,2|0,0:0|0:0,0:0:0:0:
268,274,39007,2,0,P|219:333|144:320,1,160,2|0,0:0|0:0,0:0:0:0:
111,247,40007,6,0,L|102:166,1,80,6|2,0:1|0:1,0:0:0:0:
152,105,40673,1,2,0:1:0:0:
214,155,41007,2,0,P|247:175|293:172,1,80,2|2,0:1|0:1,0:0:0:0:
364,152,41674,2,0,P|403:150|437:171,1,80,2|2,0:1|0:1,0:0:0:0:
383,229,42341,6,0,L|363:308,2,80,2|2|2,0:1|0:1|0:1,0:0:0:0:
302,228,43341,2,0,L|223:208,1,80,2|2,0:1|0:1,0:0:0:0:
161,159,44007,2,0,P|83:156|41:220,1,160,6|2,0:1|0:1,0:0:0:0:
120,227,45007,2,0,L|135:315,2,80,2|2|2,0:1|0:1|0:1,0:0:0:0:
200,230,46007,54,0,B|310:211|310:211|339:172,1,160,2|2,0:1|0:1,0:0:0:0:
345,92,47007,2,0,B|374:53|374:53|484:34,1,160,2|2,0:1|0:1,0:0:0:0:
479,114,48007,6,0,L|471:204,1,80,6|2,0:1|0:1,0:0:0:0:
502,267,48673,1,2,0:1:0:0:
461,336,49007,2,0,P|430:310|420:272,1,80,2|2,0:1|0:1,0:0:0:0:
356,224,49674,2,0,L|266:216,1,80,2|2,0:1|0:1,0:0:0:0:
202,247,50341,38,0,L|114:239,2,80,2|2|2,0:1|0:1|0:1,0:0:0:0:
212,167,51341,2,0,P|201:128|216:88,1,80,2|2,0:1|0:1,0:0:0:0:
283,130,52007,2,0,L|445:144,1,160,6|2,0:1|0:1,0:0:0:0:
485,211,53007,2,0,P|492:249|477:288,1,80,2|2,0:1|0:1,0:0:0:0:
416,338,53674,1,2,0:1:0:0:
349,294,54007,22,0,L|190:273,1,160,2|2,0:1|0:1,0:0:0:0:
111,261,55007,2,0,P|66:198|94:127,1,160,2|2,0:1|0:1,0:0:0:0:
145,189,56007,38,0,B|246:150|246:150|215:144|195:122,1,160,0|0,1:0|0:0,0:0:0:0:
256,70,57007,1,8,0:1:0:0:
441,198,58007,6,0,P|447:308|339:334,1,240,0|8,1:0|0:1,0:0:0:0:
256,108,60007,6,0,L|256:277,1,160,0|0,1:0|0:0,0:0:0:0:
256,348,61007,1,8,0:1:0:0:
70,198,62007,38,0,P|64:308|172:334,1,240,0|8,1:0|0:1,0:0:0:0:
188,92,64007,6,0,P|256:55|325:94,1,160,0|0,1:0|0:3,0:3:0:0:
256,140,65006,1,8,0:1:0:0:
357,296,66007,6,0,P|255:351|153:298,1,240,0|0,1:0|0:0,0:0:0:0:
46,83,68007,38,2,L|201:47,1,160,2|2,0:1|0:1,0:0:0:0:
256,105,69007,2,2,L|256:189,2,80,2|2|2,0:1|0:1|0:1,0:0:0:0:
311,47,70007,6,2,L|466:83,1,160,2|2,0:1|0:1,0:0:0:0:
431,155,71007,2,2,L|338:133,2,80,2|2|2,0:1|0:1|0:1,0:0:0:0:
458,230,72007,6,2,P|273:338|209:144,1,480,2|6,0:1|0:0,0:0:0:0:
243,109,76007,38,0,L|253:188,1,80,2|2,0:1|0:1,0:0:0:0:
305,248,76674,1,2,0:1:0:0:
362,192,77007,2,0,P|420:142|495:167,1,160,2|2,0:1|0:1,0:0:0:0:
436,222,78007,6,0,L|425:301,1,80,2|2,0:1|0:1,0:0:0:0:
374,363,78674,1,2,0:1:0:0:
317,307,79007,2,0,P|258:257|186:282,1,160,2|2,0:1|0:1,0:0:0:0:
110,306,80007,6,0,L|30:295,2,80,2|2|2,0:1|0:1|0:1,0:0:0:0:
122,226,81007,2,0,L|132:146,2,80,2|2|2,0:1|0:1|0:1,0:0:0:0:
186,273,82007,38,0,P|262:286|310:227,1,160,2|2,0:1|0:1,0:0:0:0:
287,150,83007,2,0,P|335:91|410:104,1,160,2|2,0:1|0:1,0:0:0:0:
454,170,84007,6,0,L|442:263,1,80,2|2,0:1|0:1,0:0:0:0:
481,320,84674,1,2,0:1:0:0:
405,347,85007,2,0,L|245:327,1,160,2|2,0:1|0:1,0:0:0:0:
197,263,86007,6,0,L|209:170,1,80,2|2,0:1|0:1,0:0:0:0:
170,113,86674,1,2,0:1:0:0:
246,86,87007,2,0,L|404:105,1,160,2|2,0:1|0:1,0:0:0:0:
383,183,88007,38,0,P|364:214|358:261,2,80,2|2|2,0:1|0:1|0:1,0:0:0:0:
461,165,89007,2,0,P|480:134|486:87,2,80,2|2|2,0:1|0:1|0:1,0:0:0:0:
404,105,90007,6,0,P|329:90|270:141,1,160,2|2,0:1|0:1,0:0:0:0:
271,221,91007,2,0,P|212:271|136:256,1,160,2|2,0:1|0:1,0:0:0:0:
374,68,98007,54,0,P|383:125|350:183,1,120,2|2,0:1|0:1,0:0:0:0:
239,211,99007,2,0,L|103:193,2,120,2|2|2,0:1|0:1|0:1,0:0:0:0:
301,261,100341,37,2,0:1:0:0:
362,311,100674,2,0,P|400:315|438:299,2,80,2|2|2,0:1|0:1|0:1,0:0:0:0:
390,236,101674,1,2,0:1:0:0:
373,157,102007,6,0,L|359:74,1,80,2|2,0:1|0:1,0:0:0:0:
289,39,102674,1,2,0:1:0:0:
220,79,103007,2,0,L|141:92,2,80,2|2|2,0:1|0:1|0:1,0:0:0:0:
220,159,104007,54,0,P|220:197|244:235,1,80,2|2,0:1|0:1,0:0:0:0:
299,177,104674,2,0,L|377:163,2,80,2|2|2,0:1|0:1|0:1,0:0:0:0:
317,254,105674,1,2,0:1:0:0:
282,223,108007,38,0,L|302:308,2,80,2|2|2,0:1|0:1|0:1,0:0:0:0:
230,161,109007,2,0,L|210:76,2,80,2|2|2,0:1|0:1|0:1,0:0:0:0:
169,213,110007,6,0,L|36:247,2,120,2|2|2,0:1|0:1|0:1,0:0:0:0:
171,293,111341,2,0,P|174:332|197:364,1,80,2|2,0:1|0:1,0:0:0:0:
251,304,112007,37,6,0:1:0:0:
256,192,112174,12,0,116007,2:0:0:0:
