osu file format v14

[General]
AudioFilename: Rb coletteValangaSOUND ONLY.mp3
AudioLeadIn: 0
PreviewTime: 21744
Countdown: 0
SampleSet: Normal
StackLeniency: 0.7
Mode: 0
LetterboxInBreaks: 0
WidescreenStoryboard: 0

[Editor]
DistanceSpacing: 1
BeatDivisor: 4
GridSize: 4
TimelineZoom: 1

[Metadata]
Title:Valanga
TitleUnicode:Valanga
Artist:DJ TOTTO
ArtistUnicode:DJ TOTTO
Creator:RikiH_
Version:Standard (Needs to be remapped)
Source:REFLEC BEAT
Tags:xim Xim_O Asagi ART CORE BEMANI colette -Winter-
BeatmapID:411138
BeatmapSetID:154955

[Difficulty]
HPDrainRate:4
CircleSize:3
OverallDifficulty:4
ApproachRate:6
SliderMultiplier:1.2
SliderTickRate:1

[Events]
//Background and Video events
0,0,"Konachan.com - 205993 sample.jpg",0,0
//Break Periods
//Storyboard Layer 0 (Background)
//Storyboard Layer 1 (Fail)
//Storyboard Layer 2 (Pass)
//Storyboard Layer 3 (Foreground)
//Storyboard Sound Samples

[TimingPoints]
1099,322.58064516129,4,1,0,55,1,0
21421,-200,4,1,0,55,0,0
21663,-100,4,2,0,5,0,0
21744,-100,4,1,0,55,0,1
31986,-100,4,1,0,55,0,0
32066,-100,4,1,0,55,0,1
42308,-100,4,1,0,55,0,1
42469,-100,4,1,0,55,0,0
52711,-100,4,1,0,55,0,1
52792,-100,4,1,0,55,0,0
65615,-100,4,1,0,55,0,1
65695,-100,4,1,0,55,0,0
86260,-100,4,1,0,55,0,1
96502,-100,4,1,0,55,0,0
96582,-100,4,1,0,55,0,1
106744,-100,4,1,0,55,0,0
108195,-100,4,1,0,40,0,0
109486,-100,4,1,0,25,0,0
110776,-100,4,1,0,10,0,0
111421,-200,4,2,0,5,0,0

[Colours]
Combo1 : 32,162,223
Combo2 : 34,118,210
Combo3 : 235,145,10
Combo4 : 19,225,128

[HitObjects]
42,42,1099,6,0,B|60:83|108:110|183:95|183:95|175:82|170:73|170:73|215:91|280:78|326:20,1,360,4|0,0:0|0:0,0:0:0:0:
471,212,2711,1,0,0:0:0:0:
403,311,3034,2,0,P|365:335|284:328,1,120,8|0,0:0|0:0,0:0:0:0:
201,253,3679,6,0,B|177:210|173:156|199:126|199:126|208:131|218:136|218:136|266:91|262:47|239:6,1,300,4|8,0:0|0:0,0:0:0:0:
182,25,4647,1,0,0:0:0:0:
398,313,5615,2,0,P|447:299|476:229,1,120,8|0,0:0|0:0,0:0:0:0:
464,121,6260,6,0,B|445:67|330:61|283:120|283:120|279:76|251:53|208:52|188:82|186:110|202:116,1,360,4|0,0:0|0:0,0:0:0:0:
256,345,7873,1,0,0:0:0:0:
137,364,8195,2,0,P|93:358|45:283,1,120,8|0,0:0|0:0,0:0:0:0:
76,185,8840,6,0,B|97:152|108:105|96:63|98:68|98:68|117:89|148:94|174:92|195:79|202:64|202:64|212:33|249:22,1,300,4|8,0:0|0:0,0:0:0:0:
301,36,9808,1,0,0:0:0:0:
480,23,10292,1,0,0:0:0:0:
495,80,10453,2,0,B|486:169|486:169|459:195,1,120,2|8,2:0|1:0,0:0:0:0:
256,311,11421,6,0,P|227:340|141:339,1,120,4|2,0:0|2:0,0:0:0:0:
98,315,11905,2,0,P|114:279|88:200,1,120,0|2,0:0|2:0,0:0:0:0:
37,179,12389,2,0,P|23:140|60:65,1,120,0|2,0:0|2:0,0:0:0:0:
106,43,12873,2,0,P|146:72|216:56,1,120,0|2,0:0|2:0,0:0:0:0:
268,37,13357,2,0,P|306:26|383:60,1,120,0|2,0:0|2:0,0:0:0:0:
419,98,13840,6,0,P|423:138|484:195,1,120,0|2,0:0|2:0,0:0:0:0:
445,244,14324,2,0,P|427:279|342:278,1,120,0|2,0:0|2:0,0:0:0:0:
332,230,14808,2,0,P|300:206|209:217,1,120,0|2,0:0|2:0,0:0:0:0:
178,249,15292,2,0,P|149:275|60:252,1,120,0|2,0:0|2:0,0:0:0:0:
35,219,15776,2,0,L|29:97,1,120,0|0,0:0|0:0,0:0:0:0:
61,48,16260,2,0,P|86:67|118:70,1,60,2|0,2:0|0:0,0:0:0:0:
168,46,16582,6,0,L|235:43,1,60,4|0,0:0|0:0,0:0:0:0:
288,39,16905,2,0,P|312:74|397:84,1,120,2|0,2:0|0:0,0:0:0:0:
442,105,17389,2,0,P|433:144|488:221,1,120,2|0,2:0|0:0,0:0:0:0:
427,255,17873,2,0,P|392:271|358:351,1,120,2|0,2:0|0:0,0:0:0:0:
302,366,18357,2,0,P|265:344|183:358,1,120,2|0,2:0|0:0,0:0:0:0:
136,376,18840,2,0,L|68:380,1,60,2|2,2:0|2:0,0:0:0:0:
256,192,19163,12,0,21098,0:0:0:0:
256,192,21744,6,0,B|263:132|263:132|305:88,1,120,6|10,0:0|0:0,0:0:0:0:
416,45,22389,1,2,0:0:0:0:
464,80,22550,1,0,0:0:0:0:
475,138,22711,1,10,0:0:0:0:
444,254,23034,6,0,L|442:319,2,60,2|0|10,0:0|0:0|0:0,0:0:0:0:
328,220,23679,2,0,P|297:216|262:223,1,60,2|0,0:0|0:0,0:0:0:0:
211,239,24002,2,0,P|177:248|141:243,1,60,10|0,0:0|0:0,0:0:0:0:
93,235,24324,6,0,P|77:206|83:114,1,120,2|10,0:0|0:0,0:0:0:0:
178,53,24969,2,0,L|241:51,1,60,2|0,0:0|0:0,0:0:0:0:
297,58,25292,2,0,L|360:56,1,60,10|0,0:0|0:0,0:0:0:0:
415,71,25615,6,0,P|436:104|428:192,1,120,2|10,0:0|0:0,0:0:0:0:
329,242,26260,1,2,0:0:0:0:
276,213,26421,1,0,0:0:0:0:
219,192,26582,2,0,L|153:195,1,60,10|0,0:0|0:0,0:0:0:0:
101,213,26905,6,0,P|92:259|35:309,1,120,2|10,0:0|0:0,0:0:0:0:
142,369,27550,2,0,L|206:372,2,60,2|0|10,0:0|0:0|0:0,0:0:0:0:
214,272,28195,6,0,L|273:274,1,60,2|0,0:0|0:0,0:0:0:0:
330,253,28518,1,10,0:0:0:0:
429,186,28840,2,0,L|432:123,1,60,2|0,0:0|0:0,0:0:0:0:
371,126,29163,2,0,L|342:69,1,60,10|0,0:0|0:0,0:0:0:0:
292,105,29486,5,2,0:0:0:0:
173,125,29808,1,10,0:0:0:0:
145,241,30131,1,2,0:0:0:0:
26,261,30453,1,10,0:0:0:0:
125,328,30776,6,0,B|190:329|235:297|251:244|234:192|206:154|149:147|113:164|113:164|101:149|77:136|51:136,1,360,2|2,0:0|0:0,0:0:0:0:
14,36,32066,6,0,P|50:22|132:34,1,120,6|10,0:0|0:0,0:0:0:0:
241,74,32711,1,2,0:0:0:0:
301,72,32873,1,0,0:0:0:0:
348,35,33034,1,10,0:0:0:0:
461,74,33357,6,0,L|466:201,1,120,2|10,0:0|0:0,0:0:0:0:
402,295,34002,2,0,P|436:311|471:315,2,60,2|0|10,0:0|0:0|0:0,0:0:0:0:
298,234,34647,6,0,P|255:257|173:244,1,120,2|10,0:0|0:0,0:0:0:0:
80,192,35292,1,2,0:0:0:0:
59,135,35453,1,0,0:0:0:0:
80,78,35615,2,0,P|111:56|157:50,1,60,10|0,0:0|0:0,0:0:0:0:
189,66,35937,6,0,P|227:71|306:24,1,120,2|10,0:0|0:0,0:0:0:0:
417,41,36582,2,0,L|484:45,1,60,2|0,0:0|0:0,0:0:0:0:
506,97,36905,2,0,P|509:135|493:171,1,60,10|0,0:0|0:0,0:0:0:0:
459,197,37228,6,0,B|399:201|399:201|334:173,1,120,2|10,0:0|0:0,0:0:0:0:
256,95,37873,1,2,0:0:0:0:
200,117,38034,1,0,0:0:0:0:
172,170,38195,2,0,L|164:246,1,60,10|0,0:0|0:0,0:0:0:0:
182,287,38518,6,0,P|216:333|288:339,1,120,2|10,0:0|0:0,0:0:0:0:
392,317,39163,2,0,L|456:315,1,60,2|0,0:0|0:0,0:0:0:0:
509,298,39486,2,0,P|514:263|507:231,1,60,10|0,0:0|0:0,0:0:0:0:
479,187,39808,6,0,P|462:152|482:76,1,120,2|10,0:0|0:0,0:0:0:0:
366,29,40453,2,0,P|337:41|296:40,1,60,2|0,0:0|0:0,0:0:0:0:
248,39,40776,1,10,0:0:0:0:
188,44,40937,2,0,P|161:74|66:77,1,120,2|2,0:0|0:0,0:0:0:0:
33,193,41582,6,0,B|11:243|38:300|38:300|70:302|96:278|105:248|105:248|120:269|146:283|165:281|199:263,1,300,2|4,2:0|0:0,0:0:0:0:
235,225,42550,1,4,0:0:0:0:
295,121,42873,6,0,L|301:58,1,60,0|4,0:0|0:0,0:0:0:0:
405,1,43357,2,0,L|399:60,1,60,0|4,0:0|0:0,0:0:0:0:
490,138,43840,2,0,L|495:78,1,60,0|4,0:0|0:0,0:0:0:0:
399,150,44324,6,0,B|410:206|450:229|499:230|499:230|518:282|505:319|488:343,1,240,2|4,2:0|0:0,0:0:0:0:
443,354,45131,1,4,0:0:0:0:
326,327,45453,6,0,L|257:323,1,60,0|4,0:0|0:0,0:0:0:0:
189,231,45937,2,0,L|248:234,1,60,0|4,0:0|0:0,0:0:0:0:
160,316,46421,2,0,L|100:312,1,60,0|4,0:0|0:0,0:0:0:0:
24,219,46905,6,0,B|6:168|31:102|31:102|97:73|164:92,1,240,2|4,2:0|0:0,0:0:0:0:
199,119,47711,1,4,0:0:0:0:
280,30,48034,6,0,L|352:24,1,60,0|4,0:0|0:0,0:0:0:0:
330,144,48518,2,0,L|401:156,1,60,0|4,0:0|0:0,0:0:0:0:
347,267,49002,2,0,L|412:297,1,60,0|4,0:0|0:0,0:0:0:0:
285,324,49486,6,0,B|261:295|254:255|274:223|283:213|283:213|264:200|244:173|242:145|247:119|264:91,1,240,2|4,2:0|0:0,0:0:0:0:
300,65,50292,1,4,0:0:0:0:
186,25,50615,6,0,L|120:21,1,60,0|4,0:0|0:0,0:0:0:0:
29,91,51098,2,0,L|88:94,1,60,0|4,0:0|0:0,0:0:0:0:
177,176,51582,2,0,L|111:172,1,60,0|0,2:0|2:0,0:0:0:0:
16,237,52066,6,0,B|18:272|45:301|45:301|79:300|102:283|102:283|116:314|147:325|203:322,1,240,2|4,2:0|0:0,0:0:0:0:
252,304,52873,6,0,P|298:273|313:193,1,120,0|0,0:0|0:0,0:0:0:0:
293,157,53357,2,0,P|276:113|299:36,1,120,0|8,0:0|0:0,0:0:0:0:
343,11,53840,2,0,L|470:21,1,120,0|0,0:0|0:0,0:0:0:0:
499,68,54324,2,0,L|502:134,1,60,8|0,0:0|0:0,0:0:0:0:
478,183,54647,6,0,B|445:242|382:244|382:244|319:246|283:321,1,240,2|4,2:0|0:0,0:0:0:0:
250,356,55453,6,0,P|204:367|131:326,1,120,0|0,0:0|0:0,0:0:0:0:
112,284,55937,2,0,P|132:244|110:168,1,120,0|8,0:0|0:0,0:0:0:0:
68,135,56421,2,0,P|46:102|66:21,1,120,0|0,0:0|0:0,0:0:0:0:
117,7,56905,2,0,L|177:12,1,60,8|0,0:0|0:0,0:0:0:0:
234,30,57228,2,0,B|239:98|239:98|190:149,2,120,2|2|4,2:0|2:0|0:0,0:0:0:0:
292,15,58034,6,0,P|321:30|423:35,1,120,0|0,0:0|0:0,0:0:0:0:
464,22,58518,2,0,B|493:74|493:74|487:157,1,120,0|8,0:0|0:0,0:0:0:0:
464,189,59002,1,0,0:0:0:0:
413,221,59163,2,0,L|347:225,1,60,4|0,0:0|0:0,0:0:0:0:
315,177,59486,2,0,L|249:181,1,60,8|0,0:0|0:0,0:0:0:0:
200,205,59808,2,0,P|154:211|43:72,1,240,2|4,2:0|0:0,0:0:0:0:
83,35,60615,6,0,B|142:25|142:25|215:43,1,120,0|0,0:0|0:0,0:0:0:0:
258,55,61098,2,0,B|316:69|316:69|375:59,1,120,4|8,0:0|0:0,0:0:0:0:
429,32,61582,1,0,0:0:0:0:
468,77,61744,6,0,B|493:118|496:160|479:199|445:222|416:221|386:208|376:186|376:186|375:221|362:250|341:274|315:275|293:275|276:272|265:262|257:251|252:235|252:220|252:210|255:200|259:192|264:188|268:186|272:184|280:184|285:187|288:188|293:190|303:190|312:190,1,480,4|4,0:0|0:0,0:0:0:0:
256,192,63115,12,0,64969,0:0:0:0:
168,250,65615,6,0,P|150:214|156:125,1,120,4|8,0:0|0:0,0:0:0:0:
79,40,66260,2,0,L|17:42,2,60,0|0|8,0:0|0:0|0:0,0:0:0:0:
138,28,66744,6,0,P|186:21|262:37,2,120,0|0|0,0:0|0:0|0:0,0:0:0:0:
119,84,67550,2,0,P|120:112|113:149,1,60,0|0,0:0|0:0,0:0:0:0:
174,148,67873,2,0,P|188:171|201:207,1,60,8|0,0:0|0:0,0:0:0:0:
251,232,68195,6,0,P|295:249|356:226,1,90,2|2,0:0|0:0,0:0:0:0:
386,165,68679,2,0,P|342:148|281:171,1,90,2|2,0:0|0:0,0:0:0:0:
251,232,69163,2,0,P|220:238|189:235,1,60,2|2,0:0|0:0,0:0:0:0:
132,224,69486,6,0,B|102:220|102:220|89:256|67:287|20:282,1,120,4|8,0:0|0:0,0:0:0:0:
27,339,69969,1,0,0:0:0:0:
79,368,70131,2,0,P|142:368|203:329,1,120,0|8,0:0|0:0,0:0:0:0:
232,228,70776,6,0,P|264:243|364:236,1,120,4|8,0:0|0:0,0:0:0:0:
426,152,71421,2,0,L|430:90,2,60,0|0|8,0:0|0:0|0:0,0:0:0:0:
447,208,71905,6,0,P|442:262|481:323,1,120,0|0,0:0|0:0,0:0:0:0:
360,357,72550,1,0,0:0:0:0:
308,327,72711,2,0,B|286:296|286:296|294:231,2,90,2|2|2,0:0|0:0|0:0,0:0:0:0:
254,356,73357,6,0,P|215:373|132:350,1,120,2|2,0:0|0:0,0:0:0:0:
104,310,73840,1,0,0:0:0:0:
107,249,74002,2,0,P|115:214|101:155,2,90,2|2|2,0:0|0:0|0:0,0:0:0:0:
156,283,74647,6,0,P|187:274|285:278,1,120,2|2,0:0|0:0,0:0:0:0:
330,295,75131,1,0,0:0:0:0:
388,280,75292,2,0,P|403:253|427:232,1,60,0|0,0:0|0:0,0:0:0:0:
378,194,75615,2,0,P|377:163|387:132,1,60,0|0,0:0|0:0,0:0:0:0:
328,121,75937,5,4,0:0:0:0:
229,190,76260,1,8,0:0:0:0:
215,71,76582,2,0,P|197:41|163:21,2,60,0|0|8,0:0|0:0|0:0,0:0:0:0:
257,113,77066,6,0,P|324:121|391:96,2,120,0|0|0,0:0|0:0|0:0,0:0:0:0:
216,157,77873,2,0,L|153:165,1,60,4|0,0:0|0:0,0:0:0:0:
169,223,78195,2,0,L|118:261,1,60,8|0,0:0|0:0,0:0:0:0:
160,305,78518,6,0,P|222:342|261:337,1,90,2|2,0:0|0:0,0:0:0:0:
327,341,79002,2,0,P|370:332|404:303,1,90,2|2,0:0|0:0,0:0:0:0:
458,231,79486,1,2,0:0:0:0:
448,171,79647,1,2,0:0:0:0:
439,111,79808,6,0,P|394:93|366:8,1,120,4|8,0:0|0:0,0:0:0:0:
305,14,80292,1,0,0:0:0:0:
249,36,80453,2,0,P|210:56|129:44,1,120,0|8,0:0|0:0,0:0:0:0:
18,26,81098,6,0,P|38:67|24:158,1,120,4|8,0:0|0:0,0:0:0:0:
22,259,81744,2,0,L|14:327,2,60,0|0|8,0:0|0:0|0:0,0:0:0:0:
69,222,82228,2,0,P|103:216|188:249,1,120,0|0,0:0|0:0,0:0:0:0:
232,275,82711,6,0,P|285:300|344:296,2,120,8|0|8,0:0|0:0|0:0,0:0:0:0:
256,157,83679,1,4,0:0:0:0:
256,192,83760,12,0,85615,0:0:0:0:
256,147,86260,6,0,P|290:132|319:52,1,120,6|10,0:0|0:0,0:0:0:0:
429,9,86905,2,0,P|438:39|470:65,1,60,2|0,0:0|0:0,0:0:0:0:
509,89,87228,1,10,0:0:0:0:
448,192,87550,6,0,P|430:231|450:325,1,120,2|10,0:0|0:0,0:0:0:0:
326,349,88195,2,0,P|292:354|256:348,1,60,2|0,0:0|0:0,0:0:0:0:
270,290,88518,2,0,P|238:277|209:254,1,60,10|0,0:0|0:0,0:0:0:0:
249,211,88840,6,0,P|231:174|242:90,1,120,2|10,0:0|0:0,0:0:0:0:
340,36,89486,1,2,0:0:0:0:
283,56,89647,1,0,0:0:0:0:
225,37,89808,1,10,0:0:0:0:
109,71,90131,6,0,B|103:130|103:130|70:155,1,90,2|2,0:0|0:0,0:0:0:0:
20,218,90615,2,0,B|26:277|26:277|59:302,1,90,2|2,0:0|0:0,0:0:0:0:
127,341,91098,2,0,L|197:337,1,60,2|2,0:0|0:0,0:0:0:0:
240,309,91421,5,2,0:0:0:0:
310,211,91744,1,10,0:0:0:0:
297,91,92066,1,2,0:0:0:0:
195,27,92389,1,10,0:0:0:0:
297,92,92711,6,0,P|341:104|418:82,1,120,2|10,0:0|0:0,0:0:0:0:
483,183,93357,2,0,P|426:200|368:188,1,120,2|10,0:0|0:0,0:0:0:0:
250,213,94002,5,2,0:0:0:0:
148,276,94324,1,10,0:0:0:0:
40,222,94647,1,2,0:0:0:0:
42,102,94969,1,10,0:0:0:0:
148,47,95292,6,0,P|177:37|207:12,1,60,2|0,0:0|0:0,0:0:0:0:
225,74,95615,2,0,P|255:79|293:73,1,60,10|0,0:0|0:0,0:0:0:0:
278,135,95937,2,0,P|301:155|337:168,1,60,2|0,0:0|0:0,0:0:0:0:
294,216,96260,2,0,P|304:245|329:275,1,60,10|0,0:0|0:0,0:0:0:0:
266,292,96582,6,0,P|235:318|151:334,1,120,6|10,0:0|0:0,0:0:0:0:
173,222,97228,1,2,0:0:0:0:
137,173,97389,1,0,0:0:0:0:
83,146,97550,1,10,0:0:0:0:
153,48,97873,6,0,B|196:43|196:43|228:53|259:51|278:39,1,120,2|10,0:0|0:0,0:0:0:0:
352,131,98518,2,0,B|309:136|309:136|277:126|246:128|227:140,1,120,2|10,0:0|0:0,0:0:0:0:
136,206,99163,6,0,P|123:245|42:276,1,120,6|10,0:0|0:0,0:0:0:0:
154,346,99808,1,2,0:0:0:0:
213,350,99969,1,0,0:0:0:0:
273,352,100131,2,0,L|346:355,1,60,10|0,0:0|0:0,0:0:0:0:
392,352,100453,6,0,P|428:335|458:276,1,90,2|2,0:0|0:0,0:0:0:0:
434,205,100937,2,0,P|398:222|368:281,1,90,2|2,0:0|0:0,0:0:0:0:
280,269,101421,2,0,L|218:259,1,60,2|2,0:0|0:0,0:0:0:0:
162,273,101744,6,0,P|120:292|91:292,1,60,6|0,0:0|0:0,0:0:0:0:
93,234,102066,2,0,P|47:229|22:214,1,60,10|0,0:0|0:0,0:0:0:0:
50,165,102389,2,0,P|12:138|-1:113,1,60,2|0,0:0|0:0,0:0:0:0:
46,83,102711,2,0,P|26:41|27:12,1,60,10|0,0:0|0:0,0:0:0:0:
83,11,103034,6,0,L|159:8,1,60,6|0,0:0|0:0,0:0:0:0:
142,68,103357,2,0,L|218:65,1,60,10|0,0:0|0:0,0:0:0:0:
202,125,103679,2,0,L|278:122,1,60,2|0,0:0|0:0,0:0:0:0:
261,182,104002,2,0,L|337:179,1,60,10|0,0:0|0:0,0:0:0:0:
323,239,104324,6,0,P|289:263|255:264,1,60,4|4,0:0|0:0,0:0:0:0:
151,265,104808,6,0,P|127:231|126:197,1,60,0|4,0:0|0:0,0:0:0:0:
129,93,105292,6,0,P|163:69|197:68,1,60,0|4,0:0|0:0,0:0:0:0:
301,67,105776,5,0,0:0:0:0:
301,67,105937,2,0,B|314:104|314:104|336:121|375:119|375:119|385:151|349:185|280:195|280:195|343:240,1,300,4|4,0:0|0:0,0:0:0:0:
256,192,106824,12,0,111421,0:0:0:0:
