osu file format v14

[General]
AudioFilename: Rb coletteValangaSOUND ONLY.mp3
AudioLeadIn: 0
PreviewTime: 21744
Countdown: 0
SampleSet: Normal
StackLeniency: 0.7
Mode: 0
LetterboxInBreaks: 0
WidescreenStoryboard: 0

[Editor]
DistanceSpacing: 0.6
BeatDivisor: 4
GridSize: 4
TimelineZoom: 1

[Metadata]
Title:Valanga
TitleUnicode:Valanga
Artist:DJ TOTTO
ArtistUnicode:DJ TOTTO
Creator:RikiH_
Version:Extra
Source:REFLEC BEAT
Tags:xim Xim_O Asagi ART CORE BEMANI colette -Winter-
BeatmapID:380338
BeatmapSetID:154955

[Difficulty]
HPDrainRate:7
CircleSize:4
OverallDifficulty:8
ApproachRate:9
SliderMultiplier:1.7
SliderTickRate:1

[Events]
//Background and Video events
0,0,"Konachan.com - 205993 sample.jpg",0,0
//Break Periods
//Storyboard Layer 0 (Background)
//Storyboard Layer 1 (Fail)
//Storyboard Layer 2 (Pass)
//Storyboard Layer 3 (Foreground)
//Storyboard Sound Samples

[TimingPoints]
1099,322.58064516129,4,1,0,55,1,0
21421,-200,4,1,0,55,0,0
21663,-100,4,2,0,5,0,0
21744,-100,4,1,0,55,0,1
31986,-100,4,1,0,55,0,0
32066,-100,4,1,0,55,0,1
42308,-100,4,1,0,55,0,1
42469,-100,4,1,0,55,0,0
52711,-100,4,1,0,55,0,1
52792,-100,4,1,0,55,0,0
65615,-100,4,1,0,55,0,1
65695,-100,4,1,0,55,0,0
86260,-83.3333333333333,4,1,0,55,0,1
96502,-83.3333333333333,4,1,0,55,0,0
96582,-83.3333333333333,4,1,0,55,0,1
106744,-100,4,1,0,55,0,0
108195,-100,4,1,0,40,0,0
109486,-100,4,1,0,25,0,0
110776,-100,4,1,0,10,0,0
111421,-200,4,2,0,5,0,0

[Colours]
Combo1 : 32,162,223
Combo2 : 34,118,210
Combo3 : 235,145,10
Combo4 : 19,225,128

[HitObjects]
196,106,1099,5,4,0:0:0:0:
162,174,1260,1,0,0:0:0:0:
238,170,1421,1,2,2:0:0:0:
176,80,1582,5,0,0:0:0:0:
267,171,1744,1,0,0:0:0:0:
143,203,1905,1,2,2:0:0:0:
156,54,2066,5,0,0:0:0:0:
124,233,2228,1,0,0:0:0:0:
296,172,2389,1,2,2:0:0:0:
136,28,2550,5,0,0:0:0:0:
325,173,2711,1,0,0:0:0:0:
105,263,2873,1,2,2:0:0:0:
180,10,3034,6,0,P|209:34|275:44,1,85,8|0,0:0|0:0,0:0:0:0:
462,93,3357,2,0,P|414:101|377:124,1,85,0|0,0:0|0:0,0:0:0:0:
265,296,3679,5,4,0:0:0:0:
342,218,3840,1,2,2:0:0:0:
208,247,4002,1,0,0:0:0:0:
400,267,4163,1,0,0:0:0:0:
213,171,4324,1,2,2:0:0:0:
395,343,4486,1,8,0:0:0:0:
217,145,4647,1,0,0:0:0:0:
391,369,4809,1,2,2:0:0:0:
273,94,4969,6,0,P|307:57|357:44,1,85
286,167,5292,1,2,2:0:0:0:
200,102,5453,1,0,0:0:0:0:
405,78,5615,2,0,B|447:84|447:84|483:119,1,85,8|0,0:0|0:0,0:0:0:0:
483,324,5937,2,0,B|441:318|441:318|405:283,1,85
332,153,6260,5,4,0:0:0:0:
374,217,6421,1,0,0:0:0:0:
298,221,6582,1,2,2:0:0:0:
312,127,6743,5,0,0:0:0:0:
403,218,6905,1,0,0:0:0:0:
279,250,7066,1,2,2:0:0:0:
292,101,7227,5,0,0:0:0:0:
432,219,7389,1,0,0:0:0:0:
260,280,7550,1,2,2:0:0:0:
272,75,7711,5,0,0:0:0:0:
461,220,7872,1,0,0:0:0:0:
241,310,8034,1,2,2:0:0:0:
249,41,8195,6,0,P|298:22|343:25,1,85,8|0,0:0|0:0,0:0:0:0:
158,107,8518,2,0,P|109:126|64:123,1,85
234,117,8840,5,4,0:0:0:0:
366,180,9002,1,2,2:0:0:0:
211,162,9163,1,0,0:0:0:0:
389,135,9324,1,0,0:0:0:0:
190,208,9486,2,0,B|170:246|170:246|180:301,1,85,2|8,2:0|0:0,0:0:0:0:
417,91,9808,2,0,B|437:53|437:53|427:-2,1,85
292,44,10131,5,0,0:0:0:0:
147,60,10292,1,0,0:0:0:0:
228,178,10453,2,0,P|282:199|324:191,1,85,2|0,2:0|0:0,0:0:0:0:
418,44,10776,2,0,P|374:79|367:119,1,85,8|0,1:0|0:0,0:0:0:0:
462,248,11098,1,0,0:0:0:0:
470,271,11179,1,0,0:0:0:0:
469,296,11260,1,0,0:0:0:0:
463,320,11340,1,0,0:0:0:0:
450,342,11421,6,0,B|411:359|411:359|360:319|318:319|288:343,1,170,4|2,0:0|2:0,0:0:0:0:
62,342,11905,2,0,B|101:359|101:359|152:319|194:319|224:343,1,170,0|2,0:0|2:0,0:0:0:0:
292,212,12389,5,0,0:0:0:0:
256,276,12550,1,0,0:0:0:0:
196,184,12711,1,2,2:0:0:0:
312,188,12873,5,0,0:0:0:0:
256,276,13034,1,0,0:0:0:0:
176,160,13195,1,2,2:0:0:0:
336,160,13357,5,0,0:0:0:0:
256,276,13518,1,0,0:0:0:0:
152,132,13679,1,2,2:0:0:0:
356,132,13840,5,0,0:0:0:0:
256,276,14002,1,0,0:0:0:0:
132,104,14163,1,2,2:0:0:0:
380,104,14324,5,0,0:0:0:0:
256,276,14486,1,0,0:0:0:0:
132,104,14647,1,2,2:0:0:0:
404,76,14808,5,0,0:0:0:0:
256,276,14969,1,0,0:0:0:0:
108,76,15131,1,2,2:0:0:0:
428,48,15292,6,0,P|477:83|488:124,1,85
457,202,15615,1,2,2:0:0:0:
378,266,15776,1,0,0:0:0:0:
277,253,15937,2,0,L|187:248,1,85,2|0,2:0|0:0,0:0:0:0:
172,147,16260,2,0,L|256:151,1,85,2|0,2:0|0:0,0:0:0:0:
96,217,16582,5,4,0:0:0:0:
328,78,16744,1,0,0:0:0:0:
65,236,16905,2,0,P|21:213|38:93,1,170,2|0,2:0|0:0,0:0:0:0:
173,17,17389,2,0,P|149:60|29:46,1,170,2|0,2:0|0:0,0:0:0:0:
183,135,17873,2,0,P|233:167|349:127,1,170,2|0,2:0|0:0,0:0:0:0:
478,78,18357,2,0,P|451:134|358:97,1,170,2|0,2:0|0:0,0:0:0:0:
256,28,18840,1,2,2:0:0:0:
256,200,19002,1,2,2:0:0:0:
256,116,19163,6,0,L|157:105,1,85,2|2,2:0|2:0,0:0:0:0:
256,284,19486,2,0,L|355:295,1,85,2|2,2:0|2:0,0:0:0:0:
438,267,19808,1,2,2:0:0:0:
483,175,19969,1,2,2:0:0:0:
468,73,20131,5,2,2:0:0:0:
439,42,20211,1,2,2:0:0:0:
399,26,20292,1,2,2:0:0:0:
356,28,20373,1,2,2:0:0:0:
319,49,20453,1,2,2:0:0:0:
299,86,20534,1,2,2:0:0:0:
299,128,20615,1,2,2:0:0:0:
315,166,20695,1,2,2:0:0:0:
327,206,20776,1,2,2:0:0:0:
322,248,20857,1,2,2:0:0:0:
300,284,20937,1,2,2:0:0:0:
266,310,21018,1,2,2:0:0:0:
223,312,21098,1,2,2:0:0:0:
182,297,21179,1,2,2:0:0:0:
158,261,21260,1,2,2:0:0:0:
148,220,21340,1,2,2:0:0:0:
158,178,21421,6,0,P|177:151|220:140,1,63.75,4|0,2:0|0:0,0:0:0:0:
223,141,21744,6,0,P|229:188|229:232,1,85,6|0,0:0|0:0,0:0:0:0:
259,75,22066,1,10,0:0:0:0:
321,34,22228,1,0,0:0:0:0:
358,30,22308,1,0,0:0:0:0:
394,41,22389,2,0,P|445:52|489:51,1,85,2|0,0:0|0:0,0:0:0:0:
412,171,22711,1,10,0:0:0:0:
471,294,22873,2,0,L|487:340,1,42.5
412,251,23034,6,0,P|363:235|318:243,1,85,2|0,0:0|0:0,0:0:0:0:
241,342,23357,1,10,0:0:0:0:
154,236,23518,2,0,P|148:218|146:191,1,42.5
129,305,23679,2,0,P|85:329|30:324,1,85,2|0,0:0|0:0,0:0:0:0:
6,200,24002,1,10,0:0:0:0:
14,170,24082,1,0,0:0:0:0:
67,119,24163,1,0,0:0:0:0:
75,89,24243,1,0,0:0:0:0:
128,38,24324,6,0,B|137:20|137:20|168:34|213:25,1,85,2|0,0:0|0:0,0:0:0:0:
336,12,24647,1,10,0:0:0:0:
430,109,24808,2,0,L|459:149,1,42.5
359,122,24969,2,0,P|320:139|290:184,1,85,2|0,0:0|0:0,0:0:0:0:
379,278,25292,1,10,0:0:0:0:
263,348,25453,1,0,0:0:0:0:
224,352,25534,1,0,0:0:0:0:
185,356,25615,5,2,0:0:0:0:
136,159,25776,1,0,0:0:0:0:
112,337,25937,1,10,0:0:0:0:
62,140,26098,1,0,0:0:0:0:
39,317,26260,1,2,0:0:0:0:
34,328,26340,1,0,0:0:0:0:
30,340,26421,1,0,0:0:0:0:
210,177,26582,2,0,L|257:173,1,42.5,10|0,0:0|0:0,0:0:0:0:
230,102,26744,2,0,L|277:98,1,42.5
248,26,26905,5,2,0:0:0:0:
152,121,27066,1,0,0:0:0:0:
189,252,27228,1,10,0:0:0:0:
320,283,27389,2,0,P|337:290|359:307,1,42.5
300,211,27550,2,0,P|293:159|302:124,1,85,2|0,0:0|0:0,0:0:0:0:
249,264,27873,2,0,P|214:301|154:309,1,85,10|0,0:0|0:0,0:0:0:0:
144,312,28115,1,0,0:0:0:0:
108,299,28195,6,0,P|62:291|10:327,1,85,2|0,0:0|0:0,0:0:0:0:
2,171,28518,1,10,0:0:0:0:
62,49,28679,2,0,P|73:34|82:10,1,42.5
85,119,28840,2,0,B|103:157|103:157|148:171,1,85,2|0,0:0|0:0,0:0:0:0:
274,128,29163,1,10,0:0:0:0:
302,136,29244,1,0,0:0:0:0:
347,192,29324,1,0,0:0:0:0:
375,200,29405,1,0,0:0:0:0:
439,165,29486,6,0,P|471:134|479:86,1,85,2|0,0:0|0:0,0:0:0:0:
373,11,29808,1,10,0:0:0:0:
242,46,29969,2,0,P|213:48|190:43,1,42.5
313,70,30131,2,0,P|341:109|346:156,1,85,2|0,0:0|0:0,0:0:0:0:
303,273,30453,1,10,0:0:0:0:
177,327,30615,1,0,0:0:0:0:
140,315,30695,1,0,0:0:0:0:
112,287,30776,6,0,L|27:281,1,85,2|0,0:0|0:0,0:0:0:0:
70,152,31098,1,2,0:0:0:0:
106,141,31179,1,0,0:0:0:0:
133,113,31260,1,0,0:0:0:0:
149,78,31340,1,0,0:0:0:0:
145,39,31421,1,2,0:0:0:0:
199,163,31582,2,0,P|208:184|221:205,1,42.5
310,255,31744,2,0,P|301:234|288:213,1,42.5,2|0,0:0|0:0,0:0:0:0:
275,105,31905,2,0,P|284:126|297:147,1,42.5
386,197,32066,6,0,P|401:145|392:100,1,85,6|0,0:0|0:0,0:0:0:0:
322,0,32389,1,10,0:0:0:0:
206,71,32550,2,0,P|184:88|155:99,1,42.5
107,127,32711,2,0,P|99:86|116:47,1,85,2|0,0:0|0:0,0:0:0:0:
256,192,33034,1,10,0:0:0:0:
124,340,33195,2,0,L|80:344,1,42.5
7,339,33357,6,0,P|32:288|66:270,1,85,2|0,0:0|0:0,0:0:0:0:
180,180,33679,1,10,0:0:0:0:
315,255,33840,1,0,0:0:0:0:
351,241,33921,1,0,0:0:0:0:
374,210,34002,1,2,0:0:0:0:
354,75,34163,1,0,0:0:0:0:
221,44,34324,2,0,P|194:51|168:49,1,42.5,10|0,0:0|0:0,0:0:0:0:
38,33,34486,2,0,P|65:26|91:28,1,42.5
71,102,34647,6,0,P|62:144|25:176,1,85,2|0,0:0|0:0,0:0:0:0:
59,353,34969,2,0,P|68:311|105:279,1,85,10|0,0:0|0:0,0:0:0:0:
133,269,35211,1,0,0:0:0:0:
171,271,35292,2,0,B|213:275|213:275|261:255,1,85,2|0,0:0|0:0,0:0:0:0:
342,155,35615,1,10,0:0:0:0:
297,26,35776,2,0,L|248:22,1,42.5
192,56,35937,5,2,0:0:0:0:
112,232,36098,1,0,0:0:0:0:
64,104,36260,1,10,0:0:0:0:
240,184,36421,1,0,0:0:0:0:
74,76,36582,2,0,L|36:52,2,42.5,2|0|0,0:0|0:0|0:0,0:0:0:0:
230,212,36905,2,0,P|236:236|233:264,1,42.5,10|0,0:0|0:0,0:0:0:0:
287,356,37066,2,0,P|281:332|284:304,1,42.5
352,279,37228,6,0,B|393:269|393:269|425:227,1,85,2|0,0:0|0:0,0:0:0:0:
488,118,37550,1,10,0:0:0:0:
414,3,37711,1,0,0:0:0:0:
382,24,37792,1,0,0:0:0:0:
344,32,37873,2,0,P|292:38|253:27,1,85,2|0,0:0|0:0,0:0:0:0:
125,37,38195,1,10,0:0:0:0:
40,152,38357,2,0,P|30:172|8:196,1,42.5
110,128,38518,6,0,P|156:118|206:128,1,85,2|0,0:0|0:0,0:0:0:0:
298,330,38840,2,0,P|252:340|202:330,1,85,10|0,0:0|0:0,0:0:0:0:
181,315,39082,1,0,0:0:0:0:
164,280,39163,2,0,B|151:212|151:212|160:189,1,85,2|0,0:0|0:0,0:0:0:0:
231,83,39486,2,0,L|282:80,1,42.5,10|0,0:0|0:0,0:0:0:0:
314,141,39647,2,0,L|359:163,1,42.5
361,236,39808,6,0,P|387:277|392:329,1,85,2|0,0:0|0:0,0:0:0:0:
458,153,40131,1,10,0:0:0:0:
379,42,40292,2,0,P|349:24|337:13,1,42.5
271,30,40453,2,0,P|243:65|196:74,1,85,2|0,0:0|0:0,0:0:0:0:
78,23,40776,1,10,0:0:0:0:
12,142,40937,1,0,0:0:0:0:
16,180,41018,1,0,0:0:0:0:
20,217,41098,6,0,L|30:304,2,85,2|0|10,0:0|0:0|0:0,0:0:0:0:
130,136,41582,2,0,L|183:123,1,42.5,2|2,2:0|2:0,0:0:0:0:
221,36,41744,2,0,L|231:77,1,42.5,2|2,2:0|2:0,0:0:0:0:
324,122,41905,2,0,L|282:132,1,42.5,2|2,2:0|2:0,0:0:0:0:
235,230,42067,2,0,L|222:177,1,42.5,2|2,2:0|2:0,0:0:0:0:
130,136,42228,2,0,L|183:123,1,42.5,0|0,2:0|2:0,0:0:0:0:
221,36,42389,5,4,0:0:0:0:
291,25,42550,1,4,0:0:0:0:
168,90,42873,5,0,0:0:0:0:
335,82,43034,1,4,0:0:0:0:
115,144,43357,5,0,0:0:0:0:
380,139,43518,1,4,0:0:0:0:
62,198,43840,5,0,0:0:0:0:
425,197,44002,1,4,0:0:0:0:
470,254,44324,6,0,P|463:275|454:294,1,42.5
349,361,44486,2,0,P|356:340|365:321,1,42.5,2|0,2:0|0:0,0:0:0:0:
499,304,44647,2,0,P|486:321|470:335,1,42.5
320,311,44809,2,0,P|332:293|348:279,1,42.5
395,165,44969,5,4,0:0:0:0:
406,235,45130,1,4,0:0:0:0:
341,112,45453,5,0,0:0:0:0:
349,279,45614,1,4,0:0:0:0:
287,59,45937,5,0,0:0:0:0:
292,324,46098,1,4,0:0:0:0:
233,6,46420,5,0,0:0:0:0:
234,369,46582,1,4,0:0:0:0:
161,21,46905,6,0,L|104:24,2,56.6666666666667
201,82,47228,2,0,L|258:85,2,56.6666666666667
148,132,47550,5,4,0:0:0:0:
79,156,47711,1,4,0:0:0:0:
223,181,48034,5,0,0:0:0:0:
64,227,48195,1,4,0:0:0:0:
300,237,48518,5,0,0:0:0:0:
52,299,48679,1,4,0:0:0:0:
375,286,49002,5,0,0:0:0:0:
37,370,49163,1,4,0:0:0:0:
450,335,49486,6,0,L|474:283,1,42.5
429,231,49647,2,0,L|433:173,1,42.5,2|0,2:0|0:0,0:0:0:0:
380,133,49808,2,0,L|364:77,1,42.5
301,61,49969,2,0,L|267:14,1,42.5
202,24,50131,6,0,P|153:13|97:34,2,85,4|4|0,0:0|0:0|0:0,0:0:0:0:
265,144,50615,2,0,P|314:155|370:134,2,85,0|4|0,0:0|0:0|0:0,0:0:0:0:
129,135,51098,2,0,L|72:139,1,42.5
115,209,51260,2,0,L|58:213,1,42.5,4|0,0:0|0:0,0:0:0:0:
98,287,51421,1,0,2:0:0:0:
113,322,51502,1,0,2:0:0:0:
143,344,51582,1,0,2:0:0:0:
181,348,51663,1,0,2:0:0:0:
218,340,51744,1,0,2:0:0:0:
245,313,51824,1,4,2:0:0:0:
254,275,51905,1,0,2:0:0:0:
247,237,51986,1,0,2:0:0:0:
226,205,52066,5,2,2:0:0:0:
203,159,52147,1,2,2:0:0:0:
206,107,52228,1,2,2:0:0:0:
233,64,52308,1,2,2:0:0:0:
283,54,52389,1,2,2:0:0:0:
332,64,52469,1,2,2:0:0:0:
364,103,52550,1,2,2:0:0:0:
368,154,52631,1,2,2:0:0:0:
347,200,52711,5,4,0:0:0:0:
256,302,52873,1,0,0:0:0:0:
165,200,53034,1,8,0:0:0:0:
256,99,53195,1,0,0:0:0:0:
293,107,53276,1,0,0:0:0:0:
330,116,53357,1,0,0:0:0:0:
454,61,53518,1,0,0:0:0:0:
330,7,53679,2,0,P|279:-1|237:6,1,85,8|0,0:0|0:0,0:0:0:0:
121,58,54002,5,0,0:0:0:0:
35,163,54163,1,0,0:0:0:0:
165,199,54324,1,8,0:0:0:0:
239,313,54486,1,0,0:0:0:0:
239,313,54566,1,0,0:0:0:0:
266,339,54647,5,2,2:0:0:0:
304,344,54728,1,0,0:0:0:0:
341,341,54808,1,2,2:0:0:0:
379,345,54889,1,0,0:0:0:0:
416,340,54969,1,2,2:0:0:0:
434,306,55050,1,0,0:0:0:0:
440,268,55131,1,2,2:0:0:0:
437,230,55211,1,0,0:0:0:0:
421,194,55292,5,4,0:0:0:0:
341,83,55453,1,0,0:0:0:0:
477,73,55615,1,8,0:0:0:0:
421,194,55776,2,0,P|393:210|366:216,1,42.5
328,265,55937,2,0,P|310:234|315:183,1,85
377,62,56260,2,0,P|332:48|298:6,1,85,8|0,0:0|0:0,0:0:0:0:
171,6,56582,5,0,0:0:0:0:
53,74,56744,1,0,0:0:0:0:
26,207,56905,2,0,P|34:264|74:307,1,85,8|0,0:0|0:0,0:0:0:0:
175,335,57228,2,0,B|172:314|172:314|177:276,2,56.6666666666667
301,230,57550,2,0,B|304:251|304:251|299:289,2,56.6666666666667,2|0|0,0:0|0:0|0:0,0:0:0:0:
371,119,57873,5,4,0:0:0:0:
493,177,58034,1,0,0:0:0:0:
384,259,58195,1,8,0:0:0:0:
372,119,58357,1,0,0:0:0:0:
402,96,58437,1,0,0:0:0:0:
433,74,58518,2,0,B|384:65|384:65|354:30|354:30|319:45|261:17,1,170,0|8,0:0|0:0,0:0:0:0:
155,76,59002,1,0,0:0:0:0:
261,160,59163,6,0,P|276:212|265:249,1,85,4|0,0:0|0:0,0:0:0:0:
175,340,59486,1,8,0:0:0:0:
43,307,59647,1,0,0:0:0:0:
43,307,59728,1,0,0:0:0:0:
22,275,59808,5,2,2:0:0:0:
12,237,59889,1,0,0:0:0:0:
22,200,59969,1,2,2:0:0:0:
12,162,60050,1,0,0:0:0:0:
26,126,60131,1,2,2:0:0:0:
60,110,60211,1,0,0:0:0:0:
85,81,60292,1,2,2:0:0:0:
122,73,60373,1,0,0:0:0:0:
147,44,60453,5,4,0:0:0:0:
262,198,60615,1,0,0:0:0:0:
282,64,60776,1,8,0:0:0:0:
127,178,60937,1,0,0:0:0:0:
305,43,61098,2,0,B|325:32|342:15|342:15|367:34|400:33|400:33|422:18|468:28,1,170,4|8,0:0|0:0,0:0:0:0:
508,153,61582,1,0,0:0:0:0:
443,273,61744,6,0,P|407:306|343:313,1,85,4|0,0:0|0:0,0:0:0:0:
239,292,62066,1,4,0:0:0:0:
182,167,62228,1,0,0:0:0:0:
182,167,62308,1,0,0:0:0:0:
172,129,62389,5,2,2:0:0:0:
179,91,62469,1,0,0:0:0:0:
209,67,62550,1,2,2:0:0:0:
246,60,62631,1,0,0:0:0:0:
283,67,62711,1,2,2:0:0:0:
312,92,62792,1,0,0:0:0:0:
326,127,62873,1,2,2:0:0:0:
316,163,62953,1,0,0:0:0:0:
287,188,63034,5,4,0:0:0:0:
256,192,63115,12,8,65292,0:0:0:0:
256,192,65615,5,4,0:0:0:0:
305,65,65776,1,0,0:0:0:0:
342,57,65857,1,0,0:0:0:0:
379,49,65937,1,8,0:0:0:0:
375,184,66098,1,0,0:0:0:0:
412,176,66179,1,0,0:0:0:0:
449,168,66259,1,0,0:0:0:0:
305,319,66421,1,0,0:0:0:0:
256,192,66582,1,8,0:0:0:0:
207,319,66744,1,0,0:0:0:0:
171,331,66824,1,0,0:0:0:0:
134,343,66905,5,4,0:0:0:0:
76,192,67066,1,0,0:0:0:0:
134,41,67228,1,8,0:0:0:0:
229,171,67389,1,0,0:0:0:0:
223,208,67469,1,0,0:0:0:0:
217,246,67550,1,0,0:0:0:0:
76,192,67711,1,0,0:0:0:0:
159,19,67873,2,0,L|207:14,1,42.5,8|0,0:0|0:0,0:0:0:0:
273,22,68034,2,0,L|315:26,1,42.5
389,29,68195,6,0,P|367:80|331:99,1,85,2|0,0:0|0:0,0:0:0:0:
292,146,68437,6,0,P|284:194|315:238,1,85,2|0,0:0|0:0,0:0:0:0:
358,270,68679,6,0,L|448:264,1,85,2|0,0:0|0:0,0:0:0:0:
490,322,68921,6,0,P|466:363|423:372,1,85,2|0,0:0|0:0,0:0:0:0:
362,354,69163,6,0,L|313:346,1,42.5,2|0,0:0|0:0,0:0:0:0:
208,328,69324,6,0,L|257:320,1,42.5,2|0,0:0|0:0,0:0:0:0:
146,371,69486,5,4,0:0:0:0:
24,310,69647,1,0,0:0:0:0:
2,175,69808,1,8,0:0:0:0:
74,60,69969,1,0,0:0:0:0:
108,42,70050,1,0,0:0:0:0:
142,25,70131,1,0,0:0:0:0:
256,98,70292,1,0,0:0:0:0:
370,25,70453,2,0,L|418:20,1,42.5,8|0,0:0|0:0,0:0:0:0:
489,80,70615,2,0,L|446:84,1,42.5
406,145,70776,6,0,B|388:186|388:186|396:236,2,85,4|0|8,0:0|0:0|0:0,0:0:0:0:
451,273,71260,1,0,0:0:0:0:
420,295,71340,1,0,0:0:0:0:
381,298,71421,1,0,0:0:0:0:
256,243,71582,1,0,0:0:0:0:
131,298,71744,1,8,0:0:0:0:
22,216,71905,2,0,L|20:169,1,42.5
92,232,72066,6,0,P|141:222|179:240,1,85,4|0,0:0|0:0,0:0:0:0:
420,152,72389,2,0,P|371:162|333:144,1,85,8|0,0:0|0:0,0:0:0:0:
296,91,72631,1,0,0:0:0:0:
312,57,72711,6,0,P|267:27|220:22,1,85,2|0,0:0|0:0,0:0:0:0:
178,63,72953,6,0,L|86:60,1,85,2|0,0:0|0:0,0:0:0:0:
28,93,73195,6,0,L|22:140,1,42.5,2|0,0:0|0:0,0:0:0:0:
42,207,73357,6,2,B|49:250|49:250|39:296|39:296|48:326|48:326|67:341|107:344,1,170
197,256,73840,1,0,0:0:0:0:
208,219,73921,1,0,0:0:0:0:
219,182,74002,6,0,B|233:141|233:141|277:126,1,85,2|0,0:0|0:0,0:0:0:0:
329,175,74244,6,0,B|370:185|370:185|427:171,1,85,2|0,0:0|0:0,0:0:0:0:
479,145,74486,6,0,P|484:168|482:194,1,42.5,2|0,0:0|0:0,0:0:0:0:
471,259,74647,6,2,B|445:300|445:300|432:279|432:279|402:304|369:307|332:288,1,170
256,186,75131,1,0,0:0:0:0:
256,148,75211,1,0,0:0:0:0:
256,108,75292,1,0,0:0:0:0:
152,20,75453,2,0,L|110:16,1,42.5
156,119,75615,2,0,L|180:84,1,42.5
68,75,75776,2,0,L|85:113,1,42.5
115,180,75937,5,4,0:0:0:0:
77,310,76098,1,0,0:0:0:0:
54,340,76179,1,0,0:0:0:0:
17,350,76260,1,8,0:0:0:0:
173,252,76421,1,0,0:0:0:0:
196,222,76502,1,0,0:0:0:0:
233,212,76583,1,0,0:0:0:0:
367,230,76744,1,0,0:0:0:0:
434,347,76905,1,8,0:0:0:0:
384,158,77066,1,0,0:0:0:0:
394,121,77147,1,0,0:0:0:0:
405,84,77228,5,4,0:0:0:0:
472,201,77389,1,0,0:0:0:0:
256,68,77550,1,8,0:0:0:0:
40,201,77711,1,0,0:0:0:0:
33,238,77792,1,0,0:0:0:0:
26,275,77873,6,0,L|73:285,1,42.5,4|0,0:0|0:0,0:0:0:0:
134,364,78034,2,0,L|92:355,1,42.5
158,264,78195,2,0,L|205:274,1,42.5,8|0,0:0|0:0,0:0:0:0:
266,353,78356,2,0,L|224:344,1,42.5
291,252,78518,6,0,P|340:267|381:253,1,85,2|0,0:0|0:0,0:0:0:0:
421,203,78760,6,0,L|417:117,1,85,2|0,0:0|0:0,0:0:0:0:
384,49,79002,6,0,P|345:32|300:39,1,85,2|0,0:0|0:0,0:0:0:0:
254,92,79244,6,0,P|293:109|338:102,1,85,2|0,0:0|0:0,0:0:0:0:
394,146,79486,6,0,L|397:196,1,42.5,2|0,0:0|0:0,0:0:0:0:
438,250,79647,6,0,L|435:300,1,42.5,2|0,0:0|0:0,0:0:0:0:
384,346,79808,6,0,B|353:356|353:356|309:335|309:335|280:342,2,85,4|0|8,0:0|0:0|0:0,0:0:0:0:
318,225,80292,1,0,0:0:0:0:
281,237,80373,1,0,0:0:0:0:
243,235,80453,2,0,P|194:227|166:196,1,85
187,67,80776,2,0,L|194:21,1,42.5,8|0,0:0|0:0,0:0:0:0:
268,10,80937,2,0,L|261:52,1,42.5
153,132,81098,6,0,B|14:139|14:139|26:193,1,170,4|8,0:0|0:0,0:0:0:0:
79,292,81582,1,0,0:0:0:0:
60,325,81663,1,0,0:0:0:0:
26,343,81744,1,0,0:0:0:0:
140,248,81905,1,0,0:0:0:0:
256,316,82066,1,8,0:0:0:0:
372,248,82228,2,0,P|393:240|418:240,1,42.5
299,254,82389,6,0,B|282:215|282:215|296:164,1,85,4|0,0:0|0:0,0:0:0:0:
403,95,82711,2,0,L|388:138,2,42.5,8|0|0,0:0|0:0|0:0,0:0:0:0:
284,26,83034,2,0,L|174:20,1,85
28,132,83357,2,0,L|112:136,1,85,8|0,0:0|0:0,0:0:0:0:
299,254,83679,6,0,L|315:300,3,42.5,4|0|0|0,0:0|0:0|0:0|0:0,0:0:0:0:
374,249,84002,2,0,L|410:280,3,42.5,8|0|0|0,0:0|0:0|0:0|0:0,0:0:0:0:
437,207,84324,2,0,L|484:216,3,42.5
472,139,84647,2,0,L|518:122,3,42.5,8|0|0|0,0:0|0:0|0:0|0:0,0:0:0:0:
466,61,84969,5,4,0:0:0:0:
421,45,85050,1,0,0:0:0:0:
376,61,85131,5,0,0:0:0:0:
353,71,85211,1,0,0:0:0:0:
299,44,85292,5,4,0:0:0:0:
241,61,85373,1,0,0:0:0:0:
207,43,85453,5,0,0:0:0:0:
182,51,85534,1,0,0:0:0:0:
142,35,85615,5,2,0:2:0:0:
102,48,85695,1,2,0:2:0:0:
71,78,85776,1,2,0:2:0:0:
56,117,85857,1,2,0:2:0:0:
57,159,85937,1,2,0:2:0:0:
75,197,86018,1,2,0:2:0:0:
106,224,86098,1,2,0:2:0:0:
148,231,86179,1,0,0:0:0:0:
197,216,86260,6,0,P|249:186|263:136,1,101.999996887207,6|0,0:0|0:0,0:0:0:0:
472,39,86582,2,0,P|420:69|406:119,1,101.999996887207,10|0,0:0|0:0,0:0:0:0:
403,157,86824,1,0,0:0:0:0:
409,207,86905,2,0,B|416:258|416:258|457:301,1,101.999996887207,2|0,0:0|0:0,0:0:0:0:
308,179,87228,2,0,B|301:128|301:128|260:85,1,101.999996887207,10|0,0:0|0:0,0:0:0:0:
36,36,87550,6,0,P|80:73|136:65,1,101.999996887207,2|0,0:0|0:0,0:0:0:0:
256,24,87873,1,10,0:0:0:0:
389,71,88034,1,0,0:0:0:0:
429,104,88115,1,0,0:0:0:0:
468,136,88195,2,0,B|480:189|480:189|466:244,1,101.999996887207,2|0,0:0|0:0,0:0:0:0:
344,343,88518,2,0,L|279:353,1,50.9999984436036,10|0,0:0|0:0,0:0:0:0:
299,268,88679,2,0,L|237:244,1,50.9999984436036
294,179,88840,6,0,P|292:119|327:72,1,101.999996887207,2|0,0:0|0:0,0:0:0:0:
158,27,89163,2,0,P|107:53|43:44,1,101.999996887207,10|0,0:0|0:0,0:0:0:0:
21,17,89405,1,0,0:0:0:0:
13,69,89486,2,0,B|7:123|7:123|19:184,1,101.999996887207,2|0,0:0|0:0,0:0:0:0:
124,354,89808,2,0,B|130:300|130:300|118:239,1,101.999996887207,10|0,0:0|0:0,0:0:0:0:
104,204,90050,1,0,0:0:0:0:
118,154,90131,6,0,P|146:111|202:101,1,101.999996887207,2|0,0:0|0:0,0:0:0:0:
273,114,90373,6,0,L|381:107,1,101.999996887207,2|0,0:0|0:0,0:0:0:0:
456,100,90615,6,0,P|487:143|475:197,1,101.999996887207,2|0,0:0|0:0,0:0:0:0:
403,217,90857,6,0,P|397:266|427:306,1,101.999996887207,2|0,0:0|0:0,0:0:0:0:
364,356,91098,6,0,L|305:361,1,50.9999984436036,2|0,0:0|0:0,0:0:0:0:
244,313,91260,6,0,L|185:318,1,50.9999984436036,2|0,0:0|0:0,0:0:0:0:
142,253,91421,6,0,L|32:259,1,101.999996887207,2|0,0:0|0:0,0:0:0:0:
3,98,91744,1,10,0:0:0:0:
144,17,91905,1,0,0:0:0:0:
193,29,91986,1,0,0:0:0:0:
242,40,92066,2,0,B|298:49|298:49|316:72|315:106,1,101.999996887207,2|0,0:0|0:0,0:0:0:0:
467,76,92389,2,0,B|411:67|411:67|393:44|394:10,1,101.999996887207,10|0,0:0|0:0,0:0:0:0:
466,155,92711,6,0,P|483:213|464:275,1,101.999996887207,2|0,0:0|0:0,0:0:0:0:
331,330,93034,2,0,P|314:272|333:210,1,101.999996887207,10|0,0:0|0:0,0:0:0:0:
344,186,93276,1,0,0:0:0:0:
375,145,93357,2,0,P|381:94|365:47,1,101.999996887207,2|0,0:0|0:0,0:0:0:0:
250,84,93679,2,0,L|300:104,1,50.9999984436036,10|0,0:0|0:0,0:0:0:0:
201,178,93840,2,0,L|254:170,1,50.9999984436036
246,264,94002,6,0,P|304:262|354:285,1,101.999996887207,2|0,0:0|0:0,0:0:0:0:
381,313,94244,1,0,0:0:0:0:
430,304,94324,2,0,B|466:265|466:265|456:206,1,101.999996887207,10|0,0:0|0:0,0:0:0:0:
449,166,94566,1,0,0:0:0:0:
458,115,94647,2,0,P|464:62|432:19,1,101.999996887207,2|0,0:0|0:0,0:0:0:0:
387,27,94889,1,0,0:0:0:0:
337,39,94969,2,0,B|285:47|285:47|224:24,1,101.999996887207,10|0,0:0|0:0,0:0:0:0:
187,32,95211,1,0,0:0:0:0:
135,35,95292,5,2,0:0:0:0:
53,95,95453,1,0,0:0:0:0:
49,109,95534,1,0,0:0:0:0:
45,123,95615,1,10,0:0:0:0:
142,119,95776,1,0,0:0:0:0:
134,148,95857,1,0,0:0:0:0:
127,177,95937,1,2,0:0:0:0:
231,143,96098,1,0,0:0:0:0:
220,187,96179,1,0,0:0:0:0:
210,232,96260,1,10,0:0:0:0:
320,167,96421,1,0,0:0:0:0:
309,227,96502,1,0,0:0:0:0:
297,286,96582,6,0,P|257:326|198:334,1,101.999996887207,6|0,0:0|0:0,0:0:0:0:
51,312,96905,2,0,P|91:272|150:264,1,101.999996887207,10|0,0:0|0:0,0:0:0:0:
180,241,97147,1,0,0:0:0:0:
223,214,97228,2,0,P|262:163|259:108,1,101.999996887207,2|0,0:0|0:0,0:0:0:0:
148,12,97550,2,0,P|109:63|112:118,1,101.999996887207,10|0,0:0|0:0,0:0:0:0:
265,141,97873,6,0,L|386:125,1,101.999996887207,2|0,0:0|0:0,0:0:0:0:
475,248,98195,2,0,L|354:264,1,101.999996887207,10|0,0:0|0:0,0:0:0:0:
323,268,98437,1,0,0:0:0:0:
272,277,98518,2,0,B|213:286|213:286|202:335,1,101.999996887207,2|0,0:0|0:0,0:0:0:0:
59,270,98840,2,0,L|48:321,1,50.9999984436036,10|0,0:0|0:0,0:0:0:0:
137,274,99002,2,0,L|126:325,1,50.9999984436036
101,208,99163,6,0,P|70:166|73:100,1,101.999996887207,6|0,0:0|0:0,0:0:0:0:
189,9,99486,2,0,P|220:51|217:117,1,101.999996887207,10|0,0:0|0:0,0:0:0:0:
205,147,99728,1,0,0:0:0:0:
173,186,99808,2,0,L|279:217,1,101.999996887207,2|0,0:0|0:0,0:0:0:0:
425,160,100131,1,10,0:0:0:0:
305,48,100292,1,0,0:0:0:0:
288,96,100373,1,0,0:0:0:0:
287,146,100453,6,0,P|307:197|290:249,1,101.999996887207,2|0,0:0|0:0,0:0:0:0:
224,264,100695,6,0,P|204:213|221:161,1,101.999996887207,2|0,0:0|0:0,0:0:0:0:
350,221,100937,6,0,P|327:278|292:300,1,101.999996887207,2|0,0:0|0:0,0:0:0:0:
161,189,101179,6,0,P|184:132|219:110,1,101.999996887207,2|0,0:0|0:0,0:0:0:0:
288,96,101421,6,0,P|312:92|345:73,1,50.9999984436036,2|0,0:0|0:0,0:0:0:0:
401,115,101582,6,0,P|425:108|453:109,1,50.9999984436036,2|0,0:0|0:0,0:0:0:0:
505,161,101744,5,6,0:0:0:0:
490,282,101905,1,0,0:0:0:0:
376,327,102066,1,10,0:0:0:0:
300,229,102228,1,0,0:0:0:0:
136,57,102389,5,2,0:0:0:0:
22,102,102550,1,0,0:0:0:0:
212,155,102711,1,10,0:0:0:0:
7,223,102873,1,0,0:0:0:0:
0,273,102953,1,0,0:0:0:0:
16,321,103034,5,6,0:0:0:0:
250,333,103195,1,0,0:0:0:0:
131,361,103357,1,10,0:0:0:0:
336,116,103518,1,0,0:0:0:0:
327,238,103679,1,2,0:0:0:0:
260,19,103840,2,0,P|229:11|196:16,1,50.9999984436036
92,49,104002,2,0,P|117:48|142:41,1,50.9999984436036,10|0,0:0|0:0,0:0:0:0:
16,47,104163,2,0,P|20:76|34:99,1,50.9999984436036
74,153,104324,5,4,0:0:0:0:
185,204,104486,2,0,P|263:184|304:70,1,203.999993774414,4|0,0:0|0:0,0:0:0:0:
227,304,104969,2,0,P|293:258|292:137,1,203.999993774414,4|0,0:0|0:0,0:0:0:0:
302,383,105453,2,0,P|348:317|307:203,1,203.999993774414,4|0,0:0|0:0,0:0:0:0:
455,361,105937,2,0,L|469:304,1,50.9999984436036,4|0,0:0|0:0,0:0:0:0:
482,251,106098,5,2,0:2:0:0:
475,189,106179,1,2,0:2:0:0:
483,154,106260,5,2,0:2:0:0:
475,119,106340,1,2,0:2:0:0:
438,90,106421,5,2,0:2:0:0:
408,54,106502,1,2,0:2:0:0:
380,42,106582,5,2,0:2:0:0:
349,44,106663,1,2,0:2:0:0:
300,27,106744,5,4,0:0:0:0:
256,192,106824,12,0,111421,0:0:0:0:
