osu file format v14

[General]
AudioFilename: audio.mp3
AudioLeadIn: 0
PreviewTime: 91192
Countdown: 0
SampleSet: Soft
StackLeniency: 0.7
Mode: 0
LetterboxInBreaks: 0
WidescreenStoryboard: 0

[Editor]
DistanceSpacing: 0.8
BeatDivisor: 2
GridSize: 4
TimelineZoom: 1.3

[Metadata]
Title:Crystalia
TitleUnicode:Crystalia
Artist:DJ TOTTO
ArtistUnicode:DJ TOTTO
Creator:6th
Version:Easy
Source:REFLEC BEAT VOLZZA
Tags:exile exile- left shyo shyotamaze ren derandom otaku
BeatmapID:1047133
BeatmapSetID:491369

[Difficulty]
HPDrainRate:2
CircleSize:2
OverallDifficulty:2
ApproachRate:4
SliderMultiplier:0.6
SliderTickRate:1

[Events]
//Background and Video events
0,0,"bgg.jpg",0,0
//Break Periods
2,22559,26373
2,70559,90373
//Storyboard Layer 0 (Background)
//Storyboard Layer 1 (Fail)
//Storyboard Layer 2 (Pass)
//Storyboard Layer 3 (Foreground)
//Storyboard Sound Samples

[TimingPoints]
1027,666.666666666667,4,2,1,40,1,0
1027,-66.6666666666667,4,2,1,70,0,0
27693,222.222222222222,3,1,1,70,1,0
49026,-100,4,1,1,100,0,1
65026,-100,4,1,1,100,0,1
70359,666.666666666667,4,2,1,70,1,0
91692,222.222222222222,3,1,1,70,1,1
113914,666.666666666667,4,2,1,40,1,0

[Colours]
Combo1 : 128,255,128
Combo2 : 215,192,102
Combo3 : 174,255,255
Combo4 : 45,147,126

[HitObjects]
176,236,1027,6,0,L|364:248,1,180.000006866455
420,167,3026,1,0,0:0:0:0:
346,100,3693,2,0,L|363:7,2,90.0000034332277,0|0|0,0:0|0:0|0:0,0:0:0:0:
257,145,5692,1,0,0:0:0:0:
335,205,6359,6,0,P|257:242|171:196,1,180.000006866455
257,145,8359,1,0,0:0:0:0:
335,205,9026,2,0,P|372:283|335:362,2,180.000006866455,0|0|0,0:0|0:0|0:0,0:0:0:0:
108,160,13026,6,0,L|100:62,1,90.0000034332277
197,45,14359,1,0,0:0:0:0:
252,127,15026,2,0,P|325:165|431:114,1,180.000006866455,0|0,0:0|0:0,0:0:0:0:
463,29,17026,2,0,L|453:229,1,180.000006866455
371,264,19027,1,0,0:0:0:0:
256,192,19692,12,0,22359,0:0:0:0:
285,85,27693,6,0,L|97:73,1,180,12|8,0:0|0:0,0:0:0:0:
10,181,29025,2,0,L|198:169,1,180,8|8,0:0|0:0,0:0:0:0:
281,272,30359,2,0,P|213:320|107:325,1,180,12|8,0:0|0:0,0:0:0:0:
47,202,31692,2,0,P|120:151|209:146,1,180,8|8,0:0|0:0,0:0:0:0:
320,238,33025,5,12,0:0:0:0:
383,108,33692,1,8,0:0:0:0:
245,65,34359,1,8,0:0:0:0:
182,195,35026,1,8,0:0:0:0:
320,155,35692,6,0,P|379:160|456:254,2,180,12|8|10,0:0|0:0|0:0,0:0:0:0:
179,187,37692,1,8,0:0:0:0:
82,79,38359,2,0,L|265:94,1,180,12|8,0:0|0:0,0:0:0:0:
368,189,39692,2,0,L|185:204,1,180,8|8,0:0|0:0,0:0:0:0:
57,143,41025,6,0,P|46:95|137:16,2,180,8|8|8,0:0|0:0|0:0,0:0:0:0:
135,263,43025,1,8,0:0:0:0:
246,172,43692,2,0,P|316:145|415:179,1,180,8|8,0:0|0:0,0:0:0:0:
416,320,45025,2,0,P|346:347|247:313,1,180,8|8,0:0|0:0,0:0:0:0:
130,179,46359,6,0,L|118:-12,2,180,8|8|12,0:0|0:0|0:0,0:0:0:0:
251,101,48359,1,8,0:0:0:0:
376,168,49025,6,0,L|373:296,1,120,4|0,0:0|0:0,0:0:0:0:
352,331,49692,1,4,0:0:0:0:
215,285,50359,2,0,L|217:165,1,120,4|0,0:0|0:0,0:0:0:0:
239,122,51026,1,4,0:0:0:0:
318,67,51470,5,4,0:0:0:0:
361,47,51692,2,0,P|414:33|484:62,1,120,4|0,0:0|0:0,0:0:0:0:
499,94,52359,1,4,0:0:0:0:
408,205,53025,2,0,P|355:219|285:190,1,120,4|0,0:0|0:0,0:0:0:0:
255,171,53692,1,4,0:0:0:0:
146,76,54359,6,0,L|152:201,1,120,12|0,0:0|0:0,0:0:0:0:
121,233,55025,1,4,0:0:0:0:
198,290,55470,1,0,0:0:0:0:
237,317,55692,2,0,L|356:311,1,120,4|0,0:0|0:0,0:0:0:0:
394,342,56358,1,4,0:0:0:0:
433,254,56803,1,4,0:0:0:0:
452,210,57025,6,0,P|468:163|449:90,1,120,4|0,0:0|0:0,0:0:0:0:
416,64,57692,1,4,0:0:0:0:
278,18,58359,2,0,P|262:65|281:138,1,120,4|0,0:0|0:0,0:0:0:0:
321,150,59025,2,0,P|337:197|318:270,1,120,12|0,0:0|0:0,0:0:0:0:
284,294,59692,6,0,L|190:283,2,90,4|4|4,0:0|0:0|0:0,0:0:0:0:
344,219,60803,1,4,0:0:0:0:
376,183,61025,2,0,L|470:172,2,90,4|4|4,0:0|0:0|0:0,0:0:0:0:
318,105,62137,1,4,0:0:0:0:
286,69,62359,6,0,L|192:58,2,90,4|4|4,0:0|0:0|0:0,0:0:0:0:
370,23,63470,1,4,0:0:0:0:
417,15,63692,2,0,L|511:4,2,90,4|4|4,0:0|0:0|0:0,0:0:0:0:
400,109,64803,1,4,0:0:0:0:
392,156,65025,6,0,L|381:250,2,90,4|4|4,0:0|0:0|0:0,0:0:0:0:
297,137,66137,1,4,0:0:0:0:
289,90,66359,2,0,L|278:-4,2,90,4|4|4,0:0|0:0|0:0,0:0:0:0:
195,110,67470,1,4,0:0:0:0:
148,102,67692,6,0,L|54:91,2,90,4|4|4,0:0|0:0|0:0,0:0:0:0:
129,196,68803,1,4,0:0:0:0:
120,243,69025,2,0,L|214:254,2,90,4|4|4,0:0|0:0|0:0,0:0:0:0:
20,347,70359,5,12,0:0:0:0:
46,156,91693,6,0,L|37:53,2,90,14|2|10,0:0|0:0|0:0,0:0:0:0:
190,155,93026,2,0,L|199:52,2,90,10|0|10,0:0|0:0|0:0,0:0:0:0:
275,271,94359,1,14,0:0:0:0:
395,192,95025,2,0,P|434:129|406:30,2,180,10|10|10,0:0|0:0|0:0,0:0:0:0:
256,153,97025,6,0,L|134:147,1,120,14|2,0:0|0:0,0:0:0:0:
89,158,97692,1,10,0:0:0:0:
41,294,98359,2,0,L|163:288,1,120,10|2,0:0|0:0,0:0:0:0:
208,299,99026,1,10,0:0:0:0:
303,298,99470,5,10,0:0:0:0:
346,320,99692,2,0,P|402:332|466:296,2,120,14|2|2,0:0|0:0|0:0,0:0:0:0:
248,304,101025,2,0,P|291:239|405:239,1,180,10|10,0:0|0:0,0:0:0:0:
348,320,102137,1,2,0:0:0:0:
396,328,102359,6,0,L|485:331,2,90,14|0|10,0:0|2:0|0:0,0:0:0:0:
296,357,103470,1,2,0:0:0:0:
265,322,103692,2,0,L|176:319,2,90,10|0|10,0:0|2:0|0:0,0:0:0:0:
347,203,105025,6,0,P|361:145|337:83,1,120,14|2,0:0|0:0,0:0:0:0:
308,55,105692,1,10,0:0:0:0:
163,53,106359,2,0,P|149:111|173:173,1,120,10|2,0:0|0:0,0:0:0:0:
202,201,107026,1,10,0:0:0:0:
342,168,107692,6,0,P|356:226|332:288,1,120,14|2,0:0|0:0,0:0:0:0:
301,314,108359,1,10,0:0:0:0:
246,180,109025,2,0,P|202:138|137:128,1,120,14|2,0:0|0:0,0:0:0:0:
99,143,109692,1,10,0:0:0:0:
192,252,110359,6,0,L|315:240,1,120,14|2,0:0|0:0,0:0:0:0:
352,265,111025,2,0,P|387:200|377:150,1,120,14|2,0:0|0:0,0:0:0:0:
334,142,111692,2,0,P|299:77|309:27,1,120,14|2,0:0|0:0,0:0:0:0:
350,14,112359,2,0,L|480:3,1,120,14|12,0:0|0:0,0:0:0:0:
256,192,113914,12,0,116469,0:0:0:0:
