osu file format v12

[General]
AudioFilename: DJ THT meets Scarlet - Live to Dance (Nightcore Mix).mp3
AudioLeadIn: 0
PreviewTime: 34755
Countdown: 0
SampleSet: Normal
StackLeniency: 0.7
Mode: 0
LetterboxInBreaks: 0

[Editor]
DistanceSpacing: 1.2
BeatDivisor: 4
GridSize: 4

[Metadata]
Title:Live 2 Dance (Nightcore Mix)
TitleUnicode:Live 2 Dance (Nightcore Mix)
Artist:DJ THT meets Scarlet
ArtistUnicode:DJ THT meets Scarlet
Creator:-Bakari-
Version:Normal
Source:
Tags:collab Black_Cherry_Ita Flask BCI Lally rave remix dancecore hands up
BeatmapID:221510
BeatmapSetID:79363

[Difficulty]
HPDrainRate:4
CircleSize:4
OverallDifficulty:4
ApproachRate:5
SliderMultiplier:1.2
SliderTickRate:1

[Events]
//Background and Video events
0,0,"DANCETODANCEDANCEDANCEDDANCEDANCE.jpg",0,0
//Break Periods
2,57306,68780
//Storyboard Layer 0 (Background)
//Storyboard Layer 1 (Fail)
//Storyboard Layer 2 (Pass)
//Storyboard Layer 3 (Foreground)
//Storyboard Sound Samples
//Background Colour Transformations
3,100,163,162,255

[TimingPoints]
3578,338.791643139469,4,2,1,45,1,0
19839,-100,4,2,1,70,0,0
25260,-100,4,1,1,40,0,0
33052,-100,4,1,1,45,0,0
35424,338.791643139469,4,1,1,60,1,1
57106,-100,4,1,1,70,0,0
69981,-100,4,2,1,50,0,0
81499,-100,4,1,1,70,0,1
90308,-100,4,2,1,5,0,0
92340,-100,4,1,1,70,0,1
111313,-100,4,1,1,50,0,0

[Colours]
Combo1 : 181,175,159
Combo2 : 254,203,245
Combo3 : 111,173,230
Combo4 : 122,217,108
SliderBorder : 255,255,255

[HitObjects]
100,344,3578,5,2,0:0:0:0:
128,240,3916,2,0,P|140:212|120:124,2,120
32,188,4933,2,0,P|16:128|36:68,1,120,2|0,0:0|0:0,0:0:0:0:
136,44,5610,2,0,P|184:52|256:48,1,120
364,48,6288,6,0,L|492:64,2,120,2|0|0,0:0|0:0|0:0,0:0:0:0:
287,124,7304,1,0,0:0:0:0:
210,200,7643,2,0,L|82:184,2,120,2|0|0,0:0|0:0|0:0,0:0:0:0:
288,276,8659,1,0,0:0:0:0:
368,348,8998,6,0,P|392:288|384:232,1,120,2|0,0:0|0:0,0:0:0:0:
308,160,9676,2,0,P|300:106|324:46,1,120
220,24,10353,2,0,P|204:56|200:144,1,120,2|0,0:0|0:0,0:0:0:0:
120,212,11031,2,0,L|0:224,1,120
64,312,11708,2,0,P|144:328|228:204,2,240,2|0|2,0:0|0:0|0:0,0:0:0:0:
0,224,13402,5,2,0:0:0:0:
80,152,13741,2,0,P|104:100|104:32,1,120,2|2,0:0|0:0,0:0:0:0:
212,44,14419,2,0,L|336:28,1,120,8|2,0:0|0:0,0:0:0:0:
408,104,15096,2,0,L|284:120,1,120,0|2,0:0|0:0,0:0:0:0:
216,200,15774,5,8,0:0:0:0:
264,300,16113,1,2,0:0:0:0:
372,288,16452,1,0,0:0:0:0:
248,112,17129,5,8,0:0:0:0:
160,48,17468,1,2,0:0:0:0:
68,104,17807,1,0,0:0:0:0:
260,200,18484,5,8,0:0:0:0:
352,140,18823,1,2,0:0:0:0:
360,32,19162,1,0,0:0:0:0:
480,212,19839,6,0,P|464:272|472:336,1,120,8|2,0:0|0:0,0:0:0:0:
364,360,20517,2,0,P|360:296|368:240,1,120,0|2,0:0|0:0,0:0:0:0:
384,132,21195,2,0,P|384:56|256:156,1,360,8|2,0:0|0:0,0:0:0:0:
284,252,22550,6,0,P|292:292|124:248,1,360,8|2,0:0|0:0,0:0:0:0:
156,144,23905,2,0,P|180:88|188:24,2,120,0|2|0,0:0|0:0|0:0,0:0:0:0:
248,200,24921,1,2,0:0:0:0:
320,280,25260,6,0,B|352:244|404:300|452:276,2,120,0|8|0,0:0|0:0|0:0,0:0:0:0:
320,176,26277,1,8,0:0:0:0:
228,232,26615,2,0,L|104:252,1,120,0|8,0:0|0:0,0:0:0:0:
112,148,27293,2,0,P|136:104|140:28,1,120,0|8,0:0|0:0,0:0:0:0:
40,68,27970,6,0,P|-4:116|-8:168,1,120,0|8,0:0|0:0,0:0:0:0:
8,220,28479,1,0,0:0:0:0:
36,264,28648,2,0,P|56:320|32:380,1,120,0|8,0:0|0:0,0:0:0:0:
144,368,29326,2,0,L|272:356,1,120,4|8,0:0|0:0,0:0:0:0:
300,316,29834,1,0,0:0:0:0:
344,348,30003,2,0,L|468:340,1,120
484,232,30681,5,0,0:0:0:0:
400,164,31020,2,0,P|292:144|312:24,1,240
192,40,32036,2,0,B|148:40|148:40|112:28|112:28|72:28,1,120
20,124,32714,2,0,L|36:184,1,60
256,192,33052,12,4,34746,0:0:0:0:
120,320,35424,6,0,L|96:200,1,120,4|8,0:0|0:0,0:0:0:0:
160,116,36101,1,2,0:0:0:0:
212,212,36440,1,8,0:0:0:0:
272,120,36779,1,2,0:0:0:0:
328,212,37117,1,8,0:0:0:0:
400,132,37456,2,0,L|528:104,2,120,2|8|2,0:0|0:0|0:0,0:0:0:0:
328,52,38473,1,8,0:0:0:0:
224,80,38811,6,0,P|160:84|112:44,1,120,2|8,0:0|0:0,0:0:0:0:
16,72,39489,2,0,L|48:196,1,120,2|8,0:0|0:0,0:0:0:0:
136,252,40167,2,0,L|52:344,2,120,2|8|2,0:0|0:0|0:0,0:0:0:0:
244,240,41183,1,8,0:0:0:0:
299,147,41522,6,0,P|353:133|383:67,1,120,2|8,0:0|0:0,0:0:0:0:
424,44,42030,1,0,0:0:0:0:
468,76,42199,2,0,P|440:176|480:308,1,240,2|2,0:0|0:0,0:0:0:0:
380,348,43216,1,8,0:0:0:0:
300,276,43554,1,2,0:0:0:0:
212,340,43893,1,8,0:0:0:0:
112,296,44232,6,0,P|56:308|24:364,2,120,0|8|4,0:0|0:0|0:0,0:0:0:0:
112,88,45587,2,0,P|56:76|24:20,2,120,0|8|4,0:0|0:0|0:0,0:0:0:0:
212,132,46604,1,8,0:0:0:0:
302,73,46942,6,0,L|421:56,1,120,2|8,0:0|0:0,0:0:0:0:
493,136,47620,2,0,L|373:154,1,120,2|8,0:0|0:0,0:0:0:0:
372,262,48298,2,0,P|373:311|345:378,1,120,2|8,0:0|0:0,0:0:0:0:
271,298,48975,2,0,P|267:234|305:183,1,120,2|8,0:0|0:0,0:0:0:0:
294,135,49483,1,0,0:0:0:0:
274,84,49653,22,0,L|144:73,1,120,2|8,0:0|0:0,0:0:0:0:
51,38,50330,1,2,0:0:0:0:
70,144,50669,1,8,0:0:0:0:
46,249,51008,1,2,0:0:0:0:
5,349,51347,2,0,P|68:344|122:357,1,120,8|2,0:0|0:0,0:0:0:0:
228,379,52024,1,8,0:0:0:0:
303,301,52363,6,0,P|310:229|461:236,1,240,2|2,0:0|0:0,0:0:0:0:
508,127,53379,1,8,0:0:0:0:
401,111,53718,2,0,P|338:114|223:246,1,240,2|2,0:0|0:0,0:0:0:0:
227,344,54735,1,8,0:0:0:0:
256,192,55073,12,0,57106,0:0:0:0:
200,156,69980,6,0,P|266:143|296:98,1,120,4|2,0:0|0:0,0:0:0:0:
396,67,70658,2,0,L|525:37,2,120,0|8|4,0:0|0:0|0:0,0:0:0:0:
388,120,71505,1,0,0:0:0:0:
411,168,71674,2,0,P|439:218|431:281,2,120,8|0|8,0:0|0:0|0:0,0:0:0:0:
330,239,72691,6,0,L|208:227,1,120,0|8,0:0|0:0,0:0:0:0:
126,158,73368,2,0,P|126:214|104:284,1,120,0|8,0:0|0:0,0:0:0:0:
27,203,74046,2,0,P|27:147|49:77,1,120,0|8,0:0|0:0,0:0:0:0:
150,60,74723,2,0,P|210:71|271:55,1,120,0|8,0:0|0:0,0:0:0:0:
372,34,75401,6,0,P|429:23|500:51,1,120,0|8,0:0|0:0,0:0:0:0:
425,130,76078,1,2,0:0:0:0:
483,221,76417,1,0,0:0:0:0:
409,299,76756,2,0,L|291:333,1,120,0|8,0:0|0:0,0:0:0:0:
219,252,77434,6,0,P|217:300|169:358,1,120,0|8,0:0|0:0,0:0:0:0:
107,269,78111,2,0,P|116:213|169:157,1,120,0|8,0:0|0:0,0:0:0:0:
207,149,78619,1,0,0:0:0:0:
257,129,78789,2,0,P|301:87|319:29,1,120,0|8,0:0|0:0,0:0:0:0:
256,192,79466,12,4,81499,0:0:0:0:
112,76,81838,5,8,0:0:0:0:
208,128,82177,2,0,P|264:136|324:104,1,120,2|8,0:0|0:0,0:0:0:0:
364,80,82685,1,0,0:0:0:0:
400,40,82854,2,0,L|444:152,1,120,2|8,0:0|0:0,0:0:0:0:
496,248,83532,2,0,L|444:368,2,120,2|8|2,0:0|0:0|0:0,0:0:0:0:
388,228,84548,5,8,0:0:0:0:
336,248,84718,1,0,0:0:0:0:
284,256,84887,2,0,P|228:240|192:184,1,120,2|8,0:0|0:0,0:0:0:0:
132,104,85565,2,0,P|100:156|44:192,1,120,2|8,0:0|0:0,0:0:0:0:
20,296,86242,2,0,P|84:296|132:328,1,120,2|8,0:0|0:0,0:0:0:0:
184,340,86750,1,0,0:0:0:0:
232,320,86920,2,0,L|356:340,1,120,2|8,0:0|0:0,0:0:0:0:
460,352,87597,6,0,P|448:288|464:224,1,120,2|8,0:0|0:0,0:0:0:0:
496,136,88275,1,2,0:0:0:0:
432,48,88614,1,8,0:0:0:0:
336,100,88953,2,0,L|208:76,1,120,2|8,0:0|0:0,0:0:0:0:
148,160,89630,2,0,L|272:184,1,120,2|10,0:0|0:0,0:0:0:0:
256,192,90308,12,4,92340,0:0:0:0:
184,284,92679,5,8,0:0:0:0:
184,232,92849,1,0,0:0:0:0:
208,184,93018,2,0,P|232:108|100:64,1,240,2|2,0:0|0:0,0:0:0:0:
20,120,94034,1,8,0:0:0:0:
84,208,94373,2,0,P|80:268|48:328,1,120,2|8,0:0|0:0,0:0:0:0:
156,356,95051,6,0,P|180:300|192:240,1,120,2|8,0:0|0:0,0:0:0:0:
188,188,95559,1,0,0:0:0:0:
172,136,95728,2,0,L|308:124,1,120,2|8,0:0|0:0,0:0:0:0:
340,28,96406,2,0,L|216:40,1,120,2|8,0:0|0:0,0:0:0:0:
168,48,96914,1,0,0:0:0:0:
116,32,97084,2,0,P|60:28|20:76,1,120,2|8,0:0|0:0,0:0:0:0:
80,164,97761,6,0,P|88:224|60:284,1,120,2|8,0:0|0:0,0:0:0:0:
68,332,98269,1,0,0:0:0:0:
120,352,98439,2,0,P|180:368|240:344,1,120,2|8,0:0|0:0,0:0:0:0:
336,316,99116,2,0,L|464:340,1,120,2|8,0:0|0:0,0:0:0:0:
472,232,99794,1,2,0:0:0:0:
408,140,100133,1,8,0:0:0:0:
468,52,100471,5,2,0:0:0:0:
360,56,100810,2,0,L|232:64,1,120,8|2,0:0|0:0,0:0:0:0:
132,44,101488,2,0,P|144:104|144:164,1,120,8|0,0:0|0:0,0:0:0:0:
100,264,102165,1,8,0:0:0:0:
188,328,102504,2,0,P|248:320|312:332,1,120,2|8,0:0|0:0,0:0:0:0:
356,352,103012,1,0,0:0:0:0:
404,372,103182,6,0,P|432:312|480:280,1,120,2|8,0:0|0:0,0:0:0:0:
396,204,103859,2,0,P|344:236|272:224,1,120,2|8,0:0|0:0,0:0:0:0:
240,208,104368,1,0,0:0:0:0:
200,180,104537,2,0,P|173:130|196:53,1,120,0|8,0:0|0:0,0:0:0:0:
268,116,105215,2,0,L|388:120,1,120,2|8,0:0|0:0,0:0:0:0:
460,180,105892,2,0,L|348:236,1,120,2|8,0:0|0:0,0:0:0:0:
256,220,106570,5,2,0:0:0:0:
172,172,106909,1,8,0:0:0:0:
156,280,107247,2,0,P|100:252|68:204,1,120,2|8,0:0|0:0,0:0:0:0:
80,96,107925,2,0,P|128:64|192:56,1,120,2|8,0:0|0:0,0:0:0:0:
252,144,108602,2,0,P|256:200|236:260,1,120,2|8,0:0|0:0,0:0:0:0:
288,344,109280,6,0,L|412:336,1,120,2|8,0:0|0:0,0:0:0:0:
472,248,109958,1,2,0:0:0:0:
372,208,110296,2,0,L|360:76,1,120,8|2,0:0|0:0,0:0:0:0:
256,64,110974,1,8,0:0:0:0:
152,88,111313,1,4,0:0:0:0:
256,192,111990,12,4,114023,0:0:0:0:
