osu file format v12

[General]
AudioFilename: DJ THT meets Scarlet - Live to Dance (Nightcore Mix).mp3
AudioLeadIn: 0
PreviewTime: 34755
Countdown: 0
SampleSet: Normal
StackLeniency: 0.7
Mode: 0
LetterboxInBreaks: 0

[Editor]
DistanceSpacing: 1.2
BeatDivisor: 4
GridSize: 4

[Metadata]
Title:Live 2 Dance (Nightcore Mix)
TitleUnicode:Live 2 Dance (Nightcore Mix)
Artist:DJ THT meets Scarlet
ArtistUnicode:DJ THT meets Scarlet
Creator:-Bakari-
Version:Hard
Source:
Tags:collab Black_Cherry_Ita Flask BCI Lally rave remix dancecore hands up
BeatmapID:221508
BeatmapSetID:79363

[Difficulty]
HPDrainRate:6
CircleSize:4
OverallDifficulty:6
ApproachRate:8
SliderMultiplier:1.5
SliderTickRate:2

[Events]
//Background and Video events
0,0,"DANCETODANCEDANCEDANCEDDANCEDANCE.jpg",0,0
//Break Periods
2,57306,69230
//Storyboard Layer 0 (Background)
//Storyboard Layer 1 (Fail)
//Storyboard Layer 2 (Pass)
//Storyboard Layer 3 (Foreground)
//Storyboard Sound Samples
//Background Colour Transformations
3,100,163,162,255

[TimingPoints]
3578,338.791643139469,4,2,1,45,1,0
19839,-100,4,2,1,70,0,0
25260,-100,4,1,1,40,0,0
33052,-100,4,1,1,45,0,0
35424,338.791643139469,4,1,1,60,1,1
57106,-100,4,1,1,70,0,0
69981,-100,4,2,1,65,0,0
81499,-83.3333333333333,4,1,1,70,0,1
90308,-100,4,2,1,5,0,0
92340,-83.3333333333333,4,1,1,70,0,1
111313,-100,4,1,1,50,0,0

[Colours]
Combo1 : 181,175,159
Combo2 : 254,203,245
Combo3 : 111,173,230
Combo4 : 122,217,108
SliderBorder : 255,255,255

[HitObjects]
80,332,3578,2,0,P|108:284|64:200,1,150,2|0,0:0|0:0,0:0:0:0:
36,128,4086,1,0,0:0:0:0:
80,56,4255,2,0,L|236:64,1,150
368,156,4933,1,2,0:0:0:0:
420,312,5271,1,0,0:0:0:0:
340,340,5441,2,0,P|264:356|100:336,1,225
48,188,6288,5,2,0:0:0:0:
208,228,6627,1,0,0:0:0:0:
160,72,6965,1,0,0:0:0:0:
488,44,7643,2,0,P|428:124|452:248,2,225,2|0|0,0:0|0:0|0:0,0:0:0:0:
324,72,8998,6,0,P|304:120|324:216,1,150,2|0,0:0|0:0,0:0:0:0:
360,288,9506,1,0,0:0:0:0:
436,324,9676,2,0,P|400:364|300:344,1,150
184,248,10353,2,0,P|212:304|180:380,1,150,2|0,0:0|0:0,0:0:0:0:
128,312,10862,1,0,0:0:0:0:
104,232,11031,2,0,P|128:184|220:172,1,150
248,16,11708,6,0,L|400:48,1,150,2|2,0:0|0:0,0:0:0:0:
476,44,12217,1,0,0:0:0:0:
460,124,12386,2,0,P|432:196|448:284,1,150,0|2,0:0|0:0,0:0:0:0:
292,336,13064,2,0,P|208:304|4:360,1,300,2|4,0:0|0:0,0:0:0:0:
40,192,14080,1,2,0:0:0:0:
192,132,14419,6,0,P|268:132|312:68,1,150,8|2,0:0|0:0,0:0:0:0:
228,60,14927,1,0,0:0:0:0:
144,68,15096,2,0,B|104:32|63:69|28:104|-12:60,1,150,0|2,0:0|0:0,0:0:0:0:
48,232,15774,2,0,L|132:356,1,150,8|2,0:0|0:0,0:0:0:0:
216,352,16282,1,0,0:0:0:0:
184,276,16452,2,0,L|96:144,1,150,0|2,0:0|0:0,0:0:0:0:
228,44,17129,6,0,P|248:116|328:132,1,150,8|2,0:0|0:0,0:0:0:0:
476,108,17807,2,0,P|424:156|448:244,1,150,0|2,0:0|0:0,0:0:0:0:
512,376,18484,1,8,0:0:0:0:
432,352,18654,1,0,0:0:0:0:
348,348,18823,1,2,0:0:0:0:
184,364,19162,1,0,0:0:0:0:
200,196,19501,1,2,0:0:0:0:
116,56,19839,6,0,P|180:60|272:32,1,150,2|2,0:0|0:0,0:0:0:0:
280,120,20348,1,0,0:0:0:0:
272,200,20517,2,0,P|354:222|418:218,1,150,0|2,0:0|0:0,0:0:0:0:
460,148,21025,1,0,0:0:0:0:
500,220,21195,2,0,L|528:292,1,75,8|0,0:0|0:0,0:0:0:0:
476,352,21533,2,0,L|444:272,1,75,2|0,0:0|0:0,0:0:0:0:
368,268,21872,2,0,P|328:312|228:320,1,150,0|2,0:0|0:0,0:0:0:0:
308,172,22550,6,0,P|264:216|176:220,1,150,2|2,0:0|0:0,0:0:0:0:
56,112,23227,2,0,P|84:220|40:328,1,225
116,364,23905,2,0,P|184:344|264:356,1,150,8|0,0:0|0:0,0:0:0:0:
344,344,24413,1,0,0:0:0:0:
424,360,24583,2,0,P|492:336|500:248,1,150,0|2,0:0|0:0,0:0:0:0:
476,104,25260,6,0,L|324:112,1,150,4|8,0:0|0:0,0:0:0:0:
264,56,25768,1,0,0:0:0:0:
232,132,25938,2,0,P|196:108|184:68,1,75
104,88,26277,2,0,P|96:128|60:171,1,75,8|0,0:0|0:0,0:0:0:0:
28,224,26615,1,0,0:0:0:0:
140,348,26954,1,8,0:0:0:0:
264,240,27293,1,0,0:0:0:0:
228,164,27462,1,0,0:0:0:0:
272,92,27632,1,8,0:0:0:0:
436,68,27970,6,0,L|512:72,1,75
504,156,28309,2,0,L|344:168,1,150,8|0,0:0|0:0,0:0:0:0:
392,240,28817,1,0,0:0:0:0:
472,256,28987,1,8,0:0:0:0:
332,344,29326,6,0,P|260:332|188:368,1,150,0|8,0:0|0:0,0:0:0:0:
108,364,29834,1,0,0:0:0:0:
156,296,30003,2,0,P|120:232|140:152,1,150,0|8,0:0|0:0,0:0:0:0:
96,88,30511,1,0,0:0:0:0:
180,88,30681,2,0,L|336:80,1,150,0|8,0:0|0:0,0:0:0:0:
452,192,31358,2,0,L|296:200,1,150,0|8,0:0|0:0,0:0:0:0:
184,316,32036,2,0,L|340:308,1,150,0|8,0:0|0:0,0:0:0:0:
452,192,32714,1,8,0:0:0:0:
256,192,33052,12,4,34408,0:0:0:0:
324,80,34746,5,0,0:0:0:0:
240,32,34916,1,0,0:0:0:0:
176,104,35085,1,0,0:0:0:0:
88,64,35255,1,0,0:0:0:0:
36,148,35424,6,0,P|28:256|92:352,1,225,4|8,0:0|0:0,0:0:0:0:
188,364,36101,2,0,L|284:372,1,75,2|0,0:0|0:0,0:0:0:0:
356,340,36440,2,0,P|340:276|380:168,1,150,8|2,0:0|0:0,0:0:0:0:
456,208,36948,1,0,0:0:0:0:
448,112,37117,2,0,P|460:72|456:16,1,75,8|0,0:0|0:0,0:0:0:0:
364,56,37456,5,2,0:0:0:0:
272,92,37626,1,0,0:0:0:0:
180,60,37795,2,0,P|176:160|136:232,2,150,8|2|8,0:0|0:0|0:0,0:0:0:0:
84,36,38642,1,0,0:0:0:0:
84,136,38811,2,0,L|256:172,1,150,2|8,0:0|0:0,0:0:0:0:
452,136,39489,6,0,P|420:204|424:312,1,150,2|8,0:0|0:0,0:0:0:0:
344,344,39997,1,0,0:0:0:0:
256,304,40167,2,0,P|208:344|112:320,1,150,2|8,0:0|0:0,0:0:0:0:
48,272,40675,1,0,0:0:0:0:
80,180,40844,2,0,L|48:84,1,75,2|0,0:0|0:0,0:0:0:0:
136,44,41183,1,8,0:0:0:0:
332,72,41522,6,0,L|424:80,1,75,2|0,0:0|0:0,0:0:0:0:
504,44,41861,2,0,P|496:104|504:216,2,150,8|2|8,0:0|0:0|0:0,0:0:0:0:
392,208,42877,2,0,L|292:200,1,75,2|0,0:0|0:0,0:0:0:0:
220,144,43216,2,0,P|224:216|204:324,1,150,8|2,0:0|0:0,0:0:0:0:
116,312,43724,1,0,0:0:0:0:
48,240,43893,2,0,L|36:140,1,75,8|0,0:0|0:0,0:0:0:0:
128,120,44232,6,0,P|144:80|148:32,1,75,2|0,0:0|0:0,0:0:0:0:
244,60,44571,2,0,P|224:104|224:156,1,75,8|0,0:0|0:0,0:0:0:0:
288,220,44910,1,4,0:0:0:0:
256,192,45079,12,4,46265,0:0:0:0:
260,320,46942,6,0,L|156:328,2,75,2|0|8,0:0|0:0|0:0,0:0:0:0:
236,224,47451,1,0,0:0:0:0:
148,184,47620,2,0,P|104:164|72:136,1,75,2|0,0:0|0:0,0:0:0:0:
88,40,47959,2,0,P|128:60|160:92,1,75,8|0,0:0|0:0,0:0:0:0:
248,136,48298,6,0,L|344:120,1,75,2|0,0:0|0:0,0:0:0:0:
416,64,48636,2,0,P|416:136|432:248,1,150,8|2,0:0|0:0,0:0:0:0:
512,304,49145,1,0,0:0:0:0:
420,340,49314,2,0,L|320:328,1,75,8|0,0:0|0:0,0:0:0:0:
244,280,49653,5,2,0:0:0:0:
240,272,49822,1,0,0:0:0:0:
144,276,49992,1,8,0:0:0:0:
136,272,50161,1,0,0:0:0:0:
61,340,50330,1,2,0:0:0:0:
52,340,50500,1,0,0:0:0:0:
40,244,50669,2,0,P|28:208|24:160,1,75,8|0,0:0|0:0,0:0:0:0:
104,112,51008,6,0,P|112:160|124:208,1,75,2|0,0:0|0:0,0:0:0:0:
196,132,51347,2,0,P|192:88|176:44,1,75,8|0,0:0|0:0,0:0:0:0:
268,36,51685,2,0,L|368:44,1,75,2|0,0:0|0:0,0:0:0:0:
388,128,52024,2,0,L|288:120,1,75,8|0,0:0|0:0,0:0:0:0:
260,200,52363,5,2,0:0:0:0:
180,244,52532,1,0,0:0:0:0:
92,224,52702,2,0,P|100:280|96:316,1,75,8|0,0:0|0:0,0:0:0:0:
180,244,53041,2,0,P|180:200|164:148,1,75,2|0,0:0|0:0,0:0:0:0:
260,200,53379,2,0,P|268:252|260:296,1,75,8|0,0:0|0:0,0:0:0:0:
332,324,53718,6,0,P|344:268|340:164,1,150,2|8,0:0|0:0,0:0:0:0:
260,116,54226,1,0,0:0:0:0:
344,80,54396,2,0,L|444:76,2,75,2|0|8,0:0|0:0|0:0,0:0:0:0:
272,24,54904,1,0,0:0:0:0:
256,192,55073,12,0,57106,0:0:0:0:
165,142,69980,5,2,0:0:0:0:
294,67,70319,1,8,0:0:0:0:
369,197,70658,1,2,0:0:0:0:
238,272,70997,1,8,0:0:0:0:
380,320,71335,2,0,P|420:308|452:280,1,75
484,224,71674,2,0,P|496:184|496:140,1,75,8|0,0:0|0:0,0:0:0:0:
452,92,72013,6,0,L|296:80,1,150,0|8,0:0|0:0,0:0:0:0:
240,132,72521,1,0,0:0:0:0:
180,188,72691,2,0,L|96:192,1,75
28,156,73029,2,0,P|32:232|24:312,2,150,8|0|8,0:0|0:0|0:0,0:0:0:0:
8,76,73876,5,0,0:0:0:0:
88,96,74046,2,0,L|168:88,1,75
228,36,74385,2,0,P|240:112|264:208,2,150,8|0|8,0:0|0:0|0:0,0:0:0:0:
312,36,75232,1,0,0:0:0:0:
380,84,75401,6,0,P|468:68|532:72,2,150,0|8|2,0:0|0:0|0:0,0:0:0:0:
352,160,76248,1,0,0:0:0:0:
416,212,76417,2,0,P|416:248|420:288,1,75,8|0,0:0|0:0,0:0:0:0:
440,368,76756,6,0,P|376:360|280:372,1,150,0|8,0:0|0:0,0:0:0:0:
232,312,77264,1,0,0:0:0:0:
156,344,77434,2,0,L|72:348,1,75
36,276,77772,1,8,0:0:0:0:
68,200,77942,1,0,0:0:0:0:
44,120,78111,6,0,L|28:40,1,75
112,32,78450,2,0,L|128:108,1,75,8|0,0:0|0:0,0:0:0:0:
204,136,78789,1,2,0:0:0:0:
256,192,79128,12,4,81499,0:0:0:0:
128,324,81838,6,0,P|128:280|112:236,1,89.9999972534181,8|0,0:0|0:0,0:0:0:0:
72,144,82177,2,0,P|64:100|64:48,1,89.9999972534181,2|0,0:0|0:0,0:0:0:0:
156,88,82516,1,8,0:0:0:0:
264,172,82685,1,0,0:0:0:0:
224,40,82854,1,2,0:0:0:0:
180,168,83024,1,0,0:0:0:0:
292,92,83193,1,8,0:0:0:0:
468,52,83532,6,0,P|464:92|468:148,1,89.9999972534181,2|0,0:0|0:0,0:0:0:0:
400,204,83871,1,8,0:0:0:0:
468,264,84040,1,0,0:0:0:0:
384,292,84209,2,0,P|336:296|292:296,1,89.9999972534181,2|0,0:0|0:0,0:0:0:0:
228,224,84548,2,0,P|276:220|320:220,1,89.9999972534181,8|0,0:0|0:0,0:0:0:0:
264,136,84887,6,0,P|220:140|172:140,1,89.9999972534181,2|0,0:0|0:0,0:0:0:0:
108,68,85226,2,0,P|156:64|200:64,1,89.9999972534181,8|0,0:0|0:0,0:0:0:0:
296,44,85565,2,0,P|336:60|388:64,1,89.9999972534181,2|0,0:0|0:0,0:0:0:0:
480,48,85903,2,0,P|460:88|452:136,1,89.9999972534181,8|0,0:0|0:0,0:0:0:0:
416,224,86242,6,0,P|472:244|428:332,2,179.999994506836,2|8|2,0:0|0:0|0:0,0:0:0:0:
344,156,87089,1,0,0:0:0:0:
276,228,87259,2,0,L|168:224,1,89.9999972534181,8|0,0:0|0:0,0:0:0:0:
144,72,87597,6,0,L|124:160,1,89.9999972534181,2|0,0:0|0:0,0:0:0:0:
48,100,87936,2,0,L|28:188,1,89.9999972534181,8|0,0:0|0:0,0:0:0:0:
124,160,88275,2,0,L|104:248,1,89.9999972534181,2|0,0:0|0:0,0:0:0:0:
28,188,88614,2,0,L|8:276,1,89.9999972534181,8|0,0:0|0:0,0:0:0:0:
80,344,88953,6,0,P|168:328|260:364,1,179.999994506836,2|8,0:0|0:0,0:0:0:0:
348,328,89461,1,0,0:0:0:0:
272,264,89630,1,2,0:0:0:0:
368,240,89800,1,0,0:0:0:0:
292,176,89969,1,8,0:0:0:0:
388,152,90138,1,0,0:0:0:0:
256,192,90308,12,4,92340,0:0:0:0:
18,232,92679,6,0,L|104:260,1,89.9999972534181,8|0,0:0|0:0,0:0:0:0:
84,164,93018,2,0,L|0:131,1,89.9999972534181,2|0,0:0|0:0,0:0:0:0:
0,36,93357,2,0,L|85:63,1,89.9999972534181,8|0,0:0|0:0,0:0:0:0:
168,120,93696,1,2,0:0:0:0:
148,216,93865,1,0,0:0:0:0:
248,204,94034,2,0,P|272:168|280:112,1,89.9999972534181,8|0,0:0|0:0,0:0:0:0:
272,24,94373,6,0,L|376:20,1,89.9999972534181,2|0,0:0|0:0,0:0:0:0:
428,96,94712,2,0,L|332:100,1,89.9999972534181,8|0,0:0|0:0,0:0:0:0:
304,192,95051,2,0,P|384:220|416:312,1,179.999994506836,2|8,0:0|0:0,0:0:0:0:
340,368,95559,1,0,0:0:0:0:
312,272,95728,6,0,P|376:232|360:132,1,179.999994506836,2|8,0:0|0:0,0:0:0:0:
332,44,96237,1,0,0:0:0:0:
256,108,96406,2,0,L|166:100,1,89.9999972534181,2|0,0:0|0:0,0:0:0:0:
100,176,96745,2,0,L|189:183,1,89.9999972534181,8|0,0:0|0:0,0:0:0:0:
212,280,97084,2,0,P|192:328|76:320,2,179.999994506836,2|8|2,0:0|0:0|0:0,0:0:0:0:
268,200,97931,5,0,0:0:0:0:
324,108,98100,2,0,P|360:140|372:192,1,89.9999972534181,8|0,0:0|0:0,0:0:0:0:
320,276,98439,1,2,0:0:0:0:
212,280,98608,1,0,0:0:0:0:
168,192,98778,1,8,0:0:0:0:
236,120,98947,1,0,0:0:0:0:
334,133,99116,2,0,B|385:117|385:117|458:138|458:138|518:118,1,179.999994506836,2|8,0:0|0:0,0:0:0:0:
449,40,99625,1,0,0:0:0:0:
350,42,99794,6,0,L|258:27,1,89.9999972534181,2|0,0:0|0:0,0:0:0:0:
147,105,100133,2,0,L|239:120,1,89.9999972534181,8|0,0:0|0:0,0:0:0:0:
324,222,100471,2,0,L|231:206,1,89.9999972534181,2|0,0:0|0:0,0:0:0:0:
121,280,100810,2,0,L|213:295,1,89.9999972534181,8|0,0:0|0:0,0:0:0:0:
276,354,101149,6,0,P|365:342|460:353,1,179.999994506836,2|8,0:0|0:0,0:0:0:0:
495,270,101657,1,0,0:0:0:0:
415,228,101827,2,0,P|426:194|408:132,1,89.9999972534181,2|0,0:0|0:0,0:0:0:0:
330,108,102165,2,0,P|319:74|337:12,1,89.9999972534181,8|0,0:0|0:0,0:0:0:0:
241,37,102504,6,0,L|140:40,1,89.9999972534181
61,34,102843,2,0,L|46:221,2,179.999994506836,8|0|8,0:0|0:0|0:0,0:0:0:0:
138,79,103690,1,0,0:0:0:0:
181,158,103859,6,0,P|186:207|173:255,1,89.9999972534181,2|0,0:0|0:0,0:0:0:0:
124,320,104198,1,8,0:0:0:0:
212,334,104368,1,0,0:0:0:0:
301,332,104537,2,0,P|349:326|387:302,1,89.9999972534181,2|0,0:0|0:0,0:0:0:0:
429,226,104876,2,0,P|447:187|447:131,1,89.9999972534181,8|0,0:0|0:0,0:0:0:0:
408,59,105215,6,0,L|500:46,2,89.9999972534181,2|0|8,0:0|0:0|0:0,0:0:0:0:
321,34,105723,1,0,0:0:0:0:
346,120,105892,2,0,P|278:113|236:12,1,179.999994506836,2|8,0:0|0:0,0:0:0:0:
164,76,106400,1,0,0:0:0:0:
76,56,106570,6,0,P|88:136|12:190,1,179.999994506836,2|8,0:0|0:0,0:0:0:0:
44,284,107078,1,0,0:0:0:0:
120,236,107247,2,0,L|300:248,1,179.999994506836,2|8,0:0|0:0,0:0:0:0:
372,304,107756,1,0,0:0:0:0:
384,216,107925,6,0,P|384:152|480:96,2,179.999994506836,2|8|2,0:0|0:0|0:0,0:0:0:0:
456,268,108772,1,0,0:0:0:0:
372,304,108941,2,0,L|272:296,1,89.9999972534181,8|0,0:0|0:0,0:0:0:0:
200,336,109280,6,0,L|100:328,1,89.9999972534181,2|0,0:0|0:0,0:0:0:0:
56,256,109619,2,0,P|132:224|124:108,1,179.999994506836,8|2,0:0|0:0,0:0:0:0:
72,80,110127,1,0,0:0:0:0:
64,168,110296,2,0,B|154:202|154:202|256:204,1,179.999994506836,8|2,0:0|0:0,0:0:0:0:
308,144,110805,1,0,0:0:0:0:
380,92,110974,1,8,0:0:0:0:
456,44,111143,1,0,0:0:0:0:
380,92,111313,6,0,P|400:120|416:160,1,75
308,144,111652,2,0,P|292:106|272:78,1,75,8|0,0:0|0:0,0:0:0:0:
256,192,111990,12,4,114023,0:0:0:0:
