osu file format v12

[General]
AudioFilename: DJ THT meets Scarlet - Live to Dance (Nightcore Mix).mp3
AudioLeadIn: 0
PreviewTime: 34755
Countdown: 0
SampleSet: Soft
StackLeniency: 0.7
Mode: 0
LetterboxInBreaks: 0

[Editor]
Bookmarks: 25269,57116,69990,90317
DistanceSpacing: 1.2
BeatDivisor: 4
GridSize: 4

[Metadata]
Title:Live 2 Dance (Nightcore Mix)
TitleUnicode:Live 2 Dance (Nightcore Mix)
Artist:DJ THT meets Scarlet
ArtistUnicode:DJ THT meets Scarlet
Creator:-Bakari-
Version:Easy
Source:
Tags:collab Black_Cherry_Ita Flask BCI Lally rave remix dancecore hands up
BeatmapID:221507
BeatmapSetID:79363

[Difficulty]
HPDrainRate:2
CircleSize:3
OverallDifficulty:2
ApproachRate:3
SliderMultiplier:0.7
SliderTickRate:1

[Events]
//Background and Video events
0,0,"DANCETODANCEDANCEDANCEDDANCEDANCE.jpg",0,0
//Break Periods
2,57316,68540
//Storyboard Layer 0 (Background)
//Storyboard Layer 1 (Fail)
//Storyboard Layer 2 (Pass)
//Storyboard Layer 3 (Foreground)
Sprite,Foreground,Centre,"GabeGabeGabeweallloveyou\Nyally.png",320,240 F,0,24930,25269,0,1 M,0,25269,,507,91 F,0,25269,55760,1 F,0,55760,56438,1,0
Sprite,Foreground,Centre,"GabeGabeGabeweallloveyou\notbakari.png",320,240 M,0,2231,3587,162,410 F,0,2231,3587,0.009032288,1 F,0,3587,23914,1 F,0,23914,25269,1,0.03793548
Sprite,Foreground,Centre,"GabeGabeGabeweallloveyou\TsunCI.png",320,240 F,0,69312,69990,0.07096771,1 M,0,69990,,110,410 F,0,69990,88962,1 F,0,88962,90317,1,0.07509674
Sprite,Foreground,Centre,"GabeGabeGabeweallloveyou\Flaskdere.png",320,240 M,0,90317,,503,89 F,0,90317,91672,0,1 F,0,91672,111322,1 F,0,111322,113355,1,0
//Storyboard Sound Samples
//Background Colour Transformations
3,100,163,162,255

[TimingPoints]
3578,338.791643139469,4,2,1,45,1,0
19839,-100,4,2,1,70,0,0
25260,-100,4,1,1,40,0,0
33052,-100,4,1,1,45,0,0
35424,338.791643139469,4,1,1,60,1,1
57106,-100,4,1,1,70,0,0
69981,-100,4,2,1,50,0,0
81499,-100,4,1,1,70,0,1
90308,-100,4,2,1,45,0,0
91663,-100,4,1,1,45,0,0
92002,-100,4,1,1,60,0,0
92340,-100,4,1,1,70,0,1
111313,-100,4,1,1,50,0,0
116733,-100,4,1,1,5,0,0

[Colours]
Combo1 : 181,175,159
Combo2 : 254,203,245
Combo3 : 111,173,230
Combo4 : 122,217,108
SliderBorder : 255,255,255

[HitObjects]
176,284,3578,2,0,L|36:272,1,140,2|2,0:0|0:0,0:0:0:0:
56,104,4933,1,0,0:0:0:0:
136,132,5271,1,2,0:0:0:0:
208,88,5610,1,0,0:0:0:0:
372,56,6288,6,0,P|424:84|408:224,1,210,0|8,0:0|0:0,0:0:0:0:
420,300,7643,2,0,L|276:272,1,140
208,312,8659,1,2,0:0:0:0:
128,340,8998,6,0,L|44:328,1,70,0|2,0:0|0:0,0:0:0:0:
48,248,9676,2,0,L|124:256,1,70,0|2,0:0|0:0,0:0:0:0:
192,216,10353,2,0,P|244:184|256:40,1,210,0|2,0:0|0:0,0:0:0:0:
344,28,11708,6,0,P|364:84|504:124,1,210,0|2,0:0|0:0,0:0:0:0:
484,212,13064,2,0,L|504:360,1,140
418,348,14080,1,2,0:0:0:0:
336,336,14419,6,0,L|256:328,1,70,0|2,0:0|0:0,0:0:0:0:
188,356,15096,1,0,0:0:0:0:
20,344,15774,2,0,P|48:296|20:212,1,140,2|0,0:0|0:0,0:0:0:0:
8,136,16790,1,2,0:0:0:0:
56,68,17129,6,0,L|196:56,1,140
360,80,18484,2,0,P|320:140|376:264,1,210,0|2,0:0|0:0,0:0:0:0:
352,340,19839,6,0,L|272:332,2,70,0|2|0,0:0|0:0|0:0,0:0:0:0:
436,348,20856,1,2,0:0:0:0:
496,288,21195,2,0,P|480:240|488:152,1,140
448,76,22211,1,0,0:0:0:0:
256,192,22550,12,2,24583,0:0:0:0:
116,296,25260,5,4,0:0:0:0:
172,232,25599,2,0,P|204:168|272:168,1,140,0|8,0:0|0:0,0:0:0:0:
336,208,26615,1,2,0:0:0:0:
400,264,26954,2,0,L|444:264,2,35,8|0|2,0:0|0:0|0:0,0:0:0:0:
356,336,27632,5,8,0:0:0:0:
276,356,27970,2,0,B|224:372|192:320|132:340,1,140,2|4,0:0|0:0,0:0:0:0:
100,176,29326,6,0,B|120:116|176:132|184:68,1,140,4|2,0:0|0:0,0:0:0:0:
256,28,30342,1,8,0:0:0:0:
328,72,30681,2,0,B|335:134|391:118|411:178,1,140,2|2,0:0|0:0,0:0:0:0:
356,240,31697,5,8,0:0:0:0:
416,296,32036,2,0,P|372:320|340:320,1,70,2|0,0:0|0:0,0:0:0:0:
276,292,32714,1,4,0:0:0:0:
256,192,33052,12,4,34746,0:0:0:0:
216,296,35424,6,0,L|160:232,1,70,4|8,0:0|0:0,0:0:0:0:
110,183,36101,1,4,0:0:0:0:
169,123,36440,2,0,L|229:75,2,70,8|4|8,0:0|0:0|0:0,0:0:0:0:
109,182,37456,2,0,P|45:178|9:110,1,140,4|4,0:0|0:0,0:0:0:0:
160,52,38811,6,0,P|216:32|284:80,1,140,4|4,0:0|0:0,0:0:0:0:
292,156,39828,1,8,0:0:0:0:
348,216,40167,2,0,P|412:252|472:208,1,140,4|4,0:0|0:0,0:0:0:0:
392,72,41522,38,0,P|328:56|296:116,1,140,4|4,0:0|0:0,0:0:0:0:
256,188,42538,1,8,0:0:0:0:
216,264,42877,2,0,P|168:260|97:193,1,140,4|4,0:0|0:0,0:0:0:0:
24,172,43893,1,8,0:0:0:0:
28,256,44232,38,0,B|48:296|92:324|92:324|112:372,2,140,4|4|4,0:0|0:0|0:0,0:0:0:0:
24,172,45926,2,0,P|32:136|72:112,1,70,8|4,0:0|0:0,0:0:0:0:
208,44,46942,22,0,B|252:32|284:32|284:32|300:68|336:84,2,140,4|4|4,0:0|0:0|0:0,0:0:0:0:
216,128,48636,2,0,P|180:152|144:160,1,70,8|4,0:0|0:0,0:0:0:0:
72,180,49314,1,8,0:0:0:0:
44,260,49653,38,0,P|88:324|152:312,1,140,4|4,0:0|0:0,0:0:0:0:
216,276,50669,1,8,0:0:0:0:
300,292,51008,2,0,P|336:332|344:356,2,70,4|8|4,0:0|0:0|0:0,0:0:0:0:
216,152,52363,38,0,P|208:100|132:76,2,140,4|4|4,0:0|0:0|0:0,0:0:0:0:
212,236,54057,1,8,0:0:0:0:
136,272,54396,1,4,0:0:0:0:
256,192,55073,12,0,57106,0:0:0:0:
268,260,69980,6,0,P|288:204|256:120,1,140,2|0,0:0|0:0,0:0:0:0:
192,84,70997,1,0,0:0:0:0:
124,132,71335,2,0,P|100:206|120:262,1,140,2|0,0:0|0:0,0:0:0:0:
188,316,72352,1,0,0:0:0:0:
260,272,72691,2,0,L|412:280,1,140,2|0,0:0|0:0,0:0:0:0:
432,116,74046,6,0,B|364:100|368:144|292:120,1,140,2|0,0:0|0:0,0:0:0:0:
216,92,75062,1,0,0:0:0:0:
144,48,75401,2,0,P|132:104|184:172,1,140,2|2,0:0|0:0,0:0:0:0:
252,320,76756,6,0,B|208:320|208:320|152:340|100:312,1,140
40,359,77772,2,0,P|10:307|19:220,1,140
48,151,78789,1,0,0:0:0:0:
194,68,79466,6,0,P|235:87|337:60,1,140
332,236,80822,1,2,0:0:0:0:
352,316,81499,6,0,P|292:340|204:236,1,210,4|8,0:0|0:0,0:0:0:0:
288,252,82854,2,0,L|300:172,1,70,2|8,0:0|0:0,0:0:0:0:
380,196,83532,2,0,L|380:124,2,70,2|8|2,0:0|0:0|0:0,0:0:0:0:
256,300,84887,6,0,L|184:304,1,70,2|8,0:0|0:0,0:0:0:0:
156,224,85565,2,0,L|304:216,2,140,0|8|0,0:0|0:0|0:0,0:0:0:0:
60,84,87597,6,0,P|136:96|200:68,1,140,2|2,0:0|0:0,0:0:0:0:
256,16,88614,1,8,0:0:0:0:
280,96,88953,2,0,B|280:160|228:160|228:223,1,140,0|4,0:0|0:0,0:0:0:0:
64,224,90308,6,0,P|108:276|96:348,2,140,0|0|2,0:0|0:0|0:0,0:0:0:0:
76,140,92002,1,2,0:0:0:0:
156,116,92340,6,0,P|192:108|216:76,1,70,4|8,0:0|0:0,0:0:0:0:
296,84,93018,2,0,P|317:108|353:116,1,70,4|8,0:0|0:0,0:0:0:0:
428,80,93696,2,0,B|448:136|412:180|412:180|428:212,2,140,4|4|4,0:0|0:0|0:0,0:0:0:0:
268,32,95728,6,0,P|228:28|192:44,1,70,4|8,0:0|0:0,0:0:0:0:
165,114,96406,1,4,0:0:0:0:
82,100,96745,1,8,0:0:0:0:
42,174,97084,2,0,B|47:232|47:232|16:269|25:318,2,140,4|4|4,0:0|0:0|0:0,0:0:0:0:
82,100,98778,5,8,0:0:0:0:
131,167,99116,2,0,L|138:243,1,70,4|8,0:0|0:0,0:0:0:0:
145,320,99794,2,0,B|160:375|217:382|217:382|271:382|271:382,2,140,4|4|4,0:0|0:0|0:0,0:0:0:0:
226,297,101488,5,8,0:0:0:0:
227,212,101827,2,0,P|264:217|293:246,1,70,4|8,0:0|0:0,0:0:0:0:
309,319,102504,1,2,0:0:0:0:
391,333,102843,1,2,0:0:0:0:
444,267,103182,1,2,0:0:0:0:
412,104,103859,6,0,B|366:114|334:81|334:81|342:49|319:18,1,140,4|4,0:0|0:0,0:0:0:0:
256,65,104876,1,8,0:0:0:0:
186,28,105215,2,0,B|170:49|178:81|178:81|146:114|100:104,1,140,2|4,0:0|0:0,0:0:0:0:
96,272,106570,6,0,B|168:272|168:272|165:318|196:338,1,140,4|4,0:0|0:0,0:0:0:0:
256,284,107586,1,8,0:0:0:0:
322,333,107925,2,0,B|347:318|344:272|344:272|416:272,1,140,2|4,0:0|0:0,0:0:0:0:
507,129,109280,6,0,P|500:72|433:27,1,140,4|4,0:0|0:0,0:0:0:0:
424,112,110296,1,8,0:0:0:0:
342,93,110635,2,0,P|349:150|416:195,1,140,4|4,0:0|0:0,0:0:0:0:
300,320,111990,6,0,B|247:320|247:320|203:336|203:336|157:338,2,140,4|4|4,0:0|0:0|0:0,0:0:0:0:
380,344,113684,2,0,L|396:304,1,35
256,192,114023,12,0,116733,0:0:0:0:
