osu file format v14

[General]
AudioFilename: track.mp3
AudioLeadIn: 0
PreviewTime: 22684
Countdown: 0
SampleSet: Normal
StackLeniency: 0.7
Mode: 0
LetterboxInBreaks: 0
SkinPreference:Default
WidescreenStoryboard: 0

[Editor]
DistanceSpacing: 1
BeatDivisor: 4
GridSize: 4
TimelineZoom: 3.999999

[Metadata]
Title:Head Over Heals (Nightcore Mix)
TitleUnicode:Head Over Heals (Nightcore Mix)
Artist:DJ THT
ArtistUnicode:DJ THT
Creator:Kazuya
Version:Softcore
Source:
Tags:handzup techno trance kazuya-sama
BeatmapID:608921
BeatmapSetID:267403

[Difficulty]
HPDrainRate:3
CircleSize:3
OverallDifficulty:3
ApproachRate:5
SliderMultiplier:0.9
SliderTickRate:1

[Events]
//Background and Video events
0,0,"bg.jpg",0,0
//Break Periods
2,65351,74817
//Storyboard Layer 0 (Background)
//Storyboard Layer 1 (Fail)
//Storyboard Layer 2 (Pass)
//Storyboard Layer 3 (Foreground)
//Storyboard Sound Samples

[TimingPoints]
12018,333.333333333333,4,2,1,60,1,0
17351,-100,4,1,1,60,0,0
20018,-100,4,2,1,60,0,0
21351,-100,4,2,1,5,0,0
22684,-100,4,1,1,60,0,0
54684,-100,4,1,1,60,0,1
64017,-100,4,1,1,60,0,0
86684,-100,4,1,1,50,0,0
92017,-100,4,1,1,60,0,0
108017,-100,4,1,1,60,0,1
117351,-100,4,1,1,60,0,0
118684,-100,4,2,1,60,0,0
119351,-100,4,2,1,60,0,0
120017,-100,4,2,1,50,0,0
120684,-100,4,2,1,40,0,0
121351,-100,4,2,1,30,0,0
122017,-100,4,2,1,20,0,0
122684,-100,4,2,1,10,0,0
123351,-100,4,2,1,5,0,0

[Colours]
Combo1 : 158,177,214
Combo2 : 207,107,174
Combo3 : 108,153,198
Combo4 : 209,189,163

[HitObjects]
277,245,12018,6,0,P|321:238|381:249,1,90,6|8,0:0|0:0,0:0:0:0:
448,208,12684,2,0,L|456:116,1,90,2|8,0:0|0:0,0:0:0:0:
460,73,13184,2,0,P|408:49|332:56,1,135,2|8,0:0|0:0,0:0:0:0:
256,104,14018,1,0,0:0:0:0:
168,84,14351,1,8,0:0:0:0:
168,84,14518,6,0,L|160:176,1,90,2|2,0:0|0:0,0:0:0:0:
160,264,15184,2,0,P|204:260|260:276,1,90,2|2,0:0|0:0,0:0:0:0:
332,304,15851,2,0,P|396:320|464:304,1,135,2|8,0:0|0:0,0:0:0:0:
508,228,16684,1,0,0:0:0:0:
460,152,17018,1,8,0:0:0:0:
376,184,17351,6,0,P|331:198|276:192,1,90,4|0,0:0|0:0,0:0:0:0:
212,148,18018,2,0,L|220:104,2,45
196,237,18684,1,4,0:0:0:0:
124,292,19018,1,0,0:0:0:0:
36,272,19351,1,0,0:0:0:0:
16,184,19684,1,0,0:0:0:0:
256,192,20018,12,0,21351,0:0:0:0:
172,80,22684,6,0,L|180:176,1,90,4|0,0:0|0:0,0:0:0:0:
216,252,23351,2,0,P|260:240|316:248,1,90
392,260,24017,2,0,B|428:264|428:264|488:248,2,90
304,244,25017,1,0,0:0:0:0:
215,228,25351,5,0,0:0:0:0:
130,256,25684,2,0,P|102:264|82:260,1,45
56,228,26017,2,0,L|44:132,1,90
96,64,26684,2,0,P|137:89|195:94,1,90
224,88,27184,2,0,P|288:76|360:88,1,135
434,133,28017,6,0,L|424:224,1,90,0|8,0:0|0:0,0:0:0:0:
344,264,28684,2,0,P|299:251|248:256,1,90,0|8,0:0|0:0,0:0:0:0:
168,274,29351,1,0,0:0:0:0:
88,232,29684,2,0,P|100:188|96:140,1,90,8|0,0:0|0:0,0:0:0:0:
80,56,30351,1,8,0:0:0:0:
168,76,30684,6,0,P|209:59|254:62,1,90,0|8,0:0|0:0,0:0:0:0:
320,124,31351,2,0,P|360:140|412:136,1,90,0|8,0:0|0:0,0:0:0:0:
496,132,32017,2,0,P|508:172|496:232,1,90,0|8,0:0|0:0,0:0:0:0:
464,301,32684,1,0,0:0:0:0:
384,343,33017,1,0,0:0:0:0:
299,312,33351,6,0,P|255:300|199:304,1,90,4|8,0:0|0:0,0:0:0:0:
128,337,34017,2,0,L|120:241,1,90,0|8,0:0|0:0,0:0:0:0:
113,157,34684,1,0,0:0:0:0:
194,196,35017,2,0,P|234:212|286:208,1,90,8|0,0:0|0:0,0:0:0:0:
364,177,35684,1,8,0:0:0:0:
427,241,36017,5,0,0:0:0:0:
478,167,36351,2,0,L|482:115,1,45,8|0,0:0|0:0,0:0:0:0:
478,77,36684,2,0,P|438:57|382:61,1,90,0|8,0:0|0:0,0:0:0:0:
309,88,37351,2,0,P|268:100|216:96,1,90,0|8,0:0|0:0,0:0:0:0:
184,72,37851,2,0,L|164:220,1,135,0|8,0:0|0:0,0:0:0:0:
154,295,38684,6,0,P|194:315|250:311,1,90,4|8,0:0|0:0,0:0:0:0:
316,268,39351,2,0,L|412:260,1,90,0|8,0:0|0:0,0:0:0:0:
472,200,40017,1,4,0:0:0:0:
408,136,40351,2,0,P|382:134|360:128,1,45,8|0,0:0|0:0,0:0:0:0:
324,108,40684,2,0,P|280:96|228:100,1,90,0|8,0:0|0:0,0:0:0:0:
156,140,41351,6,0,P|164:184|144:244,1,90,4|8,0:0|0:0,0:0:0:0:
73,268,42017,2,0,P|65:224|85:164,1,90,4|8,0:0|0:0,0:0:0:0:
156,140,42684,1,4,0:0:0:0:
452,340,44017,6,0,L|460:244,1,90,4|8,0:0|0:0,0:0:0:0:
408,176,44684,1,0,0:0:0:0:
332,224,45017,1,8,0:0:0:0:
248,192,45351,2,0,P|202:192|160:184,1,90,0|8,0:0|0:0,0:0:0:0:
80,140,46017,1,0,0:0:0:0:
16,204,46351,2,0,L|24:260,1,45,8|0,0:0|0:0,0:0:0:0:
48,288,46684,6,0,P|80:312|128:332,1,90,0|8,0:0|0:0,0:0:0:0:
212,304,47351,1,0,0:0:0:0:
296,336,47684,2,0,L|348:332,1,45,8|0,0:0|0:0,0:0:0:0:
384,320,48017,2,0,P|408:280|408:228,1,90,0|8,0:0|0:0,0:0:0:0:
372,156,48684,2,0,L|384:108,2,45,0|0|8,0:0|0:0|0:0,0:0:0:0:
308,220,49351,6,0,P|264:232|208:228,1,90,0|8,0:0|0:0,0:0:0:0:
132,212,50017,1,0,0:0:0:0:
100,128,50351,2,0,L|104:80,1,45,8|0,0:0|0:0,0:0:0:0:
140,56,50684,2,0,P|184:68|236:64,1,90,0|8,0:0|0:0,0:0:0:0:
316,45,51351,1,0,0:0:0:0:
375,113,51684,1,8,0:0:0:0:
396,200,52017,6,0,L|412:288,2,90,0|8|0,0:0|0:0|0:0,0:0:0:0:
376,112,53017,1,8,0:0:0:0:
305,168,53351,2,0,P|265:184|213:180,1,90,0|8,0:0|0:0,0:0:0:0:
136,146,54017,1,0,0:0:0:0:
57,189,54351,1,0,0:0:0:0:
112,260,54684,6,0,P|152:280|200:276,1,90,4|8,0:0|0:0,0:0:0:0:
256,210,55351,2,0,L|256:156,2,45,0|0|8,0:0|0:0|0:0,0:0:0:0:
315,277,56017,2,0,P|360:279|400:260,1,90,0|8,0:0|0:0,0:0:0:0:
464,196,56684,1,0,0:0:0:0:
388,148,57017,2,0,P|360:154|332:152,1,45,8|0,0:0|0:0,0:0:0:0:
298,145,57351,6,0,P|254:139|209:142,1,90,0|8,0:0|0:0,0:0:0:0:
140,200,58017,1,0,0:0:0:0:
64,152,58351,2,0,P|38:146|16:144,2,45,8|0|0,0:0|0:0|0:0,0:0:0:0:
140,200,59017,1,8,0:0:0:0:
210,143,59351,1,0,0:0:0:0:
276,204,59684,2,0,L|284:256,1,45,8|0,0:0|0:0,0:0:0:0:
292,293,60017,6,0,P|336:305|392:297,1,90,4|8,0:0|0:0,0:0:0:0:
456,252,60684,1,0,0:0:0:0:
439,164,61017,2,0,L|431:120,1,45,8|0,0:0|0:0,0:0:0:0:
419,76,61351,2,0,P|374:79|323:68,1,90,4|8,0:0|0:0,0:0:0:0:
256,20,62017,1,0,0:0:0:0:
192,84,62351,1,8,0:0:0:0:
256,192,62684,12,0,64017,0:0:0:0:
432,288,76017,6,0,L|440:188,1,90,4|8,0:0|0:0,0:0:0:0:
436,108,76684,2,0,P|396:124|340:120,1,90,0|8,0:0|0:0,0:0:0:0:
305,116,77184,2,0,P|237:104|176:128,1,135,0|8,0:0|0:0,0:0:0:0:
107,184,78017,1,0,0:0:0:0:
149,264,78351,1,8,0:0:0:0:
149,264,78517,6,0,P|217:256|277:284,1,135,0|8,0:0|0:0,0:0:0:0:
359,319,79351,1,0,0:0:0:0:
424,256,79684,1,8,0:0:0:0:
424,256,79851,2,0,P|408:192|428:120,1,135,0|8,0:0|0:0,0:0:0:0:
472,50,80684,1,0,0:0:0:0:
388,18,81017,1,8,0:0:0:0:
316,72,81351,6,0,P|272:84|220:84,1,90,0|8,0:0|0:0,0:0:0:0:
140,64,82017,1,0,0:0:0:0:
64,112,82351,1,8,0:0:0:0:
64,112,82517,2,0,B|48:176|48:176|64:248,1,135,0|8,0:0|0:0,0:0:0:0:
91,329,83351,1,0,0:0:0:0:
176,300,83684,1,8,0:0:0:0:
260,332,84017,6,0,P|304:320|360:324,1,90,0|8,0:0|0:0,0:0:0:0:
436,340,84684,1,0,0:0:0:0:
484,264,85017,1,8,0:0:0:0:
484,264,85184,2,0,L|472:128,1,135,0|0,0:0|0:0,0:0:0:0:
212,60,86684,6,0,P|172:76|120:72,1,90,4|0,0:0|0:0,0:0:0:0:
36,68,87351,2,0,L|40:164,1,90
96,228,88017,2,0,P|140:224|188:236,1,90
256,289,88684,1,0,0:0:0:0:
327,234,89017,1,0,0:0:0:0:
276,160,89351,6,0,P|232:164|180:144,2,90,0|0|0,0:0|0:0|0:0,0:0:0:0:
360,128,90351,1,0,0:0:0:0:
436,176,90684,2,0,P|464:260|424:340,1,180
340,312,91684,1,0,0:0:0:0:
252,332,92017,6,0,L|156:320,1,90,4|8,1:0|3:0,0:0:0:0:
104,252,92684,2,0,P|120:208|116:160,1,90,8|8,3:0|3:0,0:0:0:0:
92,79,93351,2,0,L|-4:71,2,90,4|8|8,1:0|3:0|3:0,0:0:0:0:
180,100,94351,1,8,3:0:0:0:
256,192,94684,12,0,96017,0:0:0:0:
48,268,97351,6,0,L|44:176,1,90,4|0,0:0|0:0,0:0:0:0:
80,96,98017,1,0,0:0:0:0:
164,128,98351,1,0,0:0:0:0:
248,96,98684,2,0,P|292:100|344:88,1,90
421,60,99351,1,0,0:0:0:0:
484,124,99684,2,0,L|480:184,1,45
475,214,100017,6,0,P|435:234|383:230,1,90,0|0,0:0|0:0,0:0:0:0:
312,188,100684,1,0,0:0:0:0:
236,236,101017,2,0,P|208:235|188:240,1,45
148,252,101351,2,0,L|136:148,1,90
175,81,102017,1,0,0:0:0:0:
260,112,102351,2,0,P|288:116|312:116,1,45
348,104,102684,6,0,P|388:88|444:92,2,90,0|8|0,0:0|0:0|0:0,0:0:0:0:
300,180,103684,2,0,L|292:236,1,45,8|0,0:0|0:0,0:0:0:0:
281,268,104017,2,0,P|240:284|188:276,1,90,0|8,0:0|0:0,0:0:0:0:
113,241,104684,1,0,0:0:0:0:
120,151,105017,2,0,L|124:103,1,45,8|0,0:0|0:0,0:0:0:0:
143,65,105351,6,0,P|183:49|243:53,2,90,0|8|0,0:0|0:0|0:0,0:0:0:0:
64,108,106351,2,0,L|56:164,1,45,8|0,0:0|0:0,0:0:0:0:
52,197,106684,2,0,P|88:225|136:229,1,90,4|0,0:0|0:0,0:0:0:0:
216,200,107351,2,0,L|320:192,1,90
392,168,108017,6,0,P|434:183|480:180,2,90,4|8|0,0:0|0:0|0:0,0:0:0:0:
328,104,109017,2,0,L|336:52,2,45,8|0|0,0:0|0:0|0:0,0:0:0:0:
313,193,109684,1,8,0:0:0:0:
250,257,110017,1,0,0:0:0:0:
172,212,110351,2,0,P|144:206|124:208,1,45,8|0,0:0|0:0,0:0:0:0:
84,219,110684,6,0,L|76:119,1,90,0|8,0:0|0:0,0:0:0:0:
124,52,111351,1,0,0:0:0:0:
208,84,111684,1,8,0:0:0:0:
292,52,112017,2,0,P|336:63|384:60,1,90,0|8,0:0|0:0,0:0:0:0:
468,40,112684,1,0,0:0:0:0:
500,124,113017,2,0,L|496:168,1,45,8|0,0:0|0:0,0:0:0:0:
489,214,113351,6,0,P|449:234|393:230,1,90,4|8,0:0|0:0,0:0:0:0:
325,192,114017,2,0,L|329:148,2,45,0|0|8,0:0|0:0|0:0,0:0:0:0:
304,280,114684,2,0,P|259:292|196:288,1,90,4|8,0:0|0:0,0:0:0:0:
127,280,115351,1,0,0:0:0:0:
68,212,115684,2,0,L|64:160,1,45,8|0,0:0|0:0,0:0:0:0:
64,122,116017,6,0,P|104:106|152:108,1,90,4|8,0:0|0:0,0:0:0:0:
240,120,116684,2,0,P|284:121|326:105,1,90,4|8,0:0|0:0,0:0:0:0:
396,48,117351,1,4,0:0:0:0:
256,192,118684,12,0,123351,0:0:0:0:
