osu file format v14

[General]
AudioFilename: track.mp3
AudioLeadIn: 0
PreviewTime: 22684
Countdown: 0
SampleSet: Normal
StackLeniency: 0.4
Mode: 0
LetterboxInBreaks: 0
SkinPreference:Default
WidescreenStoryboard: 0

[Editor]
Bookmarks: 43529,97363
DistanceSpacing: 1
BeatDivisor: 4
GridSize: 4
TimelineZoom: 3.999999

[Metadata]
Title:Head Over Heals (Nightcore Mix)
TitleUnicode:Head Over Heals (Nightcore Mix)
Artist:DJ THT
ArtistUnicode:DJ THT
Creator:Kazuya
Version:Rave
Source:
Tags:handzup techno trance kazuya-sama
BeatmapID:608923
BeatmapSetID:267403

[Difficulty]
HPDrainRate:7
CircleSize:4
OverallDifficulty:8
ApproachRate:9
SliderMultiplier:1.7
SliderTickRate:1

[Events]
//Background and Video events
0,0,"bg.jpg",0,0
//Break Periods
//Storyboard Layer 0 (Background)
//Storyboard Layer 1 (Fail)
//Storyboard Layer 2 (Pass)
//Storyboard Layer 3 (Foreground)
//Storyboard Sound Samples

[TimingPoints]
12018,333.333333333333,4,2,1,60,1,0
12018,-133.333333333333,4,2,1,60,0,0
17351,-100,4,1,1,60,0,0
20018,-100,4,3,1,30,0,0
20351,-100,4,3,1,40,0,0
20684,-100,4,3,1,50,0,0
21018,-100,4,3,1,60,0,0
22684,-100,4,1,1,60,0,0
32684,-100,4,2,1,60,0,0
33184,-100,4,1,1,60,0,0
54684,-100,4,1,1,60,0,1
62684,-100,4,3,1,60,0,1
64017,-100,4,1,1,60,0,0
86684,-100,4,1,1,50,0,0
92017,-100,4,1,1,60,0,0
94684,-100,4,3,1,60,0,0
96851,-100,4,1,1,60,0,0
108017,-100,4,1,1,60,0,1
116017,-100,4,3,1,60,0,1
117351,-100,4,1,1,60,0,0
118684,-100,4,2,1,60,0,0
119351,-100,4,2,1,60,0,0
120017,-100,4,2,1,50,0,0
120684,-100,4,2,1,40,0,0
121351,-100,4,2,1,30,0,0
122017,-100,4,2,1,20,0,0
122684,-100,4,2,1,10,0,0
123351,-100,4,2,1,5,0,0

[Colours]
Combo1 : 158,177,214
Combo2 : 207,107,174
Combo3 : 108,153,198
Combo4 : 209,189,163

[HitObjects]
27,357,12018,6,0,L|19:225,1,127.500004863739,6|8,0:0|0:0,0:0:0:0:
15,153,12518,1,0,0:0:0:0:
91,161,12684,2,0,P|147:185|231:173,1,127.500004863739,2|8,0:0|0:0,0:0:0:0:
263,123,13184,2,0,L|391:119,1,127.500004863739,2|0,0:0|0:0,0:0:0:0:
467,120,13684,1,8,0:0:0:0:
511,183,13851,1,0,0:0:0:0:
482,254,14018,1,0,0:0:0:0:
406,247,14184,2,0,P|371:239|334:243,1,63.7500024318696,2|8,0:0|0:0,0:0:0:0:
275,276,14518,6,0,L|211:280,1,63.7500024318696,2|0,0:0|0:0,0:0:0:0:
88,220,14851,2,0,L|152:224,1,63.7500024318696,2|8,0:0|0:0,0:0:0:0:
32,278,15184,2,0,P|8:220|36:160,1,127.500004863739,2|0,0:0|0:0,0:0:0:0:
92,116,15684,1,8,0:0:0:0:
92,116,15851,2,0,P|148:140|220:128,1,127.500004863739,2|0,0:0|0:0,0:0:0:0:
276,88,16351,1,8,0:0:0:0:
328,144,16518,2,0,L|320:208,2,63.7500024318696,0|0|0,0:0|0:0|0:0,0:0:0:0:
388,96,17018,1,8,0:0:0:0:
444,148,17184,1,8,3:0:0:0:
452,154,17268,1,8,3:0:0:0:
459,160,17351,6,0,L|447:248,1,85,12|0,0:0|0:0,0:0:0:0:
344,352,17684,2,0,L|332:267,1,85,8|0,0:0|0:0,0:0:0:0:
316,166,18018,1,8,0:0:0:0:
188,68,18184,1,0,0:0:0:0:
324,68,18351,1,8,0:0:0:0:
196,166,18518,6,0,L|184:252,1,85,0|12,0:0|1:0,0:0:0:0:
100,308,18851,2,0,L|92:222,1,85,0|8,0:0|0:0,0:0:0:0:
81,122,19184,1,0,0:0:0:0:
168,68,19351,2,0,P|212:80|252:80,1,85,8|0,0:0|0:0,0:0:0:0:
324,8,19684,1,8,0:0:0:0:
412,60,19851,1,0,0:0:0:0:
392,160,20018,6,0,L|388:200,7,21.25,12|0|0|0|0|0|0|0,1:0|0:0|0:0|0:0|0:0|0:0|0:0|0:0,0:0:0:0:
356,197,20351,2,0,L|352:237,7,21.25,12|0|0|0|0|0|0|0,1:0|0:0|0:0|0:0|0:0|0:0|0:0|0:0,0:0:0:0:
319,232,20684,2,0,L|315:272,7,21.25,12|0|0|0|0|0|0|0,1:0|0:0|0:0|0:0|0:0|0:0|0:0|0:0,0:0:0:0:
280,264,21018,2,0,L|276:304,7,21.25,12|0|0|0|0|0|0|0,1:0|0:0|0:0|0:0|0:0|0:0|0:0|0:0,0:0:0:0:
244,301,21351,1,12,1:0:0:0:
184,84,22684,6,0,P|228:100|268:92,1,85,4|0,0:0|0:0,0:0:0:0:
356,48,23017,1,0,0:0:0:0:
452,84,23184,1,0,0:0:0:0:
452,84,23267,1,0,0:0:0:0:
452,84,23351,2,0,L|444:180,1,85
367,291,23684,2,0,L|359:206,1,85
288,132,24017,5,0,0:0:0:0:
192,168,24184,1,0,0:0:0:0:
116,100,24351,1,0,0:0:0:0:
24,144,24517,1,0,0:0:0:0:
24,144,24601,1,0,0:0:0:0:
24,144,24684,2,0,L|36:240,1,85
121,344,25017,2,0,L|132:260,1,85
152,116,25351,6,0,P|196:120|240:112,1,85,0|0,0:0|0:0,0:0:0:0:
328,68,25684,1,0,0:0:0:0:
420,112,25851,1,0,0:0:0:0:
420,112,25934,1,0,0:0:0:0:
420,112,26017,2,0,P|412:152|420:196,1,85
464,369,26351,2,0,P|472:327|464:285,1,85
371,327,26684,6,0,L|179:307,1,170,0|0,0:0|0:0,0:0:0:0:
100,300,27184,1,0,0:0:0:0:
36,220,27351,2,0,L|28:132,1,85
116,15,27684,2,0,L|124:100,1,85
220,214,28017,6,0,P|260:224|304:220,1,85,0|0,0:0|0:0,0:0:0:0:
392,168,28351,1,8,0:0:0:0:
460,244,28517,1,0,0:0:0:0:
460,244,28601,1,0,0:0:0:0:
460,244,28684,2,0,P|468:284|456:332,1,85
366,369,29017,1,8,0:0:0:0:
284,308,29184,1,0,0:0:0:0:
188,344,29351,6,0,L|100:332,1,85,0|0,0:0|0:0,0:0:0:0:
36,256,29684,1,8,0:0:0:0:
112,188,29851,1,0,0:0:0:0:
112,188,29934,1,0,0:0:0:0:
112,188,30017,2,0,P|152:180|196:188,1,85
369,231,30351,2,0,P|328:239|286:231,1,85,8|0,0:0|0:0,0:0:0:0:
440,156,30684,5,0,0:0:0:0:
468,254,30851,1,0,0:0:0:0:
399,329,31017,1,8,0:0:0:0:
300,304,31184,1,0,0:0:0:0:
300,304,31267,1,0,0:0:0:0:
300,304,31351,2,0,L|292:216,1,85
218,95,31684,2,0,L|210:179,1,85,8|0,0:0|0:0,0:0:0:0:
188,279,32017,5,0,0:0:0:0:
16,332,32184,1,0,0:0:0:0:
116,352,32351,1,8,0:0:0:0:
0,232,32517,1,0,0:0:0:0:
0,232,32601,1,0,0:0:0:0:
0,232,32684,2,0,L|8:132,1,85,2|0,0:0|0:0,0:0:0:0:
60,60,33017,1,2,0:0:0:0:
136,128,33184,1,0,0:0:0:0:
136,128,33267,1,0,0:0:0:0:
136,128,33351,6,0,P|177:142|228:136,1,85,4|0,0:0|0:0,0:0:0:0:
312,100,33684,1,8,0:0:0:0:
404,144,33851,1,0,0:0:0:0:
404,144,33934,1,0,0:0:0:0:
404,144,34017,2,0,L|392:236,1,85
314,356,34351,2,0,L|303:271,1,85,8|0,0:0|0:0,0:0:0:0:
276,125,34684,6,0,P|232:137|184:129,1,85,0|0,0:0|0:0,0:0:0:0:
108,76,35017,1,8,0:0:0:0:
44,156,35184,1,0,0:0:0:0:
44,156,35267,1,0,0:0:0:0:
44,156,35351,2,0,L|56:240,1,85,0|0,0:0|0:0,0:0:0:0:
168,332,35684,2,0,L|180:248,1,85,8|0,0:0|0:0,0:0:0:0:
216,108,36017,6,0,P|256:116|300:108,1,85,0|0,0:0|0:0,0:0:0:0:
376,40,36351,1,8,0:0:0:0:
444,116,36517,1,0,0:0:0:0:
444,116,36601,1,0,0:0:0:0:
444,116,36684,2,0,P|452:160|440:204,1,85,0|0,0:0|0:0,0:0:0:0:
362,349,37017,2,0,P|353:307|363:266,1,85,8|0,0:0|0:0,0:0:0:0:
455,311,37351,6,0,L|259:299,1,170,0|8,0:0|0:0,0:0:0:0:
183,294,37851,1,0,0:0:0:0:
100,236,38017,2,0,L|92:152,1,85
152,68,38351,1,8,0:0:0:0:
244,112,38517,1,0,0:0:0:0:
244,112,38601,1,0,0:0:0:0:
244,112,38684,6,0,P|284:124|336:120,1,85,4|0,0:0|0:0,0:0:0:0:
428,108,39017,1,8,0:0:0:0:
492,188,39184,1,0,0:0:0:0:
492,188,39267,1,0,0:0:0:0:
492,188,39351,2,0,L|488:272,1,85
428,356,39684,1,8,0:0:0:0:
352,288,39851,1,0,0:0:0:0:
252,308,40017,6,0,L|164:312,1,85,4|0,0:0|0:0,0:0:0:0:
76,264,40351,1,8,0:0:0:0:
108,168,40517,1,0,0:0:0:0:
108,168,40601,1,0,0:0:0:0:
108,168,40684,2,0,L|200:160,1,85
292,184,41017,1,8,0:0:0:0:
386,144,41184,1,0,0:0:0:0:
386,144,41267,1,0,0:0:0:0:
386,144,41351,6,0,P|394:184|382:232,1,85,4|0,0:0|0:0,0:0:0:0:
300,284,41684,1,8,0:0:0:0:
208,240,41851,1,0,0:0:0:0:
208,240,41934,1,0,0:0:0:0:
208,240,42017,2,0,L|124:232,1,85,4|0,0:0|0:0,0:0:0:0:
40,112,42351,2,0,L|124:120,1,85,8|0,0:0|0:0,0:0:0:0:
256,60,42684,1,4,0:0:0:0:
484,248,43517,5,2,2:0:0:0:
392,204,43684,1,2,2:0:0:0:
328,284,43851,1,2,2:0:0:0:
328,284,43934,1,0,0:0:0:0:
328,284,44017,6,0,L|236:276,1,85,8|0,3:0|0:0,0:0:0:0:
123,172,44351,2,0,L|208:180,1,85,8|0,3:0|0:0,0:0:0:0:
64,244,44684,2,0,P|32:160|76:92,1,170,8|8,3:0|3:0,0:0:0:0:
160,48,45184,1,0,0:0:0:0:
240,112,45351,2,0,L|324:120,1,85,8|0,3:0|0:0,0:0:0:0:
474,192,45684,2,0,L|390:200,1,85,8|0,3:0|0:0,0:0:0:0:
324,279,46017,5,8,3:0:0:0:
215,362,46184,1,2,2:0:0:0:
255,230,46351,1,8,3:0:0:0:
299,360,46517,1,2,2:0:0:0:
187,281,46684,6,0,L|180:196,1,85,8|0,3:0|0:0,0:0:0:0:
87,109,47017,2,0,L|80:194,1,85,8|0,3:0|0:0,0:0:0:0:
6,88,47351,2,0,P|67:28|151:56,1,170,8|8,3:0|3:0,0:0:0:0:
224,108,47851,1,0,0:0:0:0:
300,176,48017,6,0,P|340:188|388:184,1,85,8|0,3:0|0:0,0:0:0:0:
468,128,48351,1,8,3:0:0:0:
512,220,48517,1,0,0:0:0:0:
444,296,48684,1,8,3:0:0:0:
415,302,48767,1,8,3:0:0:0:
386,310,48851,1,8,3:0:0:0:
285,324,49017,1,8,3:0:0:0:
200,268,49184,1,8,3:0:0:0:
200,268,49267,1,8,3:0:0:0:
200,268,49351,6,0,P|192:222|211:181,1,85
291,39,49684,2,0,P|298:80|283:119,1,85,8|0,0:0|0:0,0:0:0:0:
195,69,50017,2,0,L|391:94,1,170,0|8,0:0|0:0,0:0:0:0:
452,40,50517,1,0,0:0:0:0:
496,132,50684,2,0,L|488:216,1,85
408,352,51017,2,0,L|400:268,1,85,8|0,0:0|0:0,0:0:0:0:
388,165,51351,5,0,0:0:0:0:
307,103,51517,1,0,0:0:0:0:
205,103,51684,1,8,0:0:0:0:
124,165,51851,1,0,0:0:0:0:
62,245,52017,6,0,P|24:182|52:93,1,170,0|8,0:0|0:0,0:0:0:0:
461,94,52684,2,0,P|489:172|450:245,1,170,0|8,0:0|0:0,0:0:0:0:
376,316,53184,1,0,0:0:0:0:
300,248,53351,2,0,P|260:236|212:244,1,85,8|0,0:0|0:0,0:0:0:0:
56,296,53684,2,0,P|97:301|138:289,1,85,8|0,0:0|0:0,0:0:0:0:
89,200,54017,5,8,3:0:0:0:
76,173,54101,1,8,3:0:0:0:
88,146,54184,1,8,3:0:0:0:
185,63,54351,1,8,3:0:0:0:
327,63,54517,1,8,3:0:0:0:
424,146,54684,6,0,L|428:232,1,85,4|0,0:0|0:0,0:0:0:0:
433,333,55017,1,8,0:0:0:0:
336,364,55184,1,0,0:0:0:0:
284,276,55351,1,0,0:0:0:0:
256,266,55434,1,0,0:0:0:0:
227,273,55517,1,0,0:0:0:0:
136,320,55684,6,0,L|120:228,1,85,8|0,0:0|0:0,0:0:0:0:
108,135,56017,2,0,P|148:147|196:143,1,85
256,65,56351,1,8,0:0:0:0:
321,144,56517,1,0,0:0:0:0:
417,108,56684,1,0,0:0:0:0:
427,136,56767,1,0,0:0:0:0:
438,164,56851,1,0,0:0:0:0:
472,260,57017,1,8,0:0:0:0:
404,336,57184,1,0,0:0:0:0:
324,272,57351,6,0,P|260:232|168:240,1,170,0|8,0:0|0:0,0:0:0:0:
77,285,57851,1,0,0:0:0:0:
36,192,58017,2,0,P|16:156|16:96,1,85
163,34,58351,2,0,P|145:72|145:114,1,85,8|0,0:0|0:0,0:0:0:0:
241,256,58684,2,0,P|281:252|329:264,1,85
425,281,59017,1,8,0:0:0:0:
500,212,59184,1,0,0:0:0:0:
436,132,59351,5,0,0:0:0:0:
408,122,59434,1,0,0:0:0:0:
380,112,59517,1,0,0:0:0:0:
284,76,59684,1,8,0:0:0:0:
212,148,59851,1,0,0:0:0:0:
212,148,59934,1,0,0:0:0:0:
212,148,60017,6,0,P|172:168|120:164,1,85,4|0,0:0|0:0,0:0:0:0:
52,104,60351,1,8,0:0:0:0:
52,104,60517,1,0,0:0:0:0:
0,192,60684,1,0,0:0:0:0:
10,220,60767,1,0,0:0:0:0:
21,248,60851,1,0,0:0:0:0:
64,340,61017,2,0,P|104:348|148:340,1,85,8|0,0:0|0:0,0:0:0:0:
216,264,61351,6,0,P|256:256|300:264,1,85,4|0,0:0|0:0,0:0:0:0:
364,340,61684,1,8,0:0:0:0:
364,340,61851,1,0,0:0:0:0:
452,288,62017,1,0,0:0:0:0:
446,259,62101,1,0,0:0:0:0:
441,230,62184,1,0,0:0:0:0:
423,129,62351,1,8,0:0:0:0:
328,164,62517,1,0,0:0:0:0:
252,96,62684,6,0,L|216:88,7,21.25,4|0|0|0|0|0|0|0,1:0|0:0|0:0|0:0|0:0|0:0|0:0|0:0,0:0:0:0:
196,104,63017,2,0,L|160:96,7,21.25,12|0|0|0|0|0|0|0,1:0|0:0|0:0|0:0|0:0|0:0|0:0|0:0,0:0:0:0:
139,112,63351,2,0,L|103:104,7,21.25,4|0|0|0|0|0|0|0,1:0|0:0|0:0|0:0|0:0|0:0|0:0|0:0,0:0:0:0:
83,120,63684,2,0,L|47:112,7,21.25,12|0|0|0|0|0|0|0,1:0|0:0|0:0|0:0|0:0|0:0|0:0|0:0,0:0:0:0:
28,130,64017,1,4,0:0:0:0:
72,112,65351,6,0,P|44:192|74:269,1,170,4|0,0:0|0:0,0:0:0:0:
438,268,66017,2,0,P|468:190|440:112,1,170
52,112,66684,2,0,P|24:192|54:269,1,170
458,268,67351,2,0,P|488:190|460:112,1,170
256,24,68017,5,0,0:0:0:0:
153,337,68351,1,0,0:0:0:0:
421,143,68684,1,0,0:0:0:0:
90,143,69017,1,0,0:0:0:0:
378,57,69351,1,0,0:0:0:0:
58,246,69685,1,0,0:0:0:0:
388,270,70018,1,0,0:0:0:0:
134,57,70351,1,0,0:0:0:0:
180,255,70684,6,0,P|220:243|262:245,1,85
104,324,71017,2,0,P|64:336|12:332,1,85,8|0,0:0|0:0,0:0:0:0:
187,266,71351,2,0,P|229:265|270:278,1,85,0|0,0:0|0:0,0:0:0:0:
96,313,71684,2,0,P|54:314|5:296,1,85,8|0,0:0|0:0,0:0:0:0:
191,279,72017,2,0,P|233:289|268:312,1,85,0|0,0:0|0:0,0:0:0:0:
92,300,72350,2,0,P|51:290|8:261,1,85,8|0,0:0|0:0,0:0:0:0:
192,292,72684,2,0,P|230:312|258:344,1,85,0|0,0:0|0:0,0:0:0:0:
91,287,73017,2,0,P|54:267|20:227,1,85,8|0,0:0|0:0,0:0:0:0:
132,168,73351,5,0,0:0:0:0:
176,76,73517,1,0,0:0:0:0:
208,200,73684,1,8,0:0:0:0:
180,298,73850,1,0,0:0:0:0:
332,298,74017,1,0,0:0:0:0:
304,200,74183,1,0,0:0:0:0:
336,76,74351,1,8,0:0:0:0:
380,168,74517,1,0,0:0:0:0:
256,124,74684,5,4,0:0:0:0:
385,337,76017,6,0,P|350:266|383:184,1,170,4|8,0:0|0:0,0:0:0:0:
472,136,76517,1,0,0:0:0:0:
472,136,76684,2,0,L|300:124,1,170,0|8,0:0|0:0,0:0:0:0:
220,64,77184,1,0,0:0:0:0:
132,116,77351,2,0,P|140:157|132:199,1,85
76,367,77684,2,0,P|68:325|76:284,1,85,8|0,0:0|0:0,0:0:0:0:
132,199,78017,1,0,0:0:0:0:
224,244,78184,1,0,0:0:0:0:
312,192,78351,1,8,0:0:0:0:
280,96,78517,6,0,L|195:88,1,85
312,192,78851,2,0,L|396:184,1,85,0|8,0:0|0:0,0:0:0:0:
464,108,79184,2,0,P|499:178|461:262,1,170
396,332,79684,1,8,0:0:0:0:
316,268,79851,1,0,0:0:0:0:
220,300,80017,6,0,L|136:288,1,85,0|0,0:0|0:0,0:0:0:0:
20,200,80351,2,0,L|104:188,1,85,8|0,0:0|0:0,0:0:0:0:
172,112,80684,1,0,0:0:0:0:
256,170,80851,1,0,0:0:0:0:
340,112,81017,1,8,0:0:0:0:
408,188,81184,1,0,0:0:0:0:
328,252,81351,6,0,L|240:280,1,85,0|0,0:0|0:0,0:0:0:0:
67,277,81684,2,0,L|148:252,1,85,8|0,0:0|0:0,0:0:0:0:
184,156,82017,1,0,0:0:0:0:
308,56,82184,1,0,0:0:0:0:
204,56,82351,1,8,0:0:0:0:
328,156,82517,6,0,L|496:176,1,170
440,261,83017,2,0,L|354:251,1,85,8|0,0:0|0:0,0:0:0:0:
380,73,83351,2,0,L|464:82,1,85,0|0,0:0|0:0,0:0:0:0:
328,156,83684,2,0,L|243:146,1,85,8|0,0:0|0:0,0:0:0:0:
183,64,84017,6,0,P|143:124|168:217,1,170,0|8,0:0|0:0,0:0:0:0:
236,288,84517,1,0,0:0:0:0:
332,252,84684,2,0,L|424:248,2,85,0|0|8,0:0|0:0|0:0,0:0:0:0:
236,288,85184,1,0,0:0:0:0:
166,214,85351,1,4,0:0:0:0:
456,104,86684,6,0,P|416:116|368:112,1,85,4|0,0:0|0:0,0:0:0:0:
292,52,87017,1,0,0:0:0:0:
240,140,87184,1,0,0:0:0:0:
240,140,87267,1,0,0:0:0:0:
240,140,87351,2,0,P|197:151|148:148,1,85,0|0,0:0|0:0,0:0:0:0:
76,88,87684,1,0,0:0:0:0:
8,164,87851,1,0,0:0:0:0:
84,232,88017,6,0,L|88:332,1,85,0|0,0:0|0:0,0:0:0:0:
172,376,88351,1,0,0:0:0:0:
240,300,88517,1,0,0:0:0:0:
240,300,88601,1,0,0:0:0:0:
240,300,88684,2,0,P|280:304|324:300,1,85
418,168,89017,2,0,P|375:163|333:168,1,85
491,208,89351,6,0,P|503:164|487:120,1,85
432,45,89684,1,0,0:0:0:0:
342,94,89851,1,0,0:0:0:0:
342,94,89934,1,0,0:0:0:0:
342,94,90017,2,0,P|300:108|248:100,1,85
172,52,90351,1,0,0:0:0:0:
96,120,90517,1,0,0:0:0:0:
132,216,90684,6,0,P|204:260|292:272,1,170,0|0,0:0|0:0,0:0:0:0:
380,228,91184,1,0,0:0:0:0:
456,296,91351,2,0,L|464:380,1,85
380,228,91684,2,0,L|388:144,1,85
324,64,92017,6,0,P|280:76|236:72,1,85,12|0,0:0|0:0,0:0:0:0:
140,56,92351,1,8,0:0:0:0:
64,124,92517,1,0,0:0:0:0:
64,124,92601,1,0,0:0:0:0:
64,124,92684,2,0,L|68:216,1,85,8|0,0:0|0:0,0:0:0:0:
132,288,93017,1,8,0:0:0:0:
208,220,93184,1,0,0:0:0:0:
296,272,93351,6,0,L|280:364,2,85,12|0|8,0:0|0:0|0:0,0:0:0:0:
315,172,93851,1,0,0:0:0:0:
315,172,93934,1,0,0:0:0:0:
315,172,94017,2,0,P|356:180|398:172,1,85,8|0,0:0|0:0,0:0:0:0:
232,112,94351,2,0,P|191:104|147:112,1,85,8|0,0:0|0:0,0:0:0:0:
64,168,94684,6,0,L|68:204,7,21.25,4|0|0|0|0|0|0|0,1:0|0:0|0:0|0:0|0:0|0:0|0:0|0:0,0:0:0:0:
101,203,95017,2,0,L|105:239,7,21.25,4|0|0|0|0|0|0|0,1:0|0:0|0:0|0:0|0:0|0:0|0:0|0:0,0:0:0:0:
138,240,95351,2,0,L|142:276,7,21.25,4|0|0|0|0|0|0|0,1:0|0:0|0:0|0:0|0:0|0:0|0:0|0:0,0:0:0:0:
173,279,95684,2,0,L|177:315,7,21.25,4|0|0|0|0|0|0|0,1:0|0:0|0:0|0:0|0:0|0:0|0:0|0:0,0:0:0:0:
204,324,96017,1,4,1:0:0:0:
460,336,96851,5,0,0:0:0:0:
388,264,97017,1,0,0:0:0:0:
408,164,97184,1,0,0:0:0:0:
408,164,97267,1,0,0:0:0:0:
408,164,97351,6,0,L|308:152,1,85,8|0,3:0|0:0,0:0:0:0:
155,201,97684,2,0,L|240:212,1,85,8|0,3:0|0:0,0:0:0:0:
88,125,98017,2,0,P|52:197|88:277,1,170,8|8,3:0|3:0,0:0:0:0:
164,340,98517,1,8,3:0:0:0:
260,304,98684,2,0,L|352:296,1,85,8|0,3:0|0:0,0:0:0:0:
482,220,99017,2,0,L|397:212,1,85,8|0,3:0|0:0,0:0:0:0:
300,142,99351,5,8,3:0:0:0:
258,11,99517,1,2,2:0:0:0:
215,143,99684,1,8,3:0:0:0:
327,62,99851,1,2,2:0:0:0:
189,61,100017,6,0,P|152:84|132:120,1,85,8|0,3:0|0:0,0:0:0:0:
36,156,100351,2,0,P|57:191|94:212,1,85,8|0,3:0|0:0,0:0:0:0:
80,312,100684,2,0,P|123:310|158:289,1,85,8|0,3:0|0:0,0:0:0:0:
256,208,101017,1,8,3:0:0:0:
353,289,101184,1,0,0:0:0:0:
476,252,101351,6,0,L|488:160,1,85,8|0,3:0|0:0,0:0:0:0:
428,84,101684,2,0,P|388:98|332:96,1,85,8|0,3:0|0:0,0:0:0:0:
256,48,102017,1,8,3:0:0:0:
256,48,102101,1,8,3:0:0:0:
256,48,102184,1,8,3:0:0:0:
165,99,102351,1,8,3:0:0:0:
180,200,102517,1,8,3:0:0:0:
180,200,102601,1,8,3:0:0:0:
180,200,102684,6,0,L|272:208,1,85
412,284,103017,2,0,L|327:291,1,85,8|0,0:0|0:0,0:0:0:0:
465,372,103351,2,0,P|512:296|484:212,1,170,0|8,0:0|0:0,0:0:0:0:
424,146,103851,1,0,0:0:0:0:
344,208,104017,6,0,P|304:216|260:208,1,85
104,140,104351,2,0,P|145:131|187:139,1,85,8|0,0:0|0:0,0:0:0:0:
145,233,104684,1,0,0:0:0:0:
205,315,104851,1,0,0:0:0:0:
307,316,105017,1,8,0:0:0:0:
367,233,105184,1,0,0:0:0:0:
440,160,105351,6,0,P|469:239|428:316,1,170,0|8,0:0|0:0,0:0:0:0:
78,311,106017,2,0,P|42:237|72:160,1,170,0|8,0:0|0:0,0:0:0:0:
152,96,106517,1,0,0:0:0:0:
216,176,106684,6,0,L|304:188,1,85,0|0,0:0|0:0,0:0:0:0:
436,267,107017,2,0,L|351:278,1,85
256,320,107351,1,0,0:0:0:0:
256,320,107434,1,0,0:0:0:0:
256,320,107517,1,0,0:0:0:0:
168,268,107684,1,0,0:0:0:0:
76,312,107851,1,0,0:0:0:0:
76,312,107934,1,0,0:0:0:0:
76,312,108017,6,0,L|72:216,1,85,4|0,0:0|0:0,0:0:0:0:
68,124,108351,1,8,0:0:0:0:
144,56,108517,1,0,0:0:0:0:
228,112,108684,1,0,0:0:0:0:
256,122,108767,1,0,0:0:0:0:
285,112,108851,1,0,0:0:0:0:
368,56,109017,2,0,L|380:140,1,85,8|0,0:0|0:0,0:0:0:0:
392,244,109351,6,0,P|349:263|296:264,1,85,0|0,0:0|0:0,0:0:0:0:
216,232,109684,1,8,0:0:0:0:
136,296,109851,1,0,0:0:0:0:
68,220,110017,1,0,0:0:0:0:
60,191,110101,1,0,0:0:0:0:
53,162,110184,1,0,0:0:0:0:
108,76,110351,2,0,P|144:96|212:96,1,85,8|0,0:0|0:0,0:0:0:0:
284,68,110684,6,0,L|296:160,1,85,0|0,0:0|0:0,0:0:0:0:
304,254,111017,1,8,0:0:0:0:
388,312,111184,1,0,0:0:0:0:
388,312,111267,1,0,0:0:0:0:
388,312,111351,2,0,L|480:300,1,85,0|0,0:0|0:0,0:0:0:0:
304,254,111684,2,0,L|212:242,1,85,8|0,0:0|0:0,0:0:0:0:
121,216,112017,6,0,P|89:136|129:68,1,170,0|8,0:0|0:0,0:0:0:0:
216,16,112517,1,0,0:0:0:0:
292,84,112684,1,0,0:0:0:0:
319,96,112767,1,0,0:0:0:0:
349,96,112851,1,0,0:0:0:0:
448,72,113017,1,8,0:0:0:0:
500,160,113184,1,0,0:0:0:0:
500,160,113267,1,0,0:0:0:0:
500,160,113351,6,0,L|488:248,1,85,4|0,0:0|0:0,0:0:0:0:
402,360,113684,2,0,L|390:275,1,85,8|0,0:0|0:0,0:0:0:0:
356,180,114017,1,0,0:0:0:0:
332,162,114101,1,0,0:0:0:0:
302,165,114184,1,0,0:0:0:0:
225,232,114351,2,0,P|185:248|133:244,1,85,8|0,0:0|0:0,0:0:0:0:
48,212,114684,6,0,L|28:128,1,85,4|0,0:0|0:0,0:0:0:0:
120,17,115017,2,0,L|139:99,1,85,8|0,0:0|0:0,0:0:0:0:
167,198,115351,1,0,0:0:0:0:
167,198,115434,1,0,0:0:0:0:
167,198,115517,1,0,0:0:0:0:
256,148,115684,1,8,0:0:0:0:
345,198,115851,1,0,0:0:0:0:
304,292,116017,6,0,L|264:300,7,21.25,4|0|0|0|0|0|0|0,1:0|0:0|0:0|0:0|0:0|0:0|0:0|0:0,0:0:0:0:
250,277,116351,2,0,L|210:285,7,21.25,4|0|0|0|0|0|0|0,1:0|0:0|0:0|0:0|0:0|0:0|0:0|0:0,0:0:0:0:
192,276,116684,2,0,L|152:284,7,21.25,4|0|0|0|0|0|0|0,1:0|0:0|0:0|0:0|0:0|0:0|0:0|0:0,0:0:0:0:
136,267,117017,2,0,L|96:275,7,21.25,4|0|0|0|0|0|0|0,1:0|0:0|0:0|0:0|0:0|0:0|0:0|0:0,0:0:0:0:
78,262,117351,1,4,0:0:0:0:
256,192,118684,12,0,123351,0:0:0:0:
