osu file format v14

[General]
AudioFilename: track.mp3
AudioLeadIn: 0
PreviewTime: 22684
Countdown: 0
SampleSet: Normal
StackLeniency: 0.7
Mode: 0
LetterboxInBreaks: 0
SkinPreference:Default
WidescreenStoryboard: 0

[Editor]
Bookmarks: 43529,96863
DistanceSpacing: 1.2
BeatDivisor: 4
GridSize: 4
TimelineZoom: 3.999999

[Metadata]
Title:Head Over Heals (Nightcore Mix)
TitleUnicode:Head Over Heals (Nightcore Mix)
Artist:DJ THT
ArtistUnicode:DJ THT
Creator:Kazuya
Version:Hardcore
Source:
Tags:handzup techno trance kazuya-sama
BeatmapID:608919
BeatmapSetID:267403

[Difficulty]
HPDrainRate:5
CircleSize:4
OverallDifficulty:6
ApproachRate:7
SliderMultiplier:1.3
SliderTickRate:1

[Events]
//Background and Video events
0,0,"bg.jpg",0,0
//Break Periods
2,65351,75117
//Storyboard Layer 0 (Background)
//Storyboard Layer 1 (Fail)
//Storyboard Layer 2 (Pass)
//Storyboard Layer 3 (Foreground)
//Storyboard Sound Samples

[TimingPoints]
12018,333.333333333333,4,2,1,60,1,0
17351,-100,4,1,1,60,0,0
20018,-100,4,2,1,60,0,0
22684,-100,4,1,1,60,0,0
54684,-100,4,1,1,60,0,1
64017,-100,4,1,1,60,0,0
86684,-100,4,1,1,50,0,0
92017,-100,4,1,1,60,0,0
108017,-100,4,1,1,60,0,1
117351,-100,4,1,1,60,0,0
118684,-100,4,2,1,60,0,0
119351,-100,4,2,1,60,0,0
120017,-100,4,2,1,50,0,0
120684,-100,4,2,1,40,0,0
121351,-100,4,2,1,30,0,0
122017,-100,4,2,1,20,0,0
122684,-100,4,2,1,10,0,0
123351,-100,4,2,1,5,0,0

[Colours]
Combo1 : 158,177,214
Combo2 : 207,107,174
Combo3 : 108,153,198
Combo4 : 209,189,163

[HitObjects]
169,328,12018,6,0,L|301:344,1,130,4|8,0:0|0:0,0:0:0:0:
432,264,12684,2,0,B|412:204|412:204|437:141,1,130,0|8,0:0|0:0,0:0:0:0:
500,96,13184,2,0,L|368:100,1,130
300,134,13684,1,8,0:0:0:0:
229,101,13851,2,0,P|196:96|164:84,1,65
89,75,14184,1,0,0:0:0:0:
31,127,14351,1,8,0:0:0:0:
68,196,14518,6,0,L|200:208,1,130,0|0,0:0|0:0,0:0:0:0:
256,260,15018,1,8,0:0:0:0:
314,207,15184,2,0,L|444:196,1,130,0|0,0:0|0:0,0:0:0:0:
488,132,15684,1,8,0:0:0:0:
443,68,15851,2,0,P|399:36|324:44,1,130,0|0,0:0|0:0,0:0:0:0:
260,84,16351,1,8,0:0:0:0:
190,119,16518,1,0,0:0:0:0:
121,84,16684,2,0,L|57:76,2,65,0|0|8,0:0|0:0|0:0,0:0:0:0:
190,119,17184,1,0,0:0:0:0:
223,189,17351,6,0,P|219:222|227:257,1,65,4|0,0:0|0:0,0:0:0:0:
295,217,17684,2,0,P|308:247|332:273,1,65,0|0,0:0|0:0,0:0:0:0:
375,207,18018,2,0,P|402:225|437:234,1,65,0|0,0:0|0:0,0:0:0:0:
434,155,18351,2,0,P|467:157|498:149,1,65
372,110,18684,6,0,P|339:106|304:114,1,65,4|0,0:0|0:0,0:0:0:0:
236,82,19017,2,0,P|205:95|179:119,1,65,0|0,0:0|0:0,0:0:0:0:
104,129,19351,2,0,P|85:156|76:191,1,65,0|0,0:0|0:0,0:0:0:0:
10,228,19684,2,0,P|7:261|17:295,1,65,0|0,0:0|0:0,0:0:0:0:
256,192,20018,12,0,21351,0:0:0:0:
24,128,22684,6,0,L|20:204,1,65,4|0,0:0|0:0,0:0:0:0:
20,271,23017,2,0,P|52:263|84:267,1,65,0|0,0:0|0:0,0:0:0:0:
120,281,23267,2,0,P|168:297|228:293,1,97.5
291,278,23684,1,0,0:0:0:0:
344,221,23851,1,0,0:0:0:0:
292,163,24017,6,0,P|260:155|228:157,1,65,0|0,0:0|0:0,0:0:0:0:
369,144,24351,2,0,P|401:152|437:148,1,65
470,137,24601,2,0,L|466:241,1,97.5
460,312,25017,1,0,0:0:0:0:
388,343,25184,1,0,0:0:0:0:
320,304,25351,6,0,L|312:236,1,65,0|0,0:0|0:0,0:0:0:0:
280,168,25684,2,0,P|248:156|216:160,1,65
182,175,25934,2,0,P|132:184|84:172,1,97.5
20,132,26351,1,0,0:0:0:0:
36,56,26517,1,0,0:0:0:0:
113,68,26684,6,0,P|180:88|248:76,1,130
311,51,27184,1,0,0:0:0:0:
380,88,27351,2,0,L|376:156,1,65
304,229,27684,2,0,L|300:164,1,65
241,113,28017,5,0,0:0:0:0:
176,156,28184,1,0,0:0:0:0:
99,144,28351,2,0,L|96:220,1,65,8|0,0:0|0:0,0:0:0:0:
97,249,28601,2,0,P|136:272|204:268,1,97.5
256,237,29017,1,8,0:0:0:0:
324,273,29184,1,0,0:0:0:0:
401,256,29351,6,0,L|404:320,1,65,0|0,0:0|0:0,0:0:0:0:
468,216,29684,2,0,L|471:151,1,65,8|0,0:0|0:0,0:0:0:0:
472,111,29934,2,0,P|424:96|376:104,1,97.5
308,137,30351,1,8,0:0:0:0:
240,100,30517,1,0,0:0:0:0:
172,139,30684,6,0,P|140:148|100:140,1,65,0|0,0:0|0:0,0:0:0:0:
32,132,31017,2,0,L|28:200,1,65,8|0,0:0|0:0,0:0:0:0:
28,237,31267,2,0,P|64:265|128:269,1,97.5
184,236,31684,1,8,0:0:0:0:
227,301,31851,1,0,0:0:0:0:
304,292,32017,6,0,L|310:356,1,65,0|0,0:0|0:0,0:0:0:0:
372,252,32351,2,0,L|378:187,1,65,8|0,0:0|0:0,0:0:0:0:
383,148,32601,2,0,P|342:128|291:132,1,97.5
219,160,33017,1,0,0:0:0:0:
136,308,33351,6,0,P|168:310|200:304,1,65,4|0,0:0|0:0,0:0:0:0:
275,283,33684,2,0,P|306:276|338:279,1,65,8|0,0:0|0:0,0:0:0:0:
376,292,33934,2,0,L|388:188,1,97.5
395,117,34351,1,8,0:0:0:0:
327,79,34517,1,0,0:0:0:0:
272,135,34684,6,0,L|264:211,1,65,0|0,0:0|0:0,0:0:0:0:
198,292,35017,2,0,L|191:227,1,65,8|0,0:0|0:0,0:0:0:0:
176,191,35267,2,0,P|128:175|83:189,1,97.5
19,231,35684,1,8,0:0:0:0:
32,308,35851,1,0,0:0:0:0:
104,337,36017,6,0,P|136:329|172:333,1,65,0|0,0:0|0:0,0:0:0:0:
244,312,36351,2,0,L|252:244,1,65,8|0,0:0|0:0,0:0:0:0:
258,208,36601,2,0,P|298:188|352:196,1,97.5
419,229,37017,1,8,0:0:0:0:
468,168,37184,1,0,0:0:0:0:
423,104,37351,6,0,P|360:112|284:104,1,130,0|8,0:0|0:0,0:0:0:0:
217,92,37851,1,0,0:0:0:0:
153,136,38017,2,0,L|160:208,1,65
230,290,38351,2,0,L|236:225,1,65,8|0,0:0|0:0,0:0:0:0:
276,158,38684,6,0,P|304:150|340:154,1,65,4|0,0:0|0:0,0:0:0:0:
404,198,39017,2,0,P|436:202|467:193,1,65,8|0,0:0|0:0,0:0:0:0:
502,175,39267,2,0,L|496:286,1,97.5
432,316,39684,1,8,0:0:0:0:
362,283,39851,1,0,0:0:0:0:
291,315,40017,6,0,P|295:348|291:380,1,65,4|0,0:0|0:0,0:0:0:0:
224,276,40351,2,0,P|220:244|224:212,1,65,8|0,0:0|0:0,0:0:0:0:
250,182,40601,2,0,L|148:168,1,97.5
83,135,41017,1,8,0:0:0:0:
31,193,41184,1,0,0:0:0:0:
64,264,41351,6,0,P|76:293|108:325,1,65,4|0,0:0|0:0,0:0:0:0:
140,252,41684,2,0,P|165:271|209:283,1,65,8|0,0:0|0:0,0:0:0:0:
204,204,42017,2,0,P|236:208|280:196,1,65,4|0,0:0|0:0,0:0:0:0:
234,130,42351,2,0,P|263:117|295:85,1,65,8|0,0:0|0:0,0:0:0:0:
347,45,42684,1,4,0:0:0:0:
0,224,43517,5,2,2:0:0:0:
42,290,43684,1,2,2:0:0:0:
120,284,43851,1,2,2:0:0:0:
164,220,44017,6,0,L|152:80,2,130,8|8|8,3:0|3:0|3:0,0:0:0:0:
284,320,45017,2,0,L|356:312,1,65,8|8,3:0|3:0,0:0:0:0:
416,272,45351,2,0,P|440:216|416:152,1,130,8|8,3:0|3:0,0:0:0:0:
320,32,46017,2,0,L|308:96,1,65,8|2,3:0|2:0,0:0:0:0:
204,96,46351,2,0,L|193:32,1,65,8|2,3:0|2:0,0:0:0:0:
163,164,46684,6,0,P|106:189|48:163,1,130,8|8,3:0|3:0,0:0:0:0:
348,164,47351,2,0,P|410:189|466:160,1,130,8|8,3:0|3:0,0:0:0:0:
405,111,47851,1,8,3:0:0:0:
343,64,48017,2,0,L|207:56,1,130,8|8,3:0|3:0,0:0:0:0:
146,96,48517,1,0,0:0:0:0:
84,48,48684,2,0,P|66:38|52:36,2,32.5,8|8|8,3:0|3:0|3:0,0:0:0:0:
146,96,49017,1,8,3:0:0:0:
176,168,49184,1,8,3:0:0:0:
128,230,49351,6,0,L|-4:210,2,130,0|8|0,0:0|0:0|0:0,0:0:0:0:
264,306,50351,2,0,L|336:318,1,65,8|0,0:0|0:0,0:0:0:0:
405,330,50684,1,0,0:0:0:0:
473,190,51017,1,8,0:0:0:0:
366,76,51351,2,0,P|334:68|293:76,1,65
170,105,51684,2,0,P|202:112|234:108,1,65,8|0,0:0|0:0,0:0:0:0:
120,44,52017,6,0,P|91:102|116:164,1,130,0|8,0:0|0:0,0:0:0:0:
399,159,52684,2,0,P|420:100|392:44,1,130,0|8,0:0|0:0,0:0:0:0:
343,105,53184,1,0,0:0:0:0:
296,168,53351,6,0,L|288:232,1,65
232,287,53684,2,0,P|199:284|168:291,1,65
100,328,54017,2,0,P|80:335|65:338,2,32.5,0|0|0,0:0|0:0|0:0,0:0:0:0:
168,291,54351,1,0,0:0:0:0:
140,220,54517,1,0,0:0:0:0:
192,162,54684,6,0,P|256:150|320:162,1,130,4|8,0:0|0:0,0:0:0:0:
392,190,55184,1,0,0:0:0:0:
455,144,55351,2,0,L|449:109,2,32.5,0|0|0,0:0|0:0|0:0,0:0:0:0:
468,221,55684,1,8,0:0:0:0:
428,288,55851,1,0,0:0:0:0:
352,272,56017,6,0,L|220:256,1,130,0|8,0:0|0:0,0:0:0:0:
165,204,56517,1,0,0:0:0:0:
120,268,56684,2,0,L|108:313,2,32.5,0|0|0,0:0|0:0|0:0,0:0:0:0:
165,204,57017,1,8,0:0:0:0:
132,133,57184,1,0,0:0:0:0:
192,83,57351,6,0,P|256:95|324:83,1,130,0|8,0:0|0:0,0:0:0:0:
464,30,58017,2,0,L|468:98,1,65
395,179,58351,2,0,L|391:114,1,65,8|0,0:0|0:0,0:0:0:0:
319,84,58684,2,0,P|255:73|191:85,1,130,0|8,0:0|0:0,0:0:0:0:
124,125,59184,1,0,0:0:0:0:
62,173,59351,2,0,L|18:161,2,32.5,0|0|0,0:0|0:0|0:0,0:0:0:0:
124,221,59684,1,8,0:0:0:0:
188,176,59851,1,0,0:0:0:0:
252,220,60017,6,0,P|288:248|388:236,1,130,4|8,0:0|0:0,0:0:0:0:
437,208,60517,1,0,0:0:0:0:
420,132,60684,2,0,L|412:88,2,32.5,0|0|0,0:0|0:0|0:0,0:0:0:0:
437,208,61017,1,8,0:0:0:0:
456,284,61184,1,0,0:0:0:0:
380,265,61351,6,0,P|332:240|244:256,1,130,4|8,0:0|0:0,0:0:0:0:
187,280,61851,1,0,0:0:0:0:
177,203,62017,2,0,L|174:159,2,32.5,0|0|0,0:0|0:0|0:0,0:0:0:0:
187,280,62351,1,8,0:0:0:0:
124,325,62517,1,0,0:0:0:0:
48,308,62684,6,0,P|20:284|8:252,1,65,4|0,0:0|0:0,0:0:0:0:
77,220,63017,2,0,P|64:185|70:151,1,65,8|0,0:0|0:0,0:0:0:0:
145,143,63351,2,0,P|151:106|173:80,1,65,4|0,0:0|0:0,0:0:0:0:
244,104,63684,2,0,P|268:75|300:63,1,65,8|0,0:0|0:0,0:0:0:0:
369,45,64017,1,4,0:0:0:0:
204,326,76017,6,0,L|216:194,1,130,4|8,0:0|0:0,0:0:0:0:
124,70,76684,2,0,P|70:109|3:89,1,130,0|8,0:0|0:0,0:0:0:0:
56,32,77184,2,0,L|100:222,1,195,0|8,0:0|0:0,0:0:0:0:
144,372,78017,1,0,0:0:0:0:
215,340,78184,2,0,L|288:332,1,65,0|8,0:0|0:0,0:0:0:0:
349,297,78517,6,0,P|377:241|361:177,1,130,0|0,0:0|0:0,0:0:0:0:
312,118,79017,1,8,0:0:0:0:
245,158,79184,2,0,P|188:170|120:142,1,130
64,93,79684,1,8,0:0:0:0:
11,150,79851,6,0,L|24:282,1,130,0|0,0:0|0:0,0:0:0:0:
68,344,80351,1,8,0:0:0:0:
132,300,80517,1,0,0:0:0:0:
205,328,80684,2,0,L|272:320,1,65
372,240,81017,2,0,L|307:247,1,65,8|0,0:0|0:0,0:0:0:0:
428,300,81351,6,0,P|453:235|425:174,1,130,0|8,0:0|0:0,0:0:0:0:
318,76,82017,2,0,P|284:86|238:83,1,65
182,56,82351,1,8,0:0:0:0:
121,104,82517,2,0,B|101:164|101:164|121:228,1,130
157,297,83017,5,8,0:0:0:0:
228,264,83184,1,0,0:0:0:0:
299,297,83351,2,0,L|305:361,1,65
360,247,83684,2,0,L|366:182,1,65,8|0,0:0|0:0,0:0:0:0:
375,105,84017,6,0,P|328:80|256:96,1,130,0|8,0:0|0:0,0:0:0:0:
191,140,84517,1,0,0:0:0:0:
140,81,84684,2,0,P|136:45|148:9,2,65,0|0|8,0:0|0:0|0:0,0:0:0:0:
191,140,85184,1,0,0:0:0:0:
140,199,85351,1,4,0:0:0:0:
140,199,86684,6,0,L|133:267,1,65,4|0,0:0|0:0,0:0:0:0:
162,336,87017,1,0,0:0:0:0:
240,328,87184,1,0,0:0:0:0:
240,328,87267,2,0,P|286:311|336:316,1,97.5
410,336,87684,1,0,0:0:0:0:
468,284,87851,1,0,0:0:0:0:
424,220,88017,6,0,L|416:152,1,65,0|0,0:0|0:0,0:0:0:0:
370,92,88351,1,0,0:0:0:0:
299,123,88517,1,0,0:0:0:0:
299,123,88601,2,0,P|244:136|200:128,1,97.5
132,100,89017,1,0,0:0:0:0:
100,216,89351,6,0,L|104:284,1,65
144,348,89684,1,0,0:0:0:0:
215,316,89851,1,0,0:0:0:0:
215,316,89934,2,0,P|252:300|308:304,1,97.5
380,335,90351,1,0,0:0:0:0:
440,286,90517,1,0,0:0:0:0:
415,212,90684,6,0,P|348:220|284:196,1,130,0|0,0:0|0:0,0:0:0:0:
228,152,91184,1,0,0:0:0:0:
158,187,91351,2,0,L|150:251,1,65
89,149,91684,2,0,L|81:85,1,65
144,38,92017,6,0,P|176:36|220:46,1,65,4|0,1:0|0:0,0:0:0:0:
264,97,92351,2,0,P|295:102|328:100,1,65,8|0,3:0|0:0,0:0:0:0:
401,70,92684,2,0,L|397:6,1,65,8|0,3:0|0:0,0:0:0:0:
456,126,93017,2,0,L|452:190,1,65,8|0,3:0|0:0,0:0:0:0:
408,256,93351,6,0,L|344:252,1,65,4|0,1:0|0:0,0:0:0:0:
276,292,93684,2,0,L|212:288,1,65,8|0,3:0|0:0,0:0:0:0:
153,236,94017,2,0,L|149:172,1,65,8|0,3:0|0:0,0:0:0:0:
93,288,94351,2,0,L|89:352,1,65,8|0,3:0|0:0,0:0:0:0:
256,192,94684,12,0,96017,0:0:0:0:
185,193,96851,5,2,2:0:0:0:
185,193,97017,1,2,2:0:0:0:
185,193,97184,1,2,2:0:0:0:
185,193,97351,6,0,L|173:329,2,130,8|8|8,3:0|3:0|3:0,0:0:0:0:
317,110,98351,2,0,P|349:120|389:118,1,65,8|8,3:0|3:0,0:0:0:0:
432,60,98684,2,0,L|416:192,1,130,8|8,3:0|3:0,0:0:0:0:
321,328,99351,2,0,L|307:264,1,65,8|2,3:0|2:0,0:0:0:0:
204,264,99684,2,0,L|190:327,1,65,8|2,3:0|2:0,0:0:0:0:
185,185,100017,6,0,P|140:141|70:149,1,130,8|8,3:0|3:0,0:0:0:0:
327,185,100684,2,0,P|372:141|442:149,1,130,8|8,3:0|3:0,0:0:0:0:
399,214,101184,1,8,3:0:0:0:
364,284,101351,1,8,3:0:0:0:
113,214,101684,1,8,3:0:0:0:
148,284,101851,1,8,3:0:0:0:
90,336,102017,2,0,L|54:348,2,32.5,8|8|8,3:0|3:0|3:0,0:0:0:0:
148,284,102351,1,8,3:0:0:0:
220,314,102517,1,8,3:0:0:0:
268,252,102684,6,0,L|404:268,2,130,0|8|0,0:0|0:0|0:0,0:0:0:0:
164,136,103684,1,8,0:0:0:0:
111,193,103851,1,0,0:0:0:0:
40,162,104017,2,0,P|16:102|40:42,1,130,0|8,0:0|0:0,0:0:0:0:
164,136,104684,1,0,0:0:0:0:
217,193,104851,1,0,0:0:0:0:
295,193,105017,1,8,0:0:0:0:
348,136,105184,1,0,0:0:0:0:
393,72,105351,6,0,P|422:115|406:189,1,130,0|8,0:0|0:0,0:0:0:0:
105,187,106017,2,0,P|87:126|119:71,1,130,0|8,0:0|0:0,0:0:0:0:
164,136,106517,1,0,0:0:0:0:
234,171,106684,6,0,P|265:179|313:179,1,65
376,176,107017,1,0,0:0:0:0:
424,238,107184,1,0,0:0:0:0:
389,308,107351,2,0,L|344:320,2,32.5,0|0|0,0:0|0:0|0:0,0:0:0:0:
424,238,107684,1,0,0:0:0:0:
376,176,107851,1,0,0:0:0:0:
304,205,108017,6,0,P|248:232|176:220,1,130,4|8,0:0|0:0,0:0:0:0:
113,188,108517,1,0,0:0:0:0:
68,252,108684,2,0,L|60:300,2,32.5,0|0|0,0:0|0:0|0:0,0:0:0:0:
113,188,109017,1,8,0:0:0:0:
76,119,109184,1,0,0:0:0:0:
129,62,109351,6,0,P|184:88|252:80,1,130,0|8,0:0|0:0,0:0:0:0:
320,44,109851,1,0,0:0:0:0:
391,75,110017,2,0,L|420:44,2,32.5,0|0|0,0:0|0:0|0:0,0:0:0:0:
339,134,110351,1,8,0:0:0:0:
372,204,110517,1,0,0:0:0:0:
312,254,110684,6,0,P|252:280|172:266,1,130,0|8,0:0|0:0,0:0:0:0:
118,241,111184,1,0,0:0:0:0:
54,286,111351,2,0,L|46:354,1,65
119,241,111684,2,0,L|111:176,1,65,8|0,0:0|0:0,0:0:0:0:
100,99,112017,2,0,P|136:72|244:87,1,130,0|8,0:0|0:0,0:0:0:0:
290,103,112517,1,0,0:0:0:0:
353,57,112684,2,0,L|349:17,2,32.5,0|0|0,0:0|0:0|0:0,0:0:0:0:
361,135,113017,1,8,0:0:0:0:
297,180,113184,1,0,0:0:0:0:
226,147,113351,6,0,P|192:148|158:143,1,65,4|0,0:0|0:0,0:0:0:0:
85,128,113684,1,8,0:0:0:0:
32,185,113851,1,0,0:0:0:0:
52,260,114017,2,0,L|16:280,2,32.5,0|0|0,0:0|0:0|0:0,0:0:0:0:
124,228,114351,1,8,0:0:0:0:
188,272,114517,1,0,0:0:0:0:
248,222,114684,6,0,P|288:196|372:208,1,130,4|8,0:0|0:0,0:0:0:0:
436,241,115184,1,0,0:0:0:0:
445,164,115351,2,0,L|449:128,2,32.5,0|0|0,0:0|0:0|0:0,0:0:0:0:
436,241,115684,1,8,0:0:0:0:
428,320,115851,1,0,0:0:0:0:
351,312,116017,6,0,L|287:304,1,65,4|0,0:0|0:0,0:0:0:0:
239,241,116351,2,0,P|247:209|246:177,1,65,8|0,0:0|0:0,0:0:0:0:
190,124,116684,2,0,L|126:132,1,65,4|0,0:0|0:0,0:0:0:0:
66,183,117017,2,0,P|66:215|58:246,1,65,8|0,0:0|0:0,0:0:0:0:
20,316,117351,1,4,0:0:0:0:
256,192,118684,12,0,123351,0:0:0:0:
