osu file format v9

[General]
AudioFilename: ba.mp3
AudioLeadIn: 0
PreviewTime: 86679
Countdown: 0
SampleSet: Soft
StackLeniency: 0.3
Mode: 0
LetterboxInBreaks: 1

[Editor]
DistanceSpacing: 0.2
BeatDivisor: 2
GridSize: 8

[Metadata]
Title:Beautiful Angel
Artist:DJ Swan
Creator:Sharp
Version:Another
Source:Beatmania IIDX
Tags:17 sirius 15 troopers cs

[Difficulty]
HPDrainRate:8
CircleSize:4
OverallDifficulty:8
ApproachRate:8
SliderMultiplier:2
SliderTickRate:0.5

[Events]
//Background and Video events
0,0,"bg.jpg"
//Break Periods
//Storyboard Layer 0 (Background)
//Storyboard Layer 1 (Fail)
//Storyboard Layer 2 (Pass)
//Storyboard Layer 3 (Foreground)
//Storyboard Sound Samples
//Background Colour Transformations
3,100,163,162,255

[TimingPoints]
2959,348.837209302326,4,2,0,70,1,0
11331,-100,4,1,0,50,0,0
12726,-100,4,1,0,60,0,0
13772,-66.6666666666667,4,2,0,70,0,0
14121,-100,4,2,0,70,0,0
33656,-100,4,1,0,50,0,0
35052,-100,4,1,0,60,0,0
36097,-66.6666666666667,4,2,0,70,0,0
36447,-100,4,2,0,70,0,0
36970,-200,4,2,0,70,0,0
37493,-100,4,2,0,70,0,0
39761,-200,4,2,0,70,0,0
40284,-100,4,2,0,70,0,0
42552,-200,4,2,0,70,0,0
43075,-100,4,2,0,70,0,0
45342,-200,4,2,0,70,0,0
45865,-100,4,2,0,70,0,0
46389,-200,4,2,0,70,0,0
46912,-100,4,2,0,70,0,0
48133,-200,4,2,0,70,0,0
48656,-100,4,2,0,70,0,0
50924,-200,4,2,0,70,0,0
51447,-100,4,2,0,70,0,0
53714,-200,4,2,0,70,0,0
54238,-100,4,2,0,70,0,0
56505,-200,4,2,0,70,0,0
57028,-100,4,2,0,70,0,0
57552,-200,4,2,0,70,0,0
67145,-200,4,1,0,50,0,0
67493,-200,4,1,0,42,0,0
67842,-200,4,1,0,34,0,0
68191,-200,4,1,0,26,0,0
68540,-200,4,1,0,18,0,0
68889,-200,4,1,0,10,0,0
69238,-200,4,1,0,70,0,0
69935,-100,4,2,0,70,0,0
78307,-200,4,1,0,40,0,0
82493,-100,4,1,0,60,0,0
86505,-100,4,2,0,5,0,0
86679,-100,4,2,0,70,0,1
96970,-100,4,2,0,90,0,1
97832,-100,4,2,0,90,0,0
97842,-100,4,2,0,90,0,1
106389,-100,4,2,0,90,0,1
109005,-80,4,2,0,90,0,1
111796,-66.6666666666667,4,1,0,50,0,1
112493,-66.6666666666667,4,1,0,60,0,1
113191,-100,4,1,0,70,0,1
114238,-200,4,1,0,70,0,1
114586,-200,4,1,0,30,0,0

[Colours]
Combo1 : 255,145,91
Combo2 : 128,255,128
Combo3 : 128,128,255

[HitObjects]
448,32,2959,6,0,B|352:64,1,100,0|0
400,128,3307,2,0,B|368:224,1,100,0|0
304,176,3656,2,0,B|208:208,1,100,0|0
256,272,4005,2,0,B|224:368,1,100
160,304,4354,5,0
80,272,4528,1,0
112,192,4703,1,0
192,224,4877,1,0
224,304,5052,5,0
128,256,5226,1,0
176,160,5400,1,0
272,208,5575,1,0
320,304,5749,6,0,B|224:336,1,100
240,256,6098,2,0,B|208:160,1,100
144,208,6447,2,0,B|240:176,1,100
192,112,6796,2,0,B|224:16,1,100
288,64,7145,5,0
368,96,7319,1,0
336,176,7493,1,0
368,256,7668,1,0
448,224,7842,5,0
352,176,8017,1,0
256,224,8191,1,0
160,176,8365,1,0
112,272,8540,6,0,B|16:304,1,100
192,256,8889,2,0,B|160:352,1,100
208,176,9238,2,0,B|112:208,1,100
288,160,9586,2,0,B|256:256,1,100
448,160,9935,6,0,B|480:256,1,100
320,192,10284,2,0,B|352:288,1,100
352,80,10633,2,0,B|384:176,1,100
224,112,10982,2,0,B|256:208,1,100
288,352,11331,5,0
288,352,11505,1,0
400,304,11679,1,0
400,304,11854,1,0
448,192,12028,1,0
448,192,12203,1,0
400,80,12377,1,0
400,80,12552,1,0
288,32,12726,5,0
280,48,12813,1,0
272,64,12900,1,0
264,80,12988,1,0
256,96,13075,1,0
248,112,13162,1,0
240,128,13249,1,0
232,144,13336,1,0
224,160,13424,1,0
216,176,13511,1,0
208,192,13598,1,0
176,288,13772,6,0,B|184:280|184:280|192:296|192:296|208:280|208:280|224:288|224:288|320:288,1,149.999995529652
400,80,14121,6,0,B|304:48,1,100,2|2
224,80,14470,1,0
160,144,14645,2,0,B|128:256|224:320,1,200,2|0
304,320,15168,1,2
384,288,15342,1,0
416,208,15517,6,0,B|384:112,1,100,2|0
208,32,15865,2,0,B|240:128,1,100,2|0
288,48,16214,2,0,B|320:144,1,100,2|0
192,208,16563,2,0,B|160:112,1,100,2|0
48,192,16912,6,0,B|80:288,1,100,2|2
79,286,17261,1,0
160,320,17435,2,0,B|256:368|352:320,1,200,2|0
432,352,17959,2,0,B|400:256,1,100,2|0
368,176,18307,5,2
336,96,18482,1,0
272,160,18656,1,2
240,80,18831,1,0
64,128,19005,5,2
96,48,19179,1,0
160,112,19354,1,2
192,32,19528,1,0
320,96,19703,6,0,B|352:192,1,100,2|2
384,272,20052,1,0
304,304,20226,2,0,B|176:304|160:192,1,200,2|0
160,195,20749,1,2
208,96,20924,1,0
304,48,21098,6,0,B|336:144,1,100,2|0
176,208,21447,2,0,B|144:112,1,100,2|0
256,176,21796,2,0,B|288:272,1,100,2|0
128,336,22145,2,0,B|96:240,1,100,2|0
64,80,22493,6,0,B|160:112,1,100,2|2
240,144,22842,1,0
272,32,23017,2,0,B|304:128,1,100,2|0
336,208,23365,1,2
368,288,23540,1,2
368,288,24063,6,0,B|272:336|176:288,1,200,2|0
112,192,24586,5,2
144,96,24761,1,2
240,64,24935,1,2
336,96,25110,1,2
400,208,25284,5,6
400,208,25371,1,0
400,208,25459,1,0
208,288,25807,2,0,B|304:112,1,200,2|0
303,112,26331,1,2
208,80,26505,1,2
112,112,26679,6,0,B|80:208,1,100,2|0
176,176,27028,2,0,B|144:272,1,100,2|0
272,144,27377,2,0,B|240:240,1,100,2|0
336,208,27726,2,0,B|304:304,1,100,2|0
400,272,28075,6,0,B|432:176,1,100,2|2
400,96,28424,1,0
320,64,28598,2,0,B|240:16|128:64,1,200,2|0
127,64,29121,1,2
48,240,29470,6,0,B|144:272,1,100,2|0
240,224,29819,2,0,B|336:256,1,100,2|0
432,208,30168,1,2
432,208,30255,1,0
432,208,30342,1,0
384,96,30517,5,2
384,96,30691,1,2
160,48,30865,6,0,B|112:128|112:240,1,200,4|0
336,336,31389,2,0,B|384:256|384:144,1,200,2|0
256,192,31912,1,2
112,272,32261,6,0,B|192:320|304:320,1,200,4|0
400,112,32785,2,0,B|320:64|208:64,1,200,2|0
256,192,33308,1,2
224,32,33656,5,0
224,32,33830,1,0
112,80,34004,1,0
112,80,34179,1,0
64,192,34353,1,0
64,192,34528,1,0
112,304,34702,1,0
112,304,34877,1,0
224,352,35051,5,0
232,336,35138,1,0
240,320,35225,1,0
248,304,35313,1,0
256,288,35400,1,0
264,272,35487,1,0
272,256,35574,1,0
280,240,35661,1,0
288,224,35749,1,0
296,208,35836,1,0
304,192,35923,1,0
336,96,36097,6,0,B|328:104|328:104|320:88|320:88|304:104|304:104|288:96|288:96|208:96,1,150,4|0
80,256,36447,6,0,B|144:176|144:176|240:176,1,200,2|0
176,256,36970,2,0,B|304:256,1,100,2|0
208,336,37493,2,0,B|304:336|304:336|368:256,1,200,2|0
416,176,38017,6,0,B|480:94,2,100,2|0|2
320,144,38540,1,2
288,256,38714,1,0
288,160,38889,1,2
256,272,39063,1,0
96,208,39238,6,0,B|160:192|160:192|192:112|192:112|240:96,1,200,2|0
256,176,39761,2,0,B|224:272,1,100,2|0
288,336,40284,2,0,B|352:144,1,200,2|0
240,96,40807,6,0,B|144:128,2,100,2|0|2
320,160,41331,1,2
352,272,41505,1,0
352,176,41680,1,2
384,288,41854,1,0
256,336,42028,6,0,B|160:304|160:304|128:208,1,200,2|0
224,240,42552,2,0,B|288:160,1,100,2|0
256,64,43075,2,0,B|352:96|352:96|384:192,1,200,2|0
336,272,43598,6,0,B|240:320,2,100,2|0|2
256,144,44121,1,2
224,256,44295,1,0
224,160,44470,1,2
192,272,44644,1,0
80,288,44819,6,0,B|80:80,1,200,2|0
336,80,45342,2,0,B|336:192,1,100,2|0
208,288,45865,2,0,B|208:80,1,200,2|0
464,80,46389,2,0,B|464:192,1,100,2|0
464,288,46912,5,2
48,288,47261,1,2
224,64,47610,6,0,B|320:64|320:64|400:128,1,200,6|0
128,144,48133,2,0,B|240:144,1,100,2|0
32,224,48656,2,0,B|256:224,1,200,2|0
344,224,49179,5,2
424,184,49354,1,0
416,272,49528,1,2
352,144,49703,5,2
488,232,49877,1,0
336,304,50052,1,2
352,144,50226,1,0
416,192,50400,6,0,B|336:256|336:256|240:256,1,200,2|0
64,96,50924,2,0,B|176:96,1,100,2|0
288,176,51447,2,0,B|112:176|112:176|96:192,1,200,2|0
48,320,51970,5,2
184,232,52144,1,0
32,160,52319,1,2
120,280,52493,5,2
112,192,52668,1,0
40,240,52842,1,2
120,280,53017,1,0
184,232,53191,6,0,B|272:176|272:176|368:176,1,200,2|0
192,80,53714,2,0,B|288:80|288:80|304:96,1,100,2|0
448,272,54238,2,0,B|272:272|272:272|256:256,1,200,2|0
176,160,54761,5,2
96,120,54936,1,0
104,208,55110,1,2
168,80,55285,5,2
32,168,55459,1,0
184,240,55634,1,2
168,80,55808,1,0
176,160,55982,6,0,B|368:224,1,200,2|0
160,320,56505,2,0,B|64:288,1,100,2|0
272,112,57028,2,0,B|464:176,1,200,2|0
256,272,57552,2,0,B|160:240,1,100,2|0
48,112,58075,5,2
464,112,58424,1,2
256,192,58772,6,0,B|160:224,1,100,0|2
176,128,59470,2,0,B|80:160,1,100,0|0
160,272,60168,2,0,B|256:304,1,100
240,208,60865,2,0,B|336:240,1,100
400,208,61389,1,0
432,144,61563,6,0,B|400:48,1,100,0|2
336,176,62261,2,0,B|304:80,1,100
240,208,62959,2,0,B|224:160,1,50
224,160,63482,1,0
128,192,63656,2,0,B|160:288,1,100
384,304,64354,6,0,B|416:208,1,100,0|2
304,256,65052,2,0,B|272:160,1,100
160,192,65749,2,0,B|192:96,1,100
80,144,66447,2,0,B|48:48,1,100
176,32,67145,5,0
184,48,67493,1,0
192,64,67842,1,0
200,80,68191,1,0
208,96,68540,1,0
216,112,68889,1,0
424,152,69238,5,0
88,232,69586,5,0
288,80,69935,5,4
312,96,70022,1,0
336,112,70110,1,0
384,176,70284,2,0,B|352:272,1,100,2|0
256,176,70633,2,0,B|288:272,1,100
192,176,70982,2,0,B|160:272,1,100,2|0
64,176,71331,2,0,B|96:272,1,100
208,320,71679,5,2
232,336,71766,1,0
256,352,71854,1,0
320,288,72028,1,0
344,304,72115,1,0
368,320,72203,1,0
432,256,72377,2,0,B|400:160,1,100,2|0
336,80,72726,5,0
240,48,72900,1,0
144,80,73075,1,2
112,176,73249,2,0,B|80:272,1,100,0|0
176,272,73598,1,0
272,272,73772,2,0,B|304:176,1,100,2|0
400,272,74121,2,0,B|368:176,1,100
320,80,74470,5,2
296,64,74557,1,0
272,48,74645,1,0
208,112,74819,1,0
184,96,74906,1,0
160,80,74994,1,0
96,144,75168,2,0,B|128:240,1,100,2|0
224,288,75517,5,0
320,240,75691,1,0
368,144,75865,1,2
360,120,75953,1,0
352,96,76040,1,0
272,48,76214,2,0,B|176:80,1,100
224,144,76563,2,0,B|192:240,1,100,2|0
160,336,76912,5,0
64,288,77086,1,0
16,192,77261,1,2
16,192,77435,1,0
224,80,77784,1,0
320,32,77959,1,2
320,32,78133,1,0
400,96,78307,6,0,B|432:192,1,100
384,320,79005,2,0,B|368:272,1,50
368,272,79354,1,0
256,88,79703,2,0,B|352:120,1,100
384,184,80226,1,0
288,280,80400,2,0,B|240:296,1,50
240,295,80749,1,0
112,160,81098,6,0,B|128:112,1,50
208,128,81447,2,0,B|256:112,1,50
288,192,81796,2,0,B|336:208,1,50
304,288,82145,2,0,B|320:336,1,50
166,283,82493,5,0
171,266,82581,1,0
177,249,82668,1,0
182,232,82755,1,0
188,215,82842,5,0
205,209,82929,1,0
222,203,83017,1,0
239,198,83104,1,0
256,192,83191,5,0
262,175,83278,1,0
267,158,83365,1,0
273,141,83453,1,0
279,124,83540,5,0
296,118,83627,1,0
313,113,83714,1,0
330,107,83802,1,0
347,101,83889,1,0
256,192,84063,12,0,86505
304,96,86679,6,0,B|400:64,2,100,4|0|2
208,128,87203,2,0,B|112:160,1,100,0|0
176,224,87552,2,0,B|144:320,1,100,0|2
80,256,87900,1,0
112,160,88075,6,0,B|144:64,1,100
208,128,88424,2,0,B|304:96,1,100,2|0
400,128,88772,1,0
384,152,88860,1,0
368,176,88947,1,0
256,216,89121,1,2
272,192,89209,1,0
288,168,89296,1,0
384,272,89470,6,0,B|288:304,1,100
208,272,89819,1,2
176,192,89993,2,0,B|128:112|208:48|272:96,1,200
270,94,90517,1,2
352,192,90691,2,0,B|384:288,1,100
256,208,91040,2,0,B|256:320,2,100,0|2|0
160,224,91563,1,0
64,240,91738,2,0,B|64:352,2,100,0|2|0
96,128,92261,5,0
160,64,92435,1,0
184,48,92522,1,0
208,32,92610,1,2
272,96,92784,2,0,B|368:128,1,100
480,224,93133,2,0,B|384:192,1,100,0|2
385,192,93482,1,0
288,256,93656,6,0,B|192:288,1,100
173,293,93918,1,0
153,298,94005,1,2
96,224,94179,2,0,B|128:128,1,100
208,96,94528,1,0
288,128,94703,1,2
320,208,94877,1,0
288,288,95052,6,0,B|208:352,2,100,0|0|2
352,224,95575,2,0,B|448:192,1,100
384,128,95924,2,0,B|416:32,1,100,0|2
320,64,96272,1,0
224,96,96447,2,0,B|192:192,1,100
192,190,96796,1,2
64,224,96970,5,2
160,288,97145,1,2
256,352,97319,1,2
320,256,97493,1,2
416,192,97668,1,2
384,112,97842,6,0,B|288:80,1,100,4|0
128,96,98191,2,0,B|224:128,2,100,2|0|0
96,176,98714,1,0
128,256,98888,1,2
208,288,99063,1,0
208,288,99238,2,0,B|304:320,1,100
464,288,99586,2,0,B|368:256,1,100,2|0
144,192,99935,2,0,B|240:160,1,100
320,32,100284,2,0,B|352:128,1,100,2|0
368,240,100633,5,0
224,288,100807,1,0
240,264,100895,1,0
256,240,100982,1,2
208,160,101156,2,0,B|112:128,1,100
80,224,101505,1,0
112,320,101679,2,0,B|208:288,1,100,2|0
368,240,102028,5,0
320,96,102202,1,0
344,112,102290,1,0
368,128,102377,1,2
272,192,102552,2,0,B|176:224,1,100
32,304,102900,2,0,B|64:208,1,100,0|2
112,80,103249,1,0
320,160,103598,6,0,B|416:192,2,100,0|2|0
336,256,104121,1,0
240,288,104296,2,0,B|208:192,1,100,0|2
96,64,104645,2,0,B|128:160,1,100
176,320,104993,6,0,B|272:352,2,100,0|2|0
144,224,105517,1,0
128,128,105691,2,0,B|224:160,1,100,0|2
352,272,106040,2,0,B|256:240,1,100
160,208,106389,5,0
192,112,106563,2,0,B|288:80,1,100,2|0
448,80,106912,2,0,B|352:112,1,100
256,144,107261,1,2
288,240,107435,1,0
192,288,107610,6,0,B|96:320,1,100
48,144,107959,2,0,B|80:240,1,100,2|0
176,208,108307,1,0
272,176,108482,1,0
240,80,108656,2,0,B|336:112,1,100,2|0
432,144,109005,5,0
432,144,109179,2,0,B|432:272,1,124.999998137355,0|2
240,304,109528,2,0,B|320:208,1,124.999998137355
288,96,109877,1,0
176,64,110052,1,2
208,176,110226,1,0
320,208,110400,6,0,B|448:208,1,124.999998137355
384,288,110749,1,2
272,288,110924,1,0
244,288,111011,1,0
216,288,111098,1,0
160,184,111272,1,0
216,80,111447,2,0,B|248:48|248:48|328:48,1,124.999998137355,2|0
416,160,111796,6,0,B|416:240|416:240|384:304,1,149.999995529652
96,224,112145,2,0,B|96:144|96:144|128:80,1,149.999995529652
480,176,112493,6,0,B|480:256|480:256|448:320,1,149.999995529652
32,208,112842,2,0,B|32:128|32:128|64:64,1,149.999995529652
208,48,113191,5,0
216,64,113278,1,0
224,80,113365,1,0
232,96,113453,1,0
240,112,113540,1,0
248,128,113627,1,0
256,144,113714,1,0
264,160,113802,1,0
272,176,113889,1,0
280,192,113976,1,0
288,208,114063,1,0
296,224,114150,1,0
304,240,114238,2,0,B|352:336,1,100
