osu file format v6

[General]
AudioFilename: Beautiful Angel.mp3
AudioLeadIn: 0
PreviewTime: 9909
Countdown: 0
SampleSet: Soft
StackLeniency: 0.7
Mode: 0
LetterboxInBreaks: 1

[Editor]
Bookmarks: 5
DistanceSpacing: 1.20000004768372
BeatDivisor: 4
GridSize: 8

[Metadata]
Title:Beautiful Angel
Artist:DJ Swan
Creator:Mystearica
Version:Hyper
Source:
Tags:IIDX CS 15 Troopers Alace

[Difficulty]
HPDrainRate:5
CircleSize:4
OverallDifficulty:6
SliderMultiplier:1.4
SliderTickRate:0.5

[Events]
//Background and Video events
0,0,"BA.jpg"
//Break Periods
2,60031,60525
2,62822,63316
2,65613,66107
//Storyboard Layer 0 (Background)
//Storyboard Layer 1 (Fail)
//Storyboard Layer 2 (Pass)
//Storyboard Layer 3 (Foreground)
//Storyboard Sound Samples
//Background Colour Transformations
3,100,0,0,0

[TimingPoints]
2971,348.837209302326,4,2,1,40,1,0
3494,-100,4,2,1,55,0,0
8465,-100,4,2,1,81,0,0
9773,-100,4,1,1,20,0,0
10122,-100,4,1,1,30,0,0
10471,-100,4,1,1,36,0,0
10819,-100,4,1,1,41,0,0
11953,-100,4,1,1,46,0,0
12651,-100,4,1,1,50,0,0
13959,-100,4,2,1,91,0,0
33494,-100,4,1,1,51,0,0
34976,-100,4,1,1,60,0,0
36284,-100,4,1,1,73,0,0
58610,-100,4,2,1,70,0,0
58959,-100,4,2,1,61,0,0
59308,-100,4,2,1,55,0,0
59657,-100,4,2,1,42,0,0
61401,-100,4,2,1,70,0,0
61750,-100,4,2,1,61,0,0
62098,-100,4,2,1,50,0,0
62447,-100,4,2,1,41,0,0
64191,-100,4,2,1,61,0,0
64540,-100,4,2,1,51,0,0
64889,-100,4,2,1,40,0,0
65238,-100,4,2,1,31,0,0
66982,-100,4,2,1,51,0,0
67331,-100,4,2,1,41,0,0
67680,-100,4,2,1,31,0,0
68029,-100,4,2,1,21,0,0
68901,-100,4,1,1,59,0,0
69773,-100,4,2,1,81,0,0
70383,-100,4,2,1,61,0,0
70645,-100,4,2,1,81,0,0
71081,-100,4,2,1,50,0,0
71343,-100,4,2,1,81,0,0
71779,-100,4,2,1,40,0,0
72040,-100,4,2,1,81,0,0
73174,-100,4,2,1,60,0,0
73436,-100,4,2,1,81,0,0
73872,-100,4,2,1,51,0,0
74133,-100,4,2,1,81,0,0
74569,-100,4,2,1,43,0,0
74831,-100,4,2,1,81,0,0
75965,-100,4,2,1,60,0,0
76226,-100,4,2,1,81,0,0
76662,-100,4,2,1,50,0,0
76924,-100,4,2,1,81,0,0
77360,-100,4,2,1,40,0,0
78145,-100,4,1,1,50,0,0
78668,-100,4,2,1,81,0,0
79366,-100,4,2,1,53,0,0
80064,-100,4,2,1,81,0,0
80761,-100,4,2,1,50,0,0
81459,-100,4,2,1,81,0,0
82505,-100,4,1,1,50,0,0
84250,-100,4,2,1,50,0,0
86343,-100,4,2,1,89,0,0
87127,-100,4,2,1,71,0,0
87389,-100,4,2,1,89,0,0
87825,-100,4,2,1,61,0,0
88087,-100,4,2,1,89,0,0
88523,-100,4,2,1,50,0,0
88784,-100,4,2,1,89,0,0
89221,-100,4,2,1,40,0,0
89395,-100,4,2,1,89,0,0
89918,-100,4,2,1,70,0,0
90180,-100,4,2,1,89,0,0
90616,-100,4,2,1,60,0,0
90877,-100,4,2,1,89,0,0
91314,-100,4,2,1,51,0,0
91575,-100,4,2,1,89,0,0
92011,-100,4,2,1,31,0,0
92273,-100,4,2,1,89,0,0
92709,-100,4,2,1,70,0,0
92971,-100,4,2,1,89,0,0
93407,-100,4,2,1,61,0,0
93668,-100,4,2,1,89,0,0
94104,-100,4,2,1,50,0,0
94366,-100,4,2,1,89,0,0
94802,-100,4,2,1,40,0,0
94976,-100,4,2,1,89,0,0
95500,-100,4,2,1,71,0,0
95761,-100,4,2,1,89,0,0
96197,-100,4,2,1,60,0,0
96459,-100,4,2,1,89,0,0
96895,-100,4,2,1,70,0,0
97767,-100,4,1,1,80,0,0

[Colours]
Combo1 : 215,252,197
Combo2 : 255,255,255
Combo3 : 181,226,251
Combo4 : 251,198,245

[HitObjects]
173,298,2971,2,0,B|127:199|12:160,1,210,4|0
51,86,3668,2,0,B|90:12,1,70,2|0
119,116,4017,2,0,B|172:53,1,70,0|2
176,160,4366,2,0,B|241:115,1,70,0|2
221,217,4715,2,0,B|300:192,1,70,0|0
258,281,5064,2,0,B|331:279,1,70,2|0
272,344,5412,2,0,B|352:360,1,70,0|2
392,328,5761,6,0,B|480:248|400:128,1,210
376,72,6459,1,2
376,72,6808,2,0,B|312:40|232:56,1,140,0|0
168,56,7331,1,2
168,128,7505,1,0
240,128,7680,1,0
240,200,7854,1,2
168,200,8029,1,0
168,272,8203,1,0
240,272,8377,1,2
208,336,8552,6,0,B|312:368|424:336,1,210
488,336,9250,1,0
456,272,9424,1,0
384,272,9598,1,0
256,328,9947,5,0
80,192,10296,1,0
256,56,10645,1,0
432,192,10994,1,0
136,96,11343,6,0,B|192:144,1,70
376,96,11691,2,0,B|320:144,1,70
376,288,12040,2,0,B|320:240,1,70
136,288,12388,2,0,B|192:240,1,70
256,192,12738,6,0,B|256:152,10,35
256,192,13784,5,4
472,88,14133,6,0,B|416:32|336:56,1,140,0|2
272,72,14657,2,0,B|200:104|136:48,1,140
72,64,15180,1,2
104,224,15529,6,0,B|152:160,1,70
168,288,15877,2,0,B|216:224,1,70,2|0
302,232,16226,2,0,B|344:288,1,70,0|0
366,168,16574,2,0,B|408:224,1,70,2|0
464,272,16924,6,0,B|408:328|328:304,1,140,0|2
272,344,17448,2,0,B|200:312|136:368,1,140,0|0
88,312,17971,1,2
104,160,18319,6,0,B|152:224,1,70
168,96,18667,2,0,B|216:160,1,70,2|0
302,152,19016,2,0,B|344:96,1,70,0|0
366,216,19366,2,0,B|408:160,1,70,2|0
416,88,19715,5,0
280,72,20064,1,2
208,88,20238,1,0
264,216,20587,1,0
232,280,20761,1,2
32,312,21110,5,0
75,255,21284,1,0
133,209,21459,1,2
201,184,21633,1,0
272,185,21808,1,0
344,168,21982,1,0
409,136,22157,1,2
452,80,22331,1,0
452,80,22505,5,0
320,40,22854,1,2
256,64,23029,1,0
64,144,23377,1,0
128,120,23552,1,2
256,208,23901,12,2,24947
16,208,25296,6,0,B|48:136|128:120,1,140,0|2
160,184,25819,2,0,B|192:248|288:240,1,140
344,208,26343,2,0,B|384:192|432:232,1,70,2|2
416,288,26691,5,0
416,360,26866,1,0
352,328,27040,1,2
288,360,27215,1,0
288,288,27389,1,0
224,328,27564,1,0
160,288,27739,1,2
160,360,27913,1,0
96,328,28087,6,0,B|48:264|96:192,1,140,0|2
136,144,28610,2,0,B|184:88|272:88,1,140
328,80,29133,1,2
400,200,29482,6,0,B|464:248,1,70
352,256,29831,2,0,B|400:320,1,70,2|0
288,288,30180,2,0,B|304:368,1,70
232,360,30529,5,2
152,344,30703,1,0
72,320,30877,1,0
32,152,31226,1,2
96,96,31401,1,0
256,136,31750,1,0
336,120,31924,1,2
488,192,32273,1,0
336,264,32622,1,2
256,248,32796,1,0
96,288,33145,1,0
32,232,33320,1,2
504,48,33668,6,0,B|448:112,1,70
504,336,34017,2,0,B|448:272,1,70,0|0
384,128,34366,2,0,B|296:152,1,70
384,256,34715,2,0,B|296:232,1,70
256,192,35064,6,0,B|208:192,12,35,0|0|0|0|0|0|0|0|0|0|0|0|4
128,56,36459,6,0,B|16:152,1,140,4|0
72,200,36982,2,0,B|184:104,1,140
232,160,37505,2,0,B|56:304,1,210,0|0
112,352,38203,1,0
184,336,38377,1,0
256,320,38552,1,0
256,320,38726,1,0
328,336,38901,1,0
400,352,39076,1,0
456,304,39250,6,0,B|504:160,1,140
432,144,39773,2,0,B|384:288,1,140
320,248,40296,2,0,B|392:40,1,210
320,24,40994,1,0
248,24,41168,1,0
248,96,41343,1,0
176,96,41517,1,0
176,168,41691,1,0
104,168,41866,1,0
104,240,42040,6,0,B|144:320|224:336,1,140
272,344,42564,2,0,B|328:288|408:296,1,140
416,224,43087,2,0,B|312:144|360:32,1,210
288,16,43784,1,0
272,88,43959,1,0
256,160,44133,1,0
264,232,44308,1,0
272,304,44482,1,0
256,376,44657,1,0
200,328,44831,5,0
48,256,45180,1,0
96,184,45354,1,0
160,32,45703,1,0
240,56,45877,1,0
400,96,46226,1,0
464,152,46401,1,0
384,176,46575,1,0
344,336,46924,1,0
168,336,47273,1,0
64,200,47622,6,0,B|88:120|168:96,1,140
216,40,48145,1,0
216,40,48232,1,0
216,40,48319,1,0
232,120,48494,1,0
296,64,48668,2,0,B|384:88|424:136|456:216,1,210
368,216,49366,1,0
432,272,49540,1,0
352,296,49715,1,0
352,296,49802,1,0
352,296,49889,2,0,B|288:344,2,70
288,240,50412,6,0,B|216:224|152:288,1,140
112,352,50936,1,0
80,280,51110,1,0
80,280,51197,1,0
80,280,51284,1,0
120,208,51459,2,0,B|192:168|232:120|248:32,1,210
328,32,52156,1,0
312,112,52331,1,0
376,168,52505,1,0
376,168,52593,1,0
376,168,52680,2,0,B|440:216,2,70
296,200,53203,6,0,B|272:264|312:344,1,140
224,336,53726,1,0
200,256,53901,1,0
200,256,53988,1,0
200,256,54075,1,0
120,288,54250,2,0,B|24:232|64:88,1,210
96,32,54947,1,0
176,48,55122,1,0
248,88,55296,1,0
312,136,55471,1,0
384,176,55645,1,0
464,192,55820,1,0
464,192,55994,5,0
256,360,56343,1,0
256,264,56517,1,0
256,24,56866,1,0
256,120,57040,1,0
40,192,57389,1,0
40,192,57476,1,0
40,192,57564,1,0
136,192,57738,2,0,B|184:192,8,35
472,56,58784,5,2
360,104,59133,1,2
288,176,59482,1,2
256,256,59831,1,2
40,56,61575,5,2
152,104,61924,1,2
224,176,62273,1,2
256,256,62622,1,2
472,328,64366,5,2
360,280,64715,1,2
288,208,65064,1,2
256,128,65413,1,2
40,328,67157,5,2
152,280,67506,1,2
224,208,67855,1,2
256,128,68204,1,2
104,56,69250,5,4
408,328,69598,1,4
488,96,69947,5,0
408,136,70122,1,0
344,200,70296,1,0
304,280,70471,1,2
64,128,70819,1,0
136,176,70994,1,0
192,240,71168,1,2
360,32,71517,1,0
312,88,71691,1,0
280,152,71866,1,2
144,40,72215,1,0
192,88,72389,1,0
24,288,72738,5,0
104,248,72913,1,0
168,184,73087,1,0
208,104,73261,1,2
448,256,73610,1,0
376,208,73785,1,0
320,144,73959,1,2
152,352,74308,1,0
200,296,74482,1,0
232,232,74657,1,2
368,344,75006,1,0
320,296,75180,1,0
104,88,75529,5,0
200,40,75703,1,0
312,40,75877,1,0
408,88,76051,1,2
64,272,76401,1,0
136,224,76575,1,0
192,160,76750,1,2
368,240,77098,1,0
320,184,77273,1,0
296,112,77447,1,2
256,320,77796,1,0
256,264,77971,1,0
256,48,78319,5,0
32,216,79017,1,0
96,240,79191,1,0
256,336,79715,5,0
480,168,80413,1,0
416,144,80587,1,0
256,192,81110,5,0
256,192,81808,1,0
256,192,81982,1,0
256,208,82505,12,4,83901
80,280,84598,5,0
256,64,85296,1,0
432,280,85994,1,0
40,264,86691,5,0
112,200,86866,1,0
168,120,87040,1,0
216,32,87215,1,2
144,312,87563,1,0
200,248,87738,1,0
240,176,87912,1,2
240,344,88261,1,0
280,288,88435,1,0
312,224,88610,1,2
328,360,88959,1,0
360,320,89133,1,0
384,272,89308,1,2
472,264,89482,5,0
400,200,89657,1,0
344,120,89831,1,0
296,32,90006,1,2
368,312,90354,1,0
312,248,90529,1,0
272,176,90703,1,2
272,344,91052,1,0
232,288,91226,1,0
200,224,91401,1,2
184,360,91750,1,0
152,320,91924,1,0
128,272,92099,1,2
424,48,92447,6,0,B|504:64,2,70,0|0|2
384,144,93145,2,0,B|448:208,2,70,0|0|2
320,208,93843,2,0,B|344:288,2,70,0|0|2
248,264,94540,2,0,B|248:344,2,70,0|0|2
152,248,95064,5,0
80,176,95238,1,0
176,152,95412,1,0
112,80,95587,1,2
328,72,95936,1,0
400,112,96110,1,0
328,152,96284,1,2
392,320,96633,1,0
320,304,96808,1,0
256,272,96982,5,2
144,240,97157,1,2
32,192,97331,1,2
144,144,97505,1,2
256,112,97680,1,2
344,72,97854,6,0,B|392:160,1,70
344,312,98203,2,0,B|392:224,1,70
464,192,98726,5,0
464,192,98901,1,0
48,192,99250,5,0
256,56,99598,1,0
464,192,99947,1,0
256,328,100295,1,0
360,192,100645,5,0
256,96,100819,1,0
152,192,100994,1,0
256,288,101168,1,0
256,168,101517,5,0
224,216,101691,1,0
288,216,101866,1,0
256,208,102040,12,0,103087
80,72,103436,6,0,B|160:88|192:168,1,140
256,200,103959,1,0
256,200,104046,1,0
256,200,104133,1,0
184,240,104308,1,0
112,200,104482,1,0
432,72,104831,6,0,B|352:88|320:168,1,140
256,200,105354,1,0
256,200,105441,1,0
256,200,105528,1,0
328,240,105703,1,0
400,200,105877,1,0
256,32,106226,5,0
144,320,106575,1,0
200,344,106750,1,0
256,360,106924,1,0
312,344,107098,1,0
368,320,107273,1,0
256,280,107622,5,0
400,72,107971,1,0
328,48,108145,1,0
256,32,108320,1,0
184,48,108494,1,0
112,72,108668,1,0
256,120,109017,5,0
96,272,109366,1,0
176,296,109540,1,0
256,312,109715,1,0
336,296,109889,1,0
416,272,110063,1,0
256,216,110412,5,0
448,144,110761,1,0
352,96,110936,1,0
256,56,111110,1,0
160,96,111284,1,0
64,144,111459,1,0
376,288,111808,6,0,B|320:240,1,70
136,288,112156,2,0,B|192:240,1,70
136,96,112505,2,0,B|192:144,1,70
376,96,112853,2,0,B|320:144,1,70
256,192,113203,6,0,B|256:232,12,35
256,192,114598,5,4
