osu file format v6

[General]
AudioFilename: Beautiful Angel.mp3
AudioLeadIn: 0
PreviewTime: 9909
Countdown: 0
SampleSet: Normal
StackLeniency: 0.7
Mode: 0
LetterboxInBreaks: 1

[Editor]
Bookmarks: 15616
DistanceSpacing: 0.800000011920929
BeatDivisor: 4
GridSize: 8

[Metadata]
Title:Beautiful Angel
Artist:DJ Swan
Creator:Mystearica
Version:Another
Source:
Tags:IIDX CS 15 Troopers

[Difficulty]
HPDrainRate:7
CircleSize:5
OverallDifficulty:7
SliderMultiplier:1.5
SliderTickRate:0.5

[Events]
//Background and Video events
0,0,"BA.jpg"
//Break Periods
2,58984,69047
//Storyboard Layer 0 (Background)
//Storyboard Layer 1 (Fail)
//Storyboard Layer 2 (Pass)
//Storyboard Layer 3 (Foreground)
//Storyboard Sound Samples
//Background Colour Transformations
3,100,0,0,0

[TimingPoints]
2971,348.837209302326,4,2,1,100,1,0
11604,-100,4,1,1,30,0,0
11953,-100,4,1,1,40,0,0
12302,-100,4,1,1,50,0,0
12651,-100,4,1,1,60,0,0
13261,-100,4,1,1,70,0,0
13959,-100,4,1,1,70,0,0
19540,-100,4,1,1,80,0,0
28000,-200,4,1,1,80,0,0
28697,-100,4,1,1,80,0,0
36633,-100,4,1,1,70,0,0
69773,-100,4,2,1,70,0,0
70034,-100,4,2,1,90,0,0
72651,-100,4,2,1,70,0,0
72825,-100,4,2,1,90,0,0
75441,-100,4,2,1,70,0,0
75616,-100,4,2,1,90,0,0
78232,-100,4,2,1,20,0,0
78668,-100,4,2,1,30,0,0
79017,-100,4,2,1,40,0,0
79366,-100,4,2,1,50,0,0
79715,-100,4,2,1,60,0,0
80064,-100,4,2,1,70,0,0
80936,-100,4,2,1,0,0,0
81023,-100,4,1,1,30,0,0
81372,-100,4,1,1,40,0,0
81721,-100,4,1,1,50,0,0
82069,-100,4,1,1,60,0,0
82418,-100,4,1,1,70,0,0
83116,-100,4,1,1,80,0,0
83988,-100,4,1,1,30,0,0
86604,-100,4,1,1,70,0,0
102127,-100,4,1,1,50,0,0
102564,-100,4,1,1,60,0,0
103000,-100,4,1,1,70,0,0
103436,-100,4,1,1,80,0,0
104221,-100,4,1,1,60,0,0
104569,-100,4,1,1,70,0,0
106139,-100,4,1,1,60,0,0
106837,-100,4,1,1,70,0,0
107534,-100,4,1,1,60,0,0
108232,-100,4,1,1,50,0,0
108581,-100,4,1,1,40,0,0
109104,-100,4,1,1,70,0,0
111721,-100,4,1,1,60,0,0
111895,-100,4,1,1,70,0,0
113465,-100,4,1,1,60,0,0
114686,-100,4,1,1,60,0,0
115645,-100,4,1,1,50,0,0
116343,-100,4,1,1,40,0,0
117040,-100,4,1,1,30,0,0
117738,-100,4,1,1,15,0,0
118436,-100,4,1,1,0,0,0

[Colours]
Combo1 : 215,252,197
Combo2 : 255,255,255
Combo3 : 181,226,251
Combo4 : 251,198,245

[HitObjects]
80,64,2971,1,2
152,112,3145,1,0
152,192,3319,1,2
224,232,3494,1,0
224,152,3668,5,2
304,152,3843,1,0
304,232,4017,1,2
376,192,4191,1,0
376,272,4366,5,2
304,312,4540,1,0
224,312,4715,1,2
144,312,4889,1,0
88,256,5064,5,2
144,192,5238,1,0
88,136,5412,1,2
88,56,5587,1,0
160,96,5761,2,0,B|280:96|216:208|360:208,1,225,2|2
416,64,6808,6,0,B|360:136,1,75,2|0
312,64,7157,2,0,B|232:64,1,75,2|0
240,144,7505,2,0,B|296:216,1,75,2|0
368,192,7854,2,0,B|448:192,1,75,2|0
416,272,8203,6,0,B|360:344,1,75,2|0
304,280,8552,2,2,B|208:280,1,75,2|0
144,280,8901,2,0,B|88:208,1,75,2|0
176,192,9250,2,2,B|288:192,1,75,2|0
232,272,9598,2,0,B|288:344,1,75,2|0
344,280,9947,5,2
424,280,10122,1,0
384,208,10296,1,0
384,208,10471,1,0
336,136,10645,1,2
256,136,10819,1,0
296,208,10994,1,0
216,208,11168,1,0
184,136,11343,6,0,B|104:184,1,75,2|0
167,171,11691,2,0,B|114:248,1,75,0|0
166,211,12040,2,0,B|152:303,1,75,0|0
183,247,12389,2,0,B|208:336,1,75,0|0
256,256,12738,5,0
280,240,12825,1,0
304,224,12912,1,0
328,208,13000,1,0
352,192,13087,1,0
376,176,13174,1,0
400,160,13261,1,0
376,144,13348,1,0
352,128,13436,1,0
328,112,13523,1,0
304,104,13610,1,0
280,88,13697,1,0
256,80,13784,1,4
256,192,14133,5,4
88,72,14482,6,0,B|144:168,1,75,0|0
88,312,14831,2,0,B|144:216,1,75,0|0
160,192,15180,1,0
291,120,15529,5,0
336,176,15703,1,0
312,248,15877,1,0
240,256,16052,1,0
192,200,16226,1,0
216,128,16401,1,0
304,96,16575,5,0
352,168,16750,1,0
328,256,16924,5,0
256,312,17098,2,0,B|144:328,1,75
152,240,17447,2,0,B|102:138,1,75
200,128,17796,1,0
264,192,17971,2,0,B|304:104|416:136,1,150
352,200,18494,5,0
424,200,18668,1,0
432,224,18755,1,0
424,248,18843,1,0
432,272,18930,1,0
424,296,19017,1,0
432,320,19104,1,0
424,344,19191,1,0
424,344,19366,1,4
256,192,19715,5,4
344,128,20064,6,0,B|272:184,1,75
168,128,20412,2,0,B|240:184,1,75
256,224,20761,1,0
256,56,21110,6,0,B|192:120,1,75
256,56,21459,2,0,B|320:120,1,75
256,128,21808,6,0,B|192:192,1,75
256,128,22157,2,0,B|320:192,1,75
256,200,22505,6,0,B|192:264,1,75
256,200,22854,2,0,B|320:264,1,75
256,304,23203,5,0
256,232,23377,1,0
256,232,23465,1,0
256,232,23552,1,0
256,232,23726,1,0
256,232,23901,6,0,B|256:152,1,75,0|0
408,192,24250,5,0
440,104,24424,5,0
408,80,24511,1,0
376,96,24598,1,0
392,128,24686,1,0
432,128,24773,1,0
408,192,24947,5,4
256,192,25296,5,4
424,72,25645,6,0,B|368:168,1,75,0|0
424,312,25994,2,0,B|368:216,1,75,0|0
352,192,26343,1,0
144,312,26691,5,0
88,264,26866,1,0
88,192,27040,1,0
144,144,27215,1,0
200,192,27389,1,0
200,264,27564,1,0
200,264,27651,1,0
200,264,27738,1,0
144,224,27912,5,0
144,224,28087,2,0,B|144:352,1,112.5,4|0
256,56,29133,5,0
104,304,29482,1,0
408,304,29831,1,0
256,192,30005,5,0
256,192,30093,1,0
256,192,30180,1,0
256,192,30354,1,0
256,312,30529,5,0
304,256,30703,5,0
208,256,30877,5,0
104,192,31401,5,0
328,192,31924,5,0
176,192,32273,5,0
408,192,32796,5,0
256,192,33319,5,0
160,80,33668,5,0
104,128,33843,1,0
176,152,34017,2,0,B|176:248,1,75
104,200,34366,2,0,B|104:288,1,75
176,304,34715,1,4
328,304,35064,5,0
312,280,35151,1,0
296,256,35238,1,0
280,232,35325,1,0
304,216,35412,1,0
328,200,35500,1,0
352,184,35587,1,0
336,160,35674,1,0
312,136,35761,1,0
288,112,35848,1,0
264,96,35936,1,0
240,112,36023,1,0
216,128,36110,1,0
256,192,36459,5,4
168,160,36808,2,0,B|96:128,1,75
168,224,37157,2,0,B|96:256,1,75
64,192,37505,1,0
312,80,38029,6,0,B|336:160,1,75
400,192,38377,2,0,B|352:272,1,75
296,216,38726,2,0,B|208:176,1,75
112,88,39250,6,0,B|112:248,1,150
176,200,39773,1,0
216,264,39947,1,0
248,336,40122,1,0
304,288,40296,2,0,B|304:208,1,75
160,88,40819,6,0,B|80:152,1,75
112,208,41168,2,0,B|176:288,1,75
200,200,41517,1,0
232,128,41691,2,0,B|288:200,1,75
240,256,42040,1,4
424,104,42389,6,0,B|344:64,1,75
336,144,42738,1,0
272,112,42912,2,0,B|192:72,1,75
208,152,43261,2,0,B|160:232,1,75
136,280,43610,1,0
208,288,43784,2,0,B|312:288,1,75
336,232,44133,2,0,B|384:152,1,75
408,104,44482,1,0
152,56,44831,5,4
152,120,45005,2,0,B|56:168,1,75
152,168,45354,2,0,B|248:216,1,75
152,216,45703,2,0,B|56:264,1,75
152,264,46052,5,0
152,264,46226,2,0,B|248:312,1,75,0|0
152,320,46575,2,0,B|56:368,1,75
152,192,46924,5,0
256,72,47273,5,0
256,112,47360,1,0
256,152,47447,1,0
256,192,47534,1,0
256,232,47622,1,4
344,160,47971,6,0,B|416:128,1,75
344,224,48320,2,0,B|416:256,1,75
448,192,48668,1,0
112,72,49017,5,0
176,136,49191,1,0
240,72,49366,1,0
304,136,49540,2,0,B|376:88,1,75
288,144,49889,1,0
216,200,50064,2,0,B|144:248,1,75
232,192,50412,1,4
160,80,50761,5,0
160,80,50848,1,0
160,80,50936,2,0,B|232:152,1,75
352,80,51284,2,0,B|280:152,1,75
256,192,51808,5,0
144,280,52157,2,0,B|240:312,1,75
368,280,52505,2,0,B|272:312,1,75
256,240,52854,1,0
352,304,53203,5,0
352,304,53290,1,0
352,304,53378,2,0,B|280:232,1,75
256,192,53726,1,0
200,248,53901,2,0,B|136:304,1,75
200,248,54250,1,4
112,80,54598,5,0
112,80,54773,1,0
112,80,54947,2,0,B|168:144,1,75,0|0
104,120,55296,2,0,B|144:192,1,75,0|0
88,152,55645,2,0,B|112:232,1,75,0|0
109,223,55994,1,4
400,192,56343,5,0
352,248,56517,1,0
320,264,56604,1,0
288,248,56691,1,0
224,216,56866,2,0,B|304:168,1,75
256,112,57215,2,0,B|176:160,1,75
191,150,57476,1,0
191,150,57564,1,0
192,64,57738,5,0
160,72,57825,1,0
128,88,57912,1,0
104,112,58000,1,0
88,144,58087,1,0
80,176,58174,1,0
80,208,58261,1,0
88,240,58348,1,0
104,272,58436,1,0
120,304,58523,1,0
144,328,58610,1,0
176,344,58697,1,0
208,352,58784,1,4
256,104,69947,5,4
176,152,70122,1,0
256,200,70296,1,0
344,152,70471,1,2
184,248,70819,6,0,B|128:320,1,75
137,307,71168,1,2
328,248,71517,2,0,B|384:320,1,75
374,307,71866,1,2
216,184,72738,6,0,B|128:184,1,75,4|0
296,184,73087,2,0,B|384:184,1,75,0|2
200,280,73610,5,0
120,224,73784,1,0
120,128,73959,1,2
312,280,74308,5,0
392,224,74482,1,0
392,128,74657,1,2
168,152,75529,5,4
224,72,75703,2,0,B|320:72,1,75
352,152,76052,1,2
256,176,76401,6,0,B|208:256,1,75,0|0
217,240,76750,1,2
256,176,77098,2,0,B|304:256,1,75,0|0
294,240,77447,1,2
256,208,78319,12,0,80936
64,72,81110,6,0,B|120:168,1,75
144,176,81459,2,0,B|224:176,1,75,0|0
248,224,81808,2,0,B|304:320,1,75
328,328,82157,2,0,B|408:328,1,75,0|0
368,264,82505,5,0
360,240,82593,1,0
352,216,82680,1,0
344,192,82767,1,0
336,168,82854,1,0
320,192,82941,1,0
304,216,83029,1,0
288,240,83116,1,0
272,264,83203,1,0
264,240,83290,1,0
256,216,83377,1,0
248,192,83465,1,0
240,168,83552,1,0
224,192,83639,1,0
208,216,83727,1,0
192,240,83814,1,0
176,264,83901,1,4
256,208,84075,12,0,86517
80,64,86691,5,4
128,120,86866,1,0
176,176,87040,1,0
120,224,87215,1,0
264,184,87564,6,0,B|208:256,1,75
264,184,87913,1,0
280,216,88261,5,0
280,216,88436,2,0,B|336:288,1,75,0|0
448,192,88959,5,0
424,120,89133,1,0
392,48,89308,1,0
320,48,89482,5,4
336,120,89657,2,0,B|232:144,1,75
336,152,90005,2,0,B|257:224,1,75
352,232,90354,1,0
352,232,90529,2,0,B|296:304,1,75
256,240,90877,5,4
216,304,91052,2,0,B|144:248,1,75
192,192,91401,1,0
176,152,91488,1,0
200,112,91575,1,0
272,144,91750,2,0,B|344:200,1,75
104,256,92273,5,4
184,312,92447,2,0,B|112:264,1,75
80,184,92796,1,0
56,144,92883,1,0
80,104,92971,1,0
160,48,93145,1,0
184,144,93319,2,0,B|288:168,1,75
160,168,93668,2,0,B|232:216,1,75
256,304,94017,5,0
328,280,94191,1,0
360,216,94366,1,0
328,144,94540,1,0
288,80,94715,1,0
352,40,94889,1,0
104,120,95238,6,0,B|168:168,1,75
224,208,95587,1,0
408,120,95936,6,0,B|344:168,1,75
288,208,96285,1,0
256,272,96459,1,0
256,272,96546,1,0
256,272,96633,1,0
256,272,96808,1,0
184,272,96982,5,0
96,272,97157,1,0
144,200,97331,1,0
144,112,97505,1,0
72,160,97680,1,0
72,72,97854,5,0
72,160,98029,1,0
72,248,98203,1,0
144,296,98377,1,0
408,112,98726,6,0,B|304:136,1,75,0|0
424,136,99075,2,0,B|360:184,1,75
272,192,99424,1,0
272,192,99598,1,0
272,192,99686,1,0
272,192,99773,1,0
104,272,99947,6,0,B|208:248,1,75,0|0
88,248,100296,2,0,B|152:200,1,75
240,192,100645,5,0
288,192,100732,1,0
336,192,100819,1,0
424,192,100994,1,0
424,192,101168,1,0
352,328,101517,6,0,B|280:272,1,75
160,328,101866,2,0,B|232:272,1,75
256,216,102215,5,0
240,192,102302,1,0
232,168,102389,1,0
240,136,102476,1,0
264,112,102564,1,0
288,96,102651,1,0
320,96,102738,1,0
352,104,102825,1,0
376,120,102912,1,0
392,144,103000,1,0
400,176,103087,1,0
400,208,103174,1,0
392,232,103261,1,0
376,256,103348,1,0
352,280,103436,1,4
288,312,103610,5,0
216,312,103785,1,0
144,312,103959,1,0
72,312,104134,1,0
104,248,104308,6,0,B|192:200,1,75
96,208,104657,2,0,B|160:152,1,75
224,184,105006,5,0
288,240,105180,1,0
352,184,105355,1,0
416,240,105529,1,0
360,304,105703,2,0,B|464:304,1,75
435,304,106052,1,4
344,304,106227,5,0
256,304,106401,1,0
168,304,106576,1,0
216,224,106750,1,0
304,224,106925,1,0
256,144,107099,1,0
216,64,107273,1,0
304,64,107447,1,0
256,144,107622,5,0
344,144,107796,1,0
256,144,107971,1,0
168,144,108145,1,0
80,144,108319,1,0
120,224,108494,1,0
168,304,108668,1,0
216,224,108843,1,0
256,304,109017,1,4
304,224,109191,6,0,B|408:224,1,75
304,224,109540,2,0,B|304:304,1,75
304,224,109889,2,0,B|208:224,1,75,0|0
304,224,110238,2,0,B|304:120,1,75,0|0
304,224,110587,2,0,B|392:224,1,75
304,224,110936,2,0,B|304:320,1,75,0|0
304,224,111284,2,0,B|216:224,1,75
304,224,111633,1,0
304,224,111808,1,4
304,136,111982,5,0
248,64,112157,1,0
160,64,112331,1,0
208,144,112505,1,0
120,144,112680,1,0
168,216,112854,1,0
256,216,113029,1,0
216,296,113203,1,0
304,296,113377,1,0
352,216,113552,5,0
368,192,113639,1,0
368,160,113726,1,0
360,128,113814,1,0
344,104,113901,1,0
328,80,113988,1,0
304,64,114075,1,0
272,64,114162,1,0
240,72,114250,1,0
216,88,114337,1,0
200,112,114424,1,0
192,144,114511,1,0
192,176,114598,1,4
256,208,114773,12,0,118784
