osu file format v12

[General]
AudioFilename: DDR Mario Mix - Always Smiling.mp3
AudioLeadIn: 0
PreviewTime: 24057
Countdown: 0
SampleSet: None
StackLeniency: 0.7
Mode: 0
LetterboxInBreaks: 0

[Editor]
Bookmarks: 10139
DistanceSpacing: 0.4
BeatDivisor: 4
GridSize: 4

[Metadata]
Title:Always Smiling
TitleUnicode:Always Smiling
Artist:DJ Stardust
ArtistUnicode:DJ Stardust
Creator:Revy
Version:Insane
Source:Dance Dance Revolution: Mario Mix
Tags:ddr super mario kevincela leader ayu
BeatmapID:239449
BeatmapSetID:86924

[Difficulty]
HPDrainRate:7
CircleSize:4
OverallDifficulty:7
ApproachRate:8
SliderMultiplier:2
SliderTickRate:2

[Events]
//Background and Video events
0,0,"1.supermario.jpg",1,1
//Break Periods
//Storyboard Layer 0 (Background)
//Storyboard Layer 1 (Fail)
//Storyboard Layer 2 (Pass)
//Storyboard Layer 3 (Foreground)
//Storyboard Sound Samples
//Background Colour Transformations
3,100,163,162,255

[TimingPoints]
75,428.265524625268,4,1,0,50,1,0
24057,-100,4,1,0,50,0,1
37762,-100,4,1,0,50,0,0
57783,-100,4,1,0,10,0,0
58319,-100,4,1,0,50,0,1
72023,-100,4,1,0,50,0,0
85942,-100,4,1,0,5,0,0

[Colours]
Combo1 : 255,255,0
Combo2 : 255,255,255
Combo3 : 5,5,240
Combo4 : 240,5,5

[HitObjects]
56,276,10353,2,0,P|100:304|192:280,1,150,0|0,0:0|0:0,0:0:0:0:
196,264,10781,2,0,B|208:312|208:312|244:308|272:324,1,100,8|0,2:0|0:0,0:0:0:0:
396,240,11209,2,0,P|352:264|300:252,2,100,0|0|8,0:0|0:0|0:2,0:0:0:0:
304,112,11852,6,0,P|209:93|121:141,1,200,2|0,2:2|0:0,0:0:0:0:
324,192,12494,2,0,P|368:164|372:72,1,150,8|0,0:2|0:0,0:0:0:0:
360,56,12922,2,0,B|408:72|408:72|464:72,1,100,0|0,0:2|0:0,0:0:0:0:
244,184,13351,2,0,B|196:168|196:168|140:168,1,100,8|0,0:2|0:0,0:0:0:0:
312,280,13779,6,0,B|416:272|416:272|416:252|428:228,1,150
444,220,14207,2,0,B|392:208|392:208|380:184|360:168,1,100,8|0,0:2|0:0,0:0:0:0:
232,264,14636,2,0,L|128:272,2,100,0|0|8,0:0|0:0|0:2,0:0:0:0:
96,336,15278,6,0,P|64:296|96:208,1,150,0|0,0:0|0:0,0:0:0:0:
108,196,15706,2,0,P|129:131|105:101,1,100,0|8,0:0|0:2,0:0:0:0:
180,248,16134,1,0,0:0:0:0:
115,109,16349,2,0,B|167:99|167:99|199:123|247:123|291:111|315:75,1,200,2|8,2:0|0:2,0:0:0:0:
480,68,16991,5,0,0:0:0:0:
432,232,17205,2,0,P|388:204|340:212,1,100
456,308,17633,2,0,P|496:276|492:180,1,150,8|0,0:2|0:0,0:0:0:0:
484,168,18062,2,0,B|452:128|452:128|464:80,2,100,0|0|8,0:0|0:0|0:2,0:0:0:0:
376,288,18704,2,0,P|284:328|200:288,1,200,2|0,2:2|0:0,0:0:0:0:
316,148,19346,2,0,P|284:188|288:236,1,100,8|0,0:2|0:0,0:0:0:0:
384,104,19775,2,0,P|344:72|256:96,1,150
248,112,20203,2,0,B|232:64|232:64|208:72|176:64,1,100,8|0,0:2|0:0,0:0:0:0:
240,200,20631,6,0,P|336:232|404:172,1,200,4|8,2:2|0:2,0:0:0:0:
248,112,21274,1,0,0:0:0:0:
68,84,21488,2,0,B|108:100|148:88|148:88|168:108|172:152,1,150,2|0,2:0|0:0,0:0:0:0:
168,168,21916,2,0,B|160:224|160:224|184:268,2,100,8|0|4,0:2|0:0|2:2,0:0:0:0:
128,332,22558,1,0,0:0:0:0:
256,224,22773,2,0,P|304:244|364:224,1,100,8|0,0:2|0:0,0:0:0:0:
488,128,23201,2,0,P|416:98|326:128,1,150
332,124,23629,2,0,B|296:84|296:84|280:92|240:88,1,100,4|0,2:0|0:0,0:0:0:0:
44,176,24057,6,0,P|124:172|196:176,1,150,2|0,2:3|0:0,0:0:0:0:
212,184,24486,2,0,B|233:203|244:224|244:224|296:220,1,100,8|0,2:2|0:0,0:0:0:0:
164,264,24914,2,0,P|116:252|48:316,1,150,2|0,2:0|0:0,0:0:0:0:
48,336,25342,2,0,B|36:288|36:288|0:252,2,100,8|0|4,2:2|0:0|2:0,0:0:0:0:
164,264,25985,1,2,0:2:0:0:
300,332,26199,2,0,P|328:292|424:284,1,150,8|0,2:2|0:0,0:0:0:0:
436,296,26627,2,0,P|460:260|460:204,2,100,0|2|8,0:0|2:0|2:0,0:0:0:0:
400,148,27269,6,0,B|364:112|372:64|372:64|336:40|287:49|268:80,1,200,2|0,2:0|0:0,0:0:0:0:
180,232,27912,2,0,P|276:268|352:216,1,200,8|0,2:0|0:0,0:0:0:0:
180,232,28554,2,0,B|128:216|128:216|80:216,1,100,0|8,0:0|2:0,0:0:0:0:
260,172,28982,2,0,P|286:99|248:42,1,150
228,40,29411,2,0,L|328:40,2,100,0|8|0,0:0|2:0|0:0,0:0:0:0:
180,232,30053,1,0,2:0:0:0:
180,232,30481,1,12,0:2:0:0:
180,232,30910,6,0,B|280:252|280:252|328:232|320:168,1,200,2|8,2:0|2:0,0:0:0:0:
160,152,31552,1,0,0:0:0:0:
68,296,31766,2,0,P|120:300|180:232,1,150
160,232,32194,2,0,L|264:224,2,100,8|0|4,2:0|0:0|2:0,0:0:0:0:
320,172,32837,1,0,0:0:0:0:
240,52,33051,2,0,L|76:48,1,150,8|0,2:0|0:0,0:0:0:0:
72,52,33479,2,0,P|52:100|72:144,2,100,0|0|8,0:0|0:0|2:0,0:0:0:0:
240,52,34122,6,0,P|260:100|240:144,2,100,0|4|0,0:0|2:2|0:0,0:0:0:0:
176,184,34764,2,0,P|220:216|304:188,1,150,8|0,2:0|0:0,0:0:0:0:
316,172,35192,2,0,B|312:228|312:228|328:248|336:272,1,100
384,124,35621,1,12,2:2:0:0:
276,316,35835,2,0,B|232:288|184:296|184:296|152:340|92:344,1,200
188,216,36477,2,0,B|252:216|304:236|344:272|344:272|372:252,1,200,8|0,2:0|0:0,0:0:0:0:
104,228,37119,1,2,2:0:0:0:
416,324,37334,2,0,P|448:288|452:224,1,100,12|0,2:0|0:0,0:0:0:0:
380,56,37762,6,0,L|324:64,1,50,0|2,0:0|2:0,0:0:0:0:
312,60,37976,2,0,B|280:96|280:96|256:88|224:92,1,100,8|0,2:0|0:0,0:0:0:0:
384,140,38404,1,0,0:0:0:0:
220,164,38618,2,0,P|200:212|244:292,1,150,8|0,2:0|0:0,0:0:0:0:
264,292,39047,2,0,L|160:300,1,100,2|0,2:0|0:0,0:0:0:0:
336,252,39475,5,8,2:0:0:0:
220,164,39689,2,0,L|116:172,2,100,0|2|0,0:0|2:0|0:0,0:0:0:0:
100,252,40331,2,0,P|52:240|4:260,1,100,0|2,0:0|2:0,0:0:0:0:
6,258,40653,1,0,0:0:0:0:
176,236,40867,2,0,P|224:248|272:228,1,100,0|2,0:0|2:2,0:0:0:0:
276,212,41188,6,0,B|272:264|272:264|300:260|328:276,1,100,12|0,2:2|0:0,0:0:0:0:
484,236,41616,2,0,L|384:224,1,100,0|2,0:0|2:0,0:0:0:0:
512,160,42045,2,0,L|362:142,1,150,8|0,0:2|0:0,0:0:0:0:
344,140,42473,2,0,B|316:96|316:96|292:80|256:80,1,100,0|2,0:0|2:0,0:0:0:0:
440,68,42901,1,12,2:0:0:0:
256,192,43008,12,4,44186,2:0:0:0:
136,124,44614,6,0,P|180:156|268:136,1,150
268,156,45042,2,0,B|268:104|268:104|296:104|324:88,1,100,8|0,2:0|0:0,0:0:0:0:
148,44,45471,2,0,L|48:56,2,100,0|0|8,0:0|0:0|2:0,0:0:0:0:
208,208,46113,2,0,P|252:232|340:184,1,150
340,172,46541,2,0,B|347:226|347:226|371:232|388:252,1,100,0|8,0:0|2:0,0:0:0:0:
328,88,46970,1,0,0:0:0:0:
316,300,47184,2,0,P|228:256|144:300,1,200,0|8,0:0|2:0,0:0:0:0:
16,220,47826,1,0,0:0:0:0:
152,140,48040,6,0,P|188:176|280:168,1,150
292,152,48469,2,0,B|340:164|340:164|368:152|404:156,1,100,8|0,2:0|0:0,0:0:0:0:
224,108,48897,2,0,P|188:68|76:124,1,200,0|8,0:0|2:0,0:0:0:0:
220,192,49539,2,0,P|260:228|352:212,1,150
356,196,49967,2,0,L|352:296,2,100,0|8|0,0:0|2:0|0:0,0:0:0:0:
208,168,50610,2,0,P|108:184|24:128,1,200,0|8,0:0|2:0,0:0:0:0:
180,72,51252,1,0,0:0:0:0:
288,176,51466,6,0,P|336:192|424:148,1,150
428,132,51895,2,0,L|416:240,1,100,8|0,2:0|0:0,0:0:0:0:
336,108,52323,2,0,L|348:0,2,100,0|0|8,0:0|0:0|2:0,0:0:0:0:
280,260,52965,2,0,P|208:192|240:108,1,200
348,216,53608,2,0,P|360:268|344:312,1,100,8|0,2:0|0:0,0:0:0:0:
288,180,54036,2,0,L|492:168,1,200,0|8,0:0|2:0,0:0:0:0:
488,168,54678,1,0,0:0:0:0:
328,92,54892,6,0,P|276:100|228:72,1,100,4|0,2:0|0:0,0:0:0:0:
56,68,55321,2,0,P|108:60|156:88,1,100,8|0,2:0|0:0,0:0:0:0:
120,256,55749,2,0,P|160:288|256:272,1,150
268,264,56177,2,0,P|337:254|367:278,1,100,8|0,2:0|0:0,0:0:0:0:
196,216,56606,2,0,L|220:116,1,100,4|0,2:0|0:0,0:0:0:0:
104,256,57034,2,0,L|128:156,1,100,8|0,2:0|0:0,0:0:0:0:
36,304,57462,2,0,P|76:336|188:272,1,200,2|4,2:0|2:0,0:0:0:0:
188,271,58319,6,0,L|288:264,1,100
468,292,58747,2,0,L|368:299,1,100,8|0,2:0|0:0,0:0:0:0:
176,352,59175,2,0,P|128:328|112:240,1,150,2|0,2:0|0:0,0:0:0:0:
124,224,59603,2,0,B|80:200|80:200|28:208,2,100,8|0|4,2:0|0:0|2:0,0:0:0:0:
264,332,60246,1,0,0:0:0:0:
196,196,60460,2,0,B|292:168|292:224|392:196,1,200,8|0,2:0|0:0,0:0:0:0:
200,112,61102,5,0,0:0:0:0:
188,280,61316,1,8,2:0:0:0:
280,96,61531,2,0,P|256:52|164:40,1,150,2|0,2:0|0:0,0:0:0:0:
144,48,61959,2,0,P|96:68|48:68,2,100,0|8|0,0:0|2:0|0:0,0:0:0:0:
256,176,62601,2,0,P|304:156|352:156,2,100,2|0|8,2:0|0:0|2:0,0:0:0:0:
196,336,63244,2,0,P|148:356|100:356,2,100,0|4|0,0:0|2:0|0:0,0:0:0:0:
256,176,63886,2,0,P|308:184|352:268,1,150,8|0,2:2|0:0,0:0:0:0:
348,284,64314,2,0,B|355:185|355:185|407:156|424:112,1,200,0|12,0:0|2:2,0:0:0:0:
348,284,65171,6,0,L|196:272,1,150
180,280,65599,2,0,B|136:256|136:256|112:260|84:248,1,100,8|0,2:0|0:0,0:0:0:0:
80,80,66027,2,0,P|112:116|112:168,2,100,2|0|8,2:0|0:0|2:0,0:0:0:0:
196,188,66670,2,0,P|240:216|364:160,1,200
212,112,67312,2,0,B|184:104|140:116|120:164|120:164|80:184|32:160,1,200,8|0,2:0|0:0,0:0:0:0:
196,188,67955,1,0,0:0:0:0:
228,32,68169,1,8,2:0:0:0:
136,240,68383,6,0,P|180:268|264:232,1,150,2|0,2:0|0:0,0:0:0:0:
272,216,68811,2,0,B|268:268|268:268|292:268|324:280,1,100,0|8,0:0|2:0,0:0:0:0:
260,128,69239,1,0,0:0:0:0:
220,336,69454,2,0,L|320:352,2,100,2|0|8,2:0|0:0|2:0,0:0:0:0:
384,304,70096,2,0,P|424:272|416:136,1,200
248,216,70738,2,0,B|348:232|348:232|316:248|300:284|304:316,1,200,8|0,2:0|0:0,0:0:0:0:
168,200,71381,1,2,2:0:0:0:
368,156,71595,2,0,L|269:140,1,100,12|0,0:2|0:0,0:0:0:0:
100,244,72023,6,0,P|144:276|192:276,1,100
436,112,72451,2,0,P|392:80|344:80,1,100,8|0,2:0|0:0,0:0:0:0:
224,360,72880,2,0,P|264:328|264:232,1,150,0|0,0:0|0:0,0:0:0:0:
256,216,73308,2,0,B|304:240|304:240|326:233|352:240,1,100,8|0,2:0|0:0,0:0:0:0:
160,176,73736,1,4,2:0:0:0:
160,176,73950,1,0,0:0:0:0:
448,256,74164,2,0,L|348:240,1,100,8|0,2:0|0:0,0:0:0:0:
92,220,74593,6,0,P|132:252|184:252,1,100
179,253,74914,1,8,2:0:0:0:
332,96,75128,2,0,L|232:92,1,100,8|0,2:0|0:0,0:0:0:0:
232,92,75449,6,0,P|204:136|224:184,1,100,4|0,2:0|0:0,0:0:0:0:
392,264,75877,2,0,P|420:220|400:172,1,100,8|0,2:0|0:0,0:0:0:0:
260,300,76306,2,0,L|160:296,1,100
144,304,76627,2,0,B|96:292|96:292|64:256|60:224|72:196,1,150,8|0,2:0|0:0,0:0:0:0:
128,52,77162,1,4,2:0:0:0:
200,232,77376,5,0,0:0:0:0:
304,56,77591,2,0,L|204:40,1,100,8|0,2:0|0:0,0:0:0:0:
364,112,78019,2,0,P|384:64|376:16,1,100,0|0,0:0|0:0,0:0:0:0:
376,17,78340,1,8,2:0:0:0:
392,212,78554,2,0,P|372:260|380:308,1,100,8|0,2:0|0:0,0:0:0:0:
380,308,78875,6,0,L|280:324,1,100,2|0,2:0|0:0,0:0:0:0:
76,252,79304,2,0,L|176:236,1,100,8|0,2:0|0:0,0:0:0:0:
348,144,79732,2,0,P|400:132|468:196,1,150
468,212,80160,2,0,L|484:112,2,100,8|0|4,2:0|0:0|2:0,0:0:0:0:
464,20,80803,5,0,0:0:0:0:
336,172,81017,2,0,P|284:176|232:172,1,100,8|0,2:0|0:0,0:0:0:0:
20,212,81445,2,0,L|132:224,1,100
119,222,81766,1,8,2:0:0:0:
356,299,81980,2,0,L|244:287,1,100,8|0,2:0|0:0,0:0:0:0:
256,288,82301,1,0,0:0:0:0:
452,264,82516,5,0,0:0:0:0:
304,160,82730,2,0,P|252:160|208:136,1,100,8|4,2:0|2:0,0:0:0:0:
380,188,83158,2,0,P|348:228|256:224,1,150,4|0,2:0|0:0,0:0:0:0:
236,228,83586,2,0,B|184:232|184:232|156:216|128:216,2,100,8|4|4,2:0|2:0|2:0,0:0:0:0:
256,192,84122,12,0,85728,0:0:0:0:
