osu file format v9

[General]
AudioFilename: DJ Spyne - Deep In My Soul (Nightcore Mix).mp3
AudioLeadIn: 0
PreviewTime: 39781
Countdown: 0
SampleSet: Soft
StackLeniency: 0.6
Mode: 0
LetterboxInBreaks: 0

[Editor]
Bookmarks: 90673
DistanceSpacing: 0.8
BeatDivisor: 2
GridSize: 8

[Metadata]
Title:Deep In My Soul (Nightcore Mix)
Artist:DJ Spyne & Pippo Palmieri
Creator:osuplayer111
Version:Normal
Source:
Tags:Trance Samah

[Difficulty]
HPDrainRate:4
CircleSize:4
OverallDifficulty:4
ApproachRate:5
SliderMultiplier:1.5
SliderTickRate:1

[Events]
//Background and Video events
0,0,"Moe.jpg"
//Break Periods
2,65476,75188
2,154364,164077
//Storyboard Layer 0 (Background)
//Storyboard Layer 1 (Fail)
//Storyboard Layer 2 (Pass)
//Storyboard Layer 3 (Foreground)
//Storyboard Sound Samples
//Background Colour Transformations
3,100,128,128,255

[TimingPoints]
1785,396.825396825397,4,2,1,80,1,0
1785,-200,4,2,1,80,0,0
14483,-100,4,2,1,80,0,0
27181,-100,4,2,1,50,0,0
27281,-100,4,2,1,80,0,0
38292,-100,4,1,1,50,0,0
39880,-100,4,2,1,80,0,1
39979,-100,4,2,1,100,0,1
52479,-100,4,2,1,100,0,0
52578,-100,4,2,1,80,0,1
52677,-100,4,2,1,100,0,1
63689,-100,4,2,1,80,0,1
63788,-100,4,2,1,100,0,1
65277,-100,4,2,1,80,0,0
78173,-100,4,2,1,100,0,0
89086,-100,4,2,1,80,0,0
89185,-100,4,2,1,100,0,0
90673,-200,4,1,1,50,0,0
90773,-200,4,2,1,50,0,0
103372,-100,4,2,1,50,0,0
103471,-100,4,2,1,80,0,0
116070,-100,4,2,1,50,0,0
116169,-100,4,2,1,80,0,0
127181,-100,4,1,1,50,0,0
128769,-100,4,2,1,80,0,1
128868,-100,4,2,1,100,0,1
141368,-100,4,2,1,100,0,0
141467,-100,4,2,1,80,0,1
141566,-100,4,2,1,100,0,1
152578,-100,4,2,1,80,0,1
152677,-100,4,2,1,100,0,1
154165,-100,4,2,1,80,0,0
167062,-100,4,2,1,100,0,0
177975,-100,4,2,1,80,0,0
178074,-100,4,2,1,100,0,0
179562,-100,4,1,1,50,0,0
179661,-100,4,2,1,80,0,0

[Colours]
Combo1 : 47,187,255
Combo2 : 160,66,255
Combo3 : 255,89,255
Combo4 : 72,72,255
SliderBorder : 200,200,200

[HitObjects]
64,64,1785,2,0,B|176:64|176:64|240:104|240:104|352:104,1,300,2|2
352,104,3769,1,0
448,320,4959,6,0,B|336:320|336:320|272:280|272:280|160:280,1,300,2|2
159,280,6943,1,0
448,64,8134,6,0,B|424:192|288:192|288:192|208:192,1,300,2|2
212,192,10118,1,0
64,320,11308,6,0,B|88:192|224:192|224:192|304:192,1,300,2|2
299,192,13292,1,0
40,40,14483,6,0,B|120:40|160:120,1,150,2|0
256,48,15277,1,0
353,117,15673,2,0,B|392:40|472:40,2,150,0|2|0
256,192,16864,1,0
208,304,17261,1,0
256,336,17459,1,0
304,304,17658,6,0,B|384:304|384:304|432:248,2,150,2|0|0
256,192,18848,1,0
208,304,19245,2,0,B|128:304|128:304|80:248,2,150,2|0|0
160,192,20435,1,0
120,144,20634,1,0
80,96,20832,6,0,B|128:32|128:32|200:32,1,150,2|0
320,48,21626,2,0,B|272:112|272:112|200:112,2,150,0|0|2
440,48,22816,1,0
384,152,23213,1,0
440,256,23610,6,0,B|488:192,2,75,0|0|2
352,336,24404,2,0,B|264:336|240:248,1,150
208,136,25197,2,0,B|296:136|320:224,2,150,0|2|0
88,136,26388,1,0
152,32,26785,1,0
208,32,26983,1,0
264,32,27181,6,0,B|312:32|336:72|336:72|400:72,1,150,4|8
480,160,27975,1,0
400,248,28372,2,8,B|312:248|272:312|272:312|120:312,1,300
64,216,29562,6,0,B|136:184|136:96,1,150,0|8
240,40,30356,1,0
240,40,30554,1,0
240,40,30753,2,8,B|336:176|504:136,2,300
136,96,32737,5,0
64,192,33134,1,8
136,288,33531,1,0
136,288,33729,1,0
136,288,33927,2,8,B|256:378|256:378|376:288,1,300
448,192,35118,1,0
376,96,35515,1,8
256,96,35911,6,0,B|256:248,1,150,0|8
176,336,36705,2,0,B|112:296,2,75,0|0|8
256,246,37499,1,0
336,336,37896,2,0,B|400:296,2,75,8|0|4
256,48,39880,6,0,B|336:48|384:120,1,150,4|8
381,117,40475,1,0
376,240,40872,2,0,B|320:192,1,75,0|8
272,160,41269,2,0,B|216:160|216:160|192:192|192:192|136:192,1,150
138,192,41864,1,8
72,296,42261,6,0,B|24:240,2,75,0|0|8
184,336,43054,2,0,B|256:316|256:316|328:336,1,150,0|8
440,296,43848,2,0,B|488:240,2,75,0|0|8
328,248,44642,1,0
256,152,45038,1,8
184,248,45435,1,0
184,248,45634,1,0
184,248,45832,1,8
128,144,46229,5,0
184,40,46626,2,0,B|224:112,1,75,8|0
256,152,47023,1,0
291,105,47221,2,0,B|328:40,1,75,0|8
384,144,47816,1,0
448,248,48213,1,8
384,352,48610,1,0
320,248,49007,5,8
320,248,49205,1,0
320,248,49404,2,0,B|240:248|192:320,1,150,0|8
92,252,50197,1,0
92,132,50594,1,8
194,66,50991,2,0,B|240:136|320:136,1,150,0|8
424,192,51785,2,0,B|504:192,2,75,0|0|8
424,312,52578,6,0,B|344:312|344:312|296:256,1,150,4|8
298,258,53173,1,0
224,168,53570,1,0
224,168,53769,1,8
224,168,53967,2,0,B|144:168|104:248,1,150
105,245,54562,2,0,B|200:368,1,150,8|0
314,364,55356,6,0,B|406:245,1,150,8|0
480,152,56150,2,0,B|432:96,1,75,8|0
368,96,56546,2,0,B|288:112|240:40,1,150,0|8
240,160,57340,2,0,B|191:87|111:103,1,150,0|8
32,192,58134,1,0
32,192,58332,1,0
32,192,58531,2,0,B|72:248|72:248|104:288|64:328,1,150,8|0
184,352,59324,6,0,B|216:336|216:288,1,75,8|0
256,248,59721,1,0
296,288,59919,2,0,B|296:336|328:352,1,75,0|8
441,321,60515,2,0,B|408:288|440:248|440:248|480:192,1,150,0|8
392,112,61308,1,0
296,40,61705,5,8
296,40,61904,1,0
296,40,62102,2,0,B|264:88|216:88|216:88|160:88,1,150,0|8
104,192,62896,1,0
162,296,63292,5,8
162,296,63491,1,0
162,296,63689,2,0,B|216:296|216:296|264:296|296:344,2,150,4|8|0
104,192,64880,2,0,B|24:192,2,75,8|0|4
256,192,76388,12,4,77975
256,192,78372,6,0,B|336:192|376:112,1,150,8|0
256,88,79165,2,0,B|256:8,2,75,8|0|0
137,114,79959,2,0,B|176:192|256:192,1,150,8|0
200,296,80753,5,8
256,320,80951,1,0
312,296,81150,2,0,B|392:296|392:296|432:240,2,150,0|8|0
256,192,82340,6,0,B|176:192,2,75,8|0|0
344,104,83134,1,8
256,24,83531,2,0,B|176:24|128:96,1,150,0|8
88,136,84126,1,0
48,176,84324,6,0,B|48:256|120:304,1,150,0|8
117,301,84919,2,0,B|200:272|248:352,1,150
245,348,85515,2,0,B|304:304,1,75,8|0
305,302,85911,6,0,B|368:256|368:256|424:304,1,150,0|8
422,302,86507,2,0,B|488:264|488:176,1,150
488,175,87102,2,0,B|432:120|432:120|360:120,1,150,8|0
240,120,87896,6,0,B|192:64,1,75,8|0
72,80,88491,2,0,B|120:136,1,75,0|8
208,224,89086,2,0,B|288:224|328:144,1,150,4|8
448,144,89880,1,0
368,240,90277,1,8
448,320,90673,6,0,B|336:320|336:320|272:280|272:280|160:280,1,300,4|2
160,280,92657,1,0
64,64,93847,6,0,B|176:64|176:64|240:104|240:104|352:104,1,300,2|2
353,104,95831,1,0
64,320,97022,6,0,B|88:192|224:192|224:192|304:192,1,300,2|2
300,192,99006,1,0
448,64,100196,6,0,B|424:192|288:192|288:192|208:192,1,300,2|2
213,192,102180,1,0
472,344,103372,6,0,B|392:344|352:264,1,150,4|0
256,336,104165,1,0
159,267,104561,2,0,B|120:344|40:344,2,150,0|2|0
256,192,105752,1,0
304,80,106149,1,0
256,48,106347,1,0
208,80,106546,6,0,B|128:80|128:80|80:136,2,150,2|0|0
256,192,107736,1,0
304,80,108133,2,0,B|384:80|384:80|432:136,2,150,2|0|0
352,192,109323,1,0
392,240,109522,1,0
432,288,109720,6,0,B|384:352|384:352|312:352,1,150,2|0
192,336,110514,2,0,B|240:272|240:272|312:272,2,150,0|0|2
72,336,111704,1,0
128,232,112101,1,0
72,128,112498,6,0,B|24:192,2,75,0|0|2
160,48,113292,2,0,B|248:48|272:136,1,150
304,248,114085,2,0,B|216:248|192:160,2,150,0|2|0
424,248,115276,1,0
360,352,115673,1,0
304,352,115871,1,0
248,352,116069,6,0,B|200:352|176:312|176:312|112:312,1,150,4|8
32,224,116863,1,0
112,136,117260,2,8,B|200:136|240:72|240:72|392:72,1,300
448,168,118450,6,0,B|376:200|376:288,1,150,0|8
272,344,119244,1,0
272,344,119442,1,0
272,344,119641,2,8,B|176:208|8:248,2,300
376,288,121625,5,0
448,192,122022,1,8
376,96,122419,1,0
376,96,122617,1,0
376,96,122815,2,8,B|256:6|256:6|136:96,1,300
64,192,124006,1,0
136,288,124403,1,8
256,288,124799,6,0,B|256:136,1,150,0|8
336,48,125593,2,0,B|400:88,2,75,0|0|8
256,138,126387,1,0
176,48,126784,2,0,B|112:88,2,75,8|0|4
256,336,128768,6,0,B|176:336|128:264,1,150,4|8
131,267,129363,1,0
136,144,129761,2,0,B|192:192,1,75,0|8
240,224,130157,2,0,B|296:224|296:224|320:192|320:192|376:192,1,150
374,192,130752,1,8
440,88,131149,6,0,B|488:144,2,75,0|0|8
328,48,131942,2,0,B|256:68|256:68|184:48,1,150,0|8
72,88,132736,2,0,B|24:144,2,75,0|0|8
184,136,133530,1,0
256,232,133926,1,8
328,136,134323,1,0
328,136,134522,1,0
328,136,134720,1,8
384,240,135117,5,0
328,344,135514,2,0,B|288:272,1,75,8|0
256,232,135911,1,0
221,279,136109,2,0,B|184:344,1,75,0|8
128,240,136704,1,0
64,136,137101,1,8
128,32,137498,1,0
192,136,137895,5,8
192,136,138093,1,0
192,136,138292,2,0,B|272:136|320:64,1,150,0|8
420,132,139085,1,0
420,252,139482,1,8
318,318,139879,2,0,B|272:248|192:248,1,150,0|8
88,192,140673,2,0,B|8:192,2,75,0|0|8
88,72,141466,6,0,B|168:72|168:72|216:128,1,150,4|8
214,126,142061,1,0
288,216,142458,1,0
288,216,142657,1,8
288,216,142855,2,0,B|368:216|408:136,1,150
407,139,143450,2,0,B|312:16,1,150,8|0
198,20,144244,6,0,B|106:139,1,150,8|0
32,232,145038,2,0,B|80:288,1,75,8|0
144,288,145434,2,0,B|224:272|272:344,1,150,0|8
272,224,146228,2,0,B|321:297|401:281,1,150,0|8
480,192,147022,1,0
480,192,147220,1,0
480,192,147419,2,0,B|440:136|440:136|408:96|448:56,1,150,8|0
328,32,148212,6,0,B|296:48|296:96,1,75,8|0
256,136,148609,1,0
216,96,148807,2,0,B|216:48|184:32,1,75,0|8
71,63,149403,2,0,B|104:96|72:136|72:136|32:192,1,150,0|8
120,272,150196,1,0
216,344,150593,5,8
216,344,150792,1,0
216,344,150990,2,0,B|248:296|296:296|296:296|352:296,1,150,0|8
408,192,151784,1,0
350,88,152180,5,8
350,88,152379,1,0
350,88,152577,2,0,B|296:88|296:88|248:88|216:40,2,150,4|8|0
408,192,153768,2,0,B|488:192,2,75,8|0|4
256,192,165277,12,4,166864
256,192,167261,6,0,B|176:192|136:272,1,150,8|0
256,296,168054,2,0,B|256:376,2,75,8|0|0
375,270,168848,2,0,B|336:192|256:192,1,150,8|0
312,88,169642,5,8
256,64,169840,1,0
200,88,170039,2,0,B|120:88|120:88|80:144,2,150,0|8|0
256,192,171229,6,0,B|336:192,2,75,8|0|0
168,280,172023,1,8
256,360,172420,2,0,B|336:360|384:288,1,150,0|8
424,248,173015,1,0
464,208,173213,6,0,B|464:128|392:80,1,150,0|8
395,83,173808,2,0,B|312:112|264:32,1,150
267,36,174404,2,0,B|208:80,1,75,8|0
207,82,174800,6,0,B|144:128|144:128|88:80,1,150,0|8
90,82,175396,2,0,B|24:120|24:208,1,150
24,209,175991,2,0,B|80:264|80:264|152:264,1,150,8|0
272,264,176785,6,0,B|320:320,1,75,8|0
440,304,177380,2,0,B|392:248,1,75,0|8
304,160,177975,2,0,B|224:160|184:240,1,150,4|8
64,240,178769,1,0
144,144,179166,1,8
64,48,179562,5,4
448,48,181150,1,2
448,336,182737,5,2
64,336,184324,1,2
256,48,185911,1,2
256,336,187499,6,0,B|144:288|144:152,2,225,2|0|0
256,336,189086,2,0,B|368:288|368:152,2,225,2|0|0
256,224,190673,6,0,B|256:128|256:128|304:80|256:8,2,225,2|0|2
256,224,192062,1,0
